<?xml version="1.0" standalone="no"?>
<!DOCTYPE svg PUBLIC "-//W3C//DTD SVG 1.1//EN" "http://www.w3.org/Graphics/SVG/1.1/DTD/svg11.dtd" >
<svg xmlns="http://www.w3.org/2000/svg" xmlns:xlink="http://www.w3.org/1999/xlink" version="1.1">
<metadata>
Created by FontForge 20190801 at Fri Apr 29 23:32:16 2022
 By www-data
Copyright 2015 The Public Sans Project Authors (https://github.com/uswds/public-sans)
</metadata>
<defs>
<font id="PublicSansThin" horiz-adv-x="1079" >
  <font-face 
    font-family="PublicSansThin"
    font-weight="250"
    font-stretch="normal"
    units-per-em="2000"
    panose-1="0 0 0 0 0 0 0 0 0 0"
    ascent="1600"
    descent="-400"
    x-height="1034"
    cap-height="1446"
    bbox="-293 -480 2393 2050"
    underline-thickness="140"
    underline-position="-440"
    unicode-range="U+000D-FB02"
  />
<missing-glyph horiz-adv-x="1430" 
d="M258 1652h918q34 0 34 -42v-1876q0 -56 -64 -56h-872q-31 0 -42.5 12t-11.5 36v1880q0 46 38 46zM1110 -114v1634q0 34 -30 34h-688zM322 1433v-1617q0 -19 9.5 -29.5t34.5 -10.5h669z" />
    <glyph glyph-name="fi" unicode="fi" horiz-adv-x="1246" 
d="M340 0v966h-246v68h246v172q0 120 51.5 180t168.5 60h152v-68h-172q-72 0 -97 -40.5t-25 -115.5v-188h284v-68h-284v-966h-78zM980 0v1034h79v-1034h-79zM971 1324v120h95v-120h-95z" />
    <glyph glyph-name="fl" unicode="fl" horiz-adv-x="1345" 
d="M340 0v966h-246v68h246v172q0 120 51.5 180t168.5 60h152v-68h-172q-72 0 -97 -40.5t-25 -115.5v-188h284v-68h-284v-966h-78zM1163 -8q-52 0 -88.5 19t-59.5 53t-33.5 79.5t-10.5 98.5v1244h78v-1244q0 -100 36.5 -142t79.5 -42h63v-58q-17 -4 -35.5 -6t-29.5 -2z" />
    <glyph glyph-name=".notdef" horiz-adv-x="1430" 
d="M258 1652h918q34 0 34 -42v-1876q0 -56 -64 -56h-872q-31 0 -42.5 12t-11.5 36v1880q0 46 38 46zM1110 -114v1634q0 34 -30 34h-688zM322 1433v-1617q0 -19 9.5 -29.5t34.5 -10.5h669z" />
    <glyph glyph-name="uni0000" horiz-adv-x="54" 
 />
    <glyph glyph-name="uni0000" horiz-adv-x="54" 
 />
    <glyph glyph-name="nonmarkingreturn" horiz-adv-x="666" 
 />
    <glyph glyph-name="CR" unicode="&#xd;" horiz-adv-x="458" 
 />
    <glyph glyph-name="space" unicode=" " horiz-adv-x="520" 
 />
    <glyph glyph-name="exclam" unicode="!" horiz-adv-x="440" 
d="M188 288l-18 1158h102l-20 -1158h-64zM160 0v154h120v-154h-120z" />
    <glyph glyph-name="quotedbl" unicode="&#x22;" horiz-adv-x="742" 
d="M472 1072l-40 374h150l-44 -374h-66zM200 1072l-40 374h150l-44 -374h-66z" />
    <glyph glyph-name="numbersign" unicode="#" horiz-adv-x="1180" 
d="M726 -2l-74 12l222 1438l74 -10zM90 488v74h936v-74h-936zM330 -2l-74 12l222 1438l74 -10zM154 898v74h936v-74h-936z" />
    <glyph glyph-name="dollar" unicode="$" horiz-adv-x="1272" 
d="M648 -20q-198 0 -336.5 93t-171.5 261l84 18q39 -147 152 -217.5t272 -70.5q96 0 187.5 34.5t151 98.5t59.5 153q0 111 -63 185.5t-201 116.5l-262 80q-156 48 -245 125.5t-89 206.5q0 114 58 204.5t165 143t253 52.5q134 0 229 -54.5t149 -142t64 -187.5l-80 -16
q-30 162 -124.5 240t-241.5 78q-64 0 -132 -18.5t-125.5 -57t-93 -98t-35.5 -142.5q0 -93 66.5 -147.5t235.5 -110.5l248 -80q170 -55 240 -155t70 -219q0 -106 -62 -190.5t-171.5 -134t-250.5 -49.5zM600 -228v258h90v-258h-90zM618 1414v258h90v-258h-90z" />
    <glyph glyph-name="percent" unicode="%" horiz-adv-x="1738" 
d="M334 -8l977 1470h73l-972 -1470h-78zM440 638q-93 0 -165 49t-113.5 142t-41.5 225q0 133 41.5 225t113.5 140.5t165 48.5t164.5 -48.5t111.5 -140.5t40 -225q0 -132 -40 -225t-111.5 -142t-164.5 -49zM438 696q115 0 183.5 92t68.5 266t-68.5 265t-183.5 91
t-183.5 -91.5t-68.5 -264.5q0 -172 68.5 -265t183.5 -93zM1302 -20q-93 0 -165.5 47t-113.5 140t-41 231q0 135 41 227t113.5 139.5t165.5 47.5t164.5 -47.5t111.5 -139.5t40 -227q0 -138 -40 -231t-111.5 -140t-164.5 -47zM1300 38q115 0 183.5 92t68.5 266t-68.5 265
t-183.5 91t-183.5 -91.5t-68.5 -264.5q0 -172 68.5 -265t183.5 -93z" />
    <glyph glyph-name="ampersand" unicode="&#x26;" horiz-adv-x="1266" 
d="M486 -10q-124 0 -215 47t-141 131t-50 196q0 90 35 166.5t106.5 142t180.5 123.5q-61 63 -102.5 124.5t-62.5 123.5t-21 126q0 83 40.5 150.5t112 107.5t165.5 40q90 0 170 -36.5t130 -104t50 -161.5q0 -28 -10.5 -69.5t-45.5 -94t-108.5 -112t-199.5 -122.5l408 -476
q24 24 59.5 83t64.5 150t32 211h66q-3 -117 -25 -205t-60.5 -158.5t-90.5 -134.5l202 -238h-96l-158 180q-102 -96 -210.5 -143t-225.5 -47zM494 64q110 0 209 48.5t175 123.5l-430 502q-129 -70 -207.5 -166t-78.5 -216q0 -87 44 -152.5t119 -102.5t169 -37zM476 828
q136 76 206 134.5t95 108.5t25 99q0 83 -40.5 131.5t-102 69.5t-125.5 21q-117 0 -176.5 -67t-59.5 -153q0 -66 28.5 -129t64 -111t55.5 -70z" />
    <glyph glyph-name="quotesingle" unicode="'" horiz-adv-x="470" 
d="M200 1072l-40 374h150l-44 -374h-66z" />
    <glyph glyph-name="parenleft" unicode="(" horiz-adv-x="544" 
d="M422 -208q-81 140 -139.5 277.5t-90.5 284.5t-32 316q0 246 81 476t205 414h48q-100 -193 -169 -424.5t-69 -467.5q0 -223 54.5 -438.5t159.5 -437.5h-48z" />
    <glyph glyph-name="parenright" unicode=")" horiz-adv-x="564" 
d="M78 -208q105 222 159.5 437.5t54.5 438.5q0 236 -68.5 467.5t-169.5 424.5h48q125 -184 205.5 -414t80.5 -476q0 -169 -31.5 -316t-90.5 -284.5t-140 -277.5h-48z" />
    <glyph glyph-name="asterisk" unicode="*" horiz-adv-x="630" 
d="M174 880l-64 42l172 222l-232 68l22 64l224 -82l-14 252h82l-10 -252l226 94l20 -62l-228 -80l166 -210l-64 -48l-146 232z" />
    <glyph glyph-name="plus" unicode="+" horiz-adv-x="1042" 
d="M486 336l-2 782h74l2 -782h-74zM130 688v74l782 2v-74z" />
    <glyph glyph-name="comma" unicode="," horiz-adv-x="412" 
d="M80 -222l108 222h-72v160h166v-136l-138 -246h-64z" />
    <glyph glyph-name="hyphen" unicode="-" horiz-adv-x="724" 
d="M127 478v78l470 2v-78z" />
    <glyph glyph-name="period" unicode="." horiz-adv-x="361" 
d="M120 0v154h121v-154h-121z" />
    <glyph glyph-name="slash" unicode="/" horiz-adv-x="640" 
d="M30 -118l496 1564h84l-496 -1564h-84z" />
    <glyph glyph-name="zero" unicode="0" horiz-adv-x="1158" 
d="M577 -22q-213 0 -342.5 181.5t-129.5 556.5q0 253 60 419.5t166.5 248.5t247.5 82q212 0 343 -184t131 -562q0 -376 -131.5 -559t-344.5 -183zM581 60q180 0 279 157t99 503q0 350 -100.5 507t-279.5 157q-178 0 -281 -158t-103 -506q0 -345 103 -502.5t283 -157.5z" />
    <glyph glyph-name="one" unicode="1" horiz-adv-x="771" 
d="M400 0v1218h-300v78q135 0 203 14.5t90.5 47.5t22.5 88h70v-1446h-86z" />
    <glyph glyph-name="two" unicode="2" horiz-adv-x="1115" 
d="M136 0v82v44q0 112 42 194t111 143.5t151.5 112t164.5 99.5t151 105t111 129t42 173q0 135 -95 217.5t-254 82.5q-175 0 -271 -96.5t-101 -237.5h-88q4 112 59 207t158 153t250 58q128 0 224 -48t149 -135t53 -203q0 -113 -42 -194.5t-110.5 -142.5t-150.5 -111
t-164.5 -98.5t-151 -104.5t-110.5 -129t-42 -174v-44h788v-82h-874z" />
    <glyph glyph-name="three" unicode="3" horiz-adv-x="1191" 
d="M574 -22q-125 2 -229 53t-168.5 141.5t-71.5 211.5h89q20 -145 123.5 -234.5t266.5 -89.5q124 0 217 40.5t145 113t52 168.5q0 113 -61 188t-163.5 112.5t-225.5 37.5h-122v82h122q113 0 205 43.5t146.5 113.5t54.5 149q0 68 -40.5 131.5t-122 104t-205.5 40.5
q-86 0 -170 -37.5t-139 -112t-55 -186.5h-88q0 125 62 219t164 146.5t222 52.5q139 0 242 -45t160.5 -125.5t57.5 -187.5q0 -108 -74 -199t-214 -141q110 -30 184 -85t111 -130t37 -165q0 -91 -36 -167t-103.5 -131t-162 -84t-210.5 -28z" />
    <glyph glyph-name="four" unicode="4" horiz-adv-x="1201" 
d="M796 0v418h-696v98l688 930h90v-946h256v-82h-256v-418h-82zM184 500h604v812z" />
    <glyph glyph-name="five" unicode="5" horiz-adv-x="1212" 
d="M619 -22q-125 0 -231 50.5t-180 141t-103 210.5h92q31 -97 91.5 -170t145.5 -113.5t189 -40.5q179 0 287.5 109t108.5 307q0 123 -53.5 210.5t-139.5 134.5t-184 47q-73 0 -136.5 -13t-122.5 -53t-119 -122v0v0h-99l64 770h798v-80h-714l-45 -586q64 89 162.5 125.5
t211.5 36.5q117 0 223.5 -52t174 -156t67.5 -260q0 -148 -61 -259.5t-171 -174t-256 -62.5z" />
    <glyph glyph-name="six" unicode="6" horiz-adv-x="1170" 
d="M609 -22q-151 0 -264.5 85t-176.5 247.5t-63 395.5q0 227 57.5 398t174 266.5t292.5 95.5q104 0 192.5 -40t150 -115t85.5 -181h-81q-31 114 -122 186t-225 72q-152 0 -254 -85t-150 -258.5t-38 -438.5q21 99 80.5 175.5t145.5 119.5t189 43q139 0 243 -55.5t162 -161
t58 -255.5q0 -148 -53.5 -259t-155.5 -173t-247 -62zM615 60q108 0 189.5 51t126.5 143t45 214q0 118 -38.5 206.5t-119.5 138t-207 49.5q-98 0 -185 -46.5t-141 -127t-54 -182.5q-2 -125 45.5 -226t134.5 -160.5t204 -59.5z" />
    <glyph glyph-name="seven" unicode="7" horiz-adv-x="1150" 
d="M358 0q25 110 75.5 267t125.5 341t173 378.5t216 379.5h-848v80h950v-80q-86 -126 -167 -276t-153 -307t-130 -305t-97.5 -272t-56.5 -206h-88z" />
    <glyph glyph-name="eight" unicode="8" horiz-adv-x="1249" 
d="M623 -22q-157 0 -273.5 50.5t-180.5 141.5t-64 212q0 85 44 165t114.5 136.5t149.5 70.5q-110 42 -177 124t-67 206q0 121 60 206.5t163 130.5t231 45q130 0 232.5 -45t162 -130.5t59.5 -206.5q0 -124 -65.5 -206t-176.5 -124q79 -14 149.5 -70.5t115 -136.5t44.5 -165
q0 -121 -64 -212t-181 -141.5t-276 -50.5zM623 56q196 0 314.5 87.5t118.5 232.5q0 96 -54 171t-151 118t-228 43q-129 0 -225.5 -43t-150.5 -118t-54 -171q0 -145 118.5 -232.5t311.5 -87.5zM623 798q166 0 266 76t100 214t-101 218t-265 80q-163 0 -264 -80.5t-101 -217.5
q0 -138 101 -214t264 -76z" />
    <glyph glyph-name="nine" unicode="9" horiz-adv-x="1180" 
d="M543 -22q-104 0 -195 39t-155 113t-88 180h82q32 -114 127.5 -184t228.5 -70q152 0 256.5 84.5t155 257.5t40.5 438q-21 -99 -80.5 -175t-145.5 -119.5t-188 -43.5q-139 0 -243 55.5t-161.5 161t-57.5 255.5q0 148 53 259.5t154.5 174t246.5 62.5q151 0 264 -85.5
t175.5 -248.5t62.5 -396q0 -227 -59.5 -397.5t-178 -265.5t-294.5 -95zM571 580q99 0 185.5 46.5t140.5 127t54 182.5q2 125 -45.5 226.5t-134.5 161.5t-204 60q-107 0 -188.5 -51.5t-126.5 -144t-45 -214.5q0 -177 87.5 -285.5t276.5 -108.5z" />
    <glyph glyph-name="colon" unicode=":" horiz-adv-x="362" 
d="M120 820v156h122v-156h-122zM120 6v154h122v-154h-122z" />
    <glyph glyph-name="semicolon" unicode=";" horiz-adv-x="404" 
d="M120 -262l98 262h-56v154h122v-136l-122 -280h-42zM152 820v156h122v-156h-122z" />
    <glyph glyph-name="less" unicode="&#x3c;" horiz-adv-x="1028" 
d="M896 348l-766 302v94l768 310v-98l-648 -258l646 -260v-90z" />
    <glyph glyph-name="equal" unicode="=" horiz-adv-x="1042" 
d="M130 884v74l782 2v-74zM130 454v74l782 2v-74z" />
    <glyph glyph-name="greater" unicode="&#x3e;" horiz-adv-x="1026" 
d="M132 348v90l646 260l-648 258v98l766 -310v-94z" />
    <glyph glyph-name="question" unicode="?" horiz-adv-x="1014" 
d="M430 292q0 117 41 204.5t101 159.5t120 139.5t101 143.5t41 173q0 126 -87.5 199t-234.5 73q-76 0 -150.5 -28.5t-131 -75.5t-78.5 -102l-82 38q63 114 183 182t259 68q126 0 218.5 -43.5t143 -123t50.5 -187.5q0 -106 -41.5 -186.5t-103 -149.5t-123 -139t-103 -153
t-41.5 -192h-82zM412 0v154h120v-154h-120z" />
    <glyph glyph-name="at" unicode="@" horiz-adv-x="1670" 
d="M858 -220q-176 0 -314.5 57t-235.5 157t-147.5 232t-50.5 282q0 158 56 299t159.5 249t245 170t312.5 62q123 0 243 -36.5t218.5 -112t157 -193.5t58.5 -282q0 -150 -49.5 -264t-134 -178t-188.5 -64q-70 0 -111 24t-55 88q-3 14 -7.5 14.5t-14.5 -10.5
q-43 -61 -109.5 -102.5t-168.5 -41.5q-67 0 -127 42.5t-97 120t-37 181.5q0 127 47.5 229.5t130 162.5t187.5 60q80 0 140.5 -37.5t93.5 -102.5q2 -3 6.5 -2t5.5 8l23 84h82l-77 -458q-16 -99 7 -137.5t83 -38.5q76 0 137.5 51t98.5 143.5t37 215.5q0 148 -52 253
t-138 171.5t-188.5 98t-203.5 31.5q-155 0 -280 -55.5t-213.5 -152.5t-136 -224t-47.5 -270q0 -126 42.5 -240.5t127 -204.5t212 -141.5t297.5 -51.5q89 0 151.5 18t113 48t102.5 66l53 -68q-97 -72 -209.5 -111t-235.5 -39zM732 216q70 0 131.5 41t104 109.5t56.5 151.5
q17 112 -9.5 183t-77.5 105t-107 34q-83 0 -144 -49.5t-94.5 -132t-33.5 -182.5q0 -123 46.5 -191.5t127.5 -68.5z" />
    <glyph glyph-name="A" unicode="A" horiz-adv-x="1388" 
d="M110 0l529 1446h111l528 -1446h-86l-167 456h-664l-167 -456h-84zM392 542h602l-301 823z" />
    <glyph glyph-name="B" unicode="B" horiz-adv-x="1312" 
d="M220 0v1446h406q243 0 377.5 -96t134.5 -278q0 -123 -65 -208t-221 -130q80 -13 140.5 -42.5t101 -73t60.5 -102t20 -130.5q0 -193 -142.5 -289.5t-399.5 -96.5h-412zM298 82h324q231 0 352.5 66.5t121.5 225.5q0 117 -60.5 186.5t-162 99.5t-223.5 30h-352v-608z
M298 772h352q68 0 139.5 12t133 43.5t99.5 88.5t38 146q0 159 -122 231.5t-320 72.5h-320v-594z" />
    <glyph glyph-name="C" unicode="C" horiz-adv-x="1318" 
d="M694 -20q-187 0 -315 83.5t-193.5 248t-65.5 408.5t65.5 410t193.5 251t315 85q143 0 252 -61.5t174.5 -160.5t77.5 -210h-88q-19 94 -71.5 173.5t-138.5 128t-206 48.5q-162 0 -270 -73.5t-162 -221t-54 -369.5q0 -333 121 -495.5t365 -162.5q120 0 206 48t138.5 127.5
t71.5 173.5h88q-9 -82 -49 -159.5t-105.5 -138.5t-154 -97t-195.5 -36z" />
    <glyph glyph-name="D" unicode="D" horiz-adv-x="1334" 
d="M220 0v1446q2 0 22.5 -0.5t54 -0.5t76 -0.5t87.5 -0.5q268 -1 434 -78t243 -234t77 -398q0 -255 -84.5 -417t-258 -239.5t-439.5 -77.5h-212zM306 82h120q234 0 390.5 62.5t235 204t78.5 377.5q0 249 -81 387.5t-235.5 194.5t-375.5 56h-132v-1282z" />
    <glyph glyph-name="E" unicode="E" horiz-adv-x="1213" 
d="M220 0v1446h830v-80h-752v-594h700v-82h-700v-606l780 -2v-82h-858z" />
    <glyph glyph-name="F" unicode="F" horiz-adv-x="1148" 
d="M220 0v1446h818v-80h-732v-592h680v-82h-680v-692h-86z" />
    <glyph glyph-name="G" unicode="G" horiz-adv-x="1414" 
d="M697 -20q-182 0 -311.5 84t-197.5 248.5t-68 407.5q0 241 68 407.5t197.5 252.5t311.5 86q90 0 175.5 -35t155 -95.5t114 -138t52.5 -163.5h-88q-15 91 -72.5 171t-144.5 129.5t-192 49.5q-152 0 -263.5 -73.5t-171.5 -221t-60 -369.5q0 -166 34.5 -290.5t99 -207
t156 -123.5t205.5 -41q116 0 200.5 42t139.5 109t82 143.5t27 145.5v168h-404v70h482v-736h-78v252q-39 -76 -101.5 -137.5t-149 -98t-198.5 -36.5z" />
    <glyph glyph-name="H" unicode="H" horiz-adv-x="1524" 
d="M220 0v1446h78v-652h928v652h78v-1446h-78v712h-928v-712h-78z" />
    <glyph glyph-name="I" unicode="I" horiz-adv-x="518" 
d="M220 0v1446h78v-1446h-78z" />
    <glyph glyph-name="J" unicode="J" horiz-adv-x="750" 
d="M330 -20q-85 0 -147 24.5t-73 33.5l20 86q33 -15 76.5 -38.5t119.5 -23.5q95 0 132.5 55t37.5 191v1138h78v-1166q0 -92 -22 -159.5t-75 -104t-147 -36.5z" />
    <glyph glyph-name="K" unicode="K" horiz-adv-x="1295" 
d="M220 0v1446h82v-834l768 834h108l-529 -577l558 -869h-99l-518 812l-288 -315v-497h-82z" />
    <glyph glyph-name="L" unicode="L" horiz-adv-x="1154" 
d="M220 0l2 1446h84v-1360h738v-86h-824z" />
    <glyph glyph-name="M" unicode="M" horiz-adv-x="1706" 
d="M220 0v1446h88l542 -1358l550 1358h86v-1446h-86v1232l-492 -1232h-116l-486 1216v-1216h-86z" />
    <glyph glyph-name="N" unicode="N" horiz-adv-x="1452" 
d="M220 0v1446h64l870 -1290v1290h78v-1446h-68l-866 1286v-1286h-78z" />
    <glyph glyph-name="O" unicode="O" horiz-adv-x="1414" 
d="M710 -20q-182 0 -314.5 84.5t-204 249.5t-71.5 406q0 243 71.5 409t204 251.5t314.5 85.5t313 -85t201 -251t70 -410q0 -241 -70 -405.5t-201 -249.5t-313 -85zM710 62q162 0 272.5 72t167 218.5t56.5 367.5q0 224 -57.5 371t-168 220t-270.5 73t-272 -73.5t-171 -221
t-59 -369.5t59 -368t171 -218t272 -72z" />
    <glyph glyph-name="P" unicode="P" horiz-adv-x="1241" 
d="M220 0v1446h446q152 0 269.5 -49.5t184 -147.5t66.5 -243t-65.5 -246t-180 -153.5t-262.5 -52.5h-372v-554h-86zM306 640h372q188 0 304 96t116 276t-118 265t-316 85h-358v-722z" />
    <glyph glyph-name="Q" unicode="Q" horiz-adv-x="1444" 
d="M1276 -238q-47 0 -120 19t-147 70.5t-125 150.5q-48 -10 -91 -16t-85 -6q-179 0 -311 82t-204.5 246.5t-72.5 411.5q0 245 71 411t202.5 250.5t314.5 84.5t314.5 -84.5t201.5 -250.5t70 -411q0 -249 -74 -420.5t-249 -263.5q49 -102 129 -145.5t176 -48.5v-80zM708 62
q240 0 370 162t130 496q0 326 -127.5 495t-372.5 169q-244 0 -372 -169.5t-128 -498.5q0 -331 130.5 -492.5t369.5 -161.5z" />
    <glyph glyph-name="R" unicode="R" horiz-adv-x="1314" 
d="M220 0v1446h510q140 0 239.5 -40t152 -119.5t52.5 -198.5q0 -121 -48 -199t-119 -121.5t-141 -61.5l300 -706h-90l-292 688h-486v-688h-78zM298 770h364q209 0 318.5 70.5t109.5 233.5q0 155 -92.5 223.5t-269.5 68.5h-430v-596z" />
    <glyph glyph-name="S" unicode="S" horiz-adv-x="1296" 
d="M657 -20q-102 0 -190 24.5t-158 72t-115.5 117t-61.5 160.5h88q22 -98 86 -164t156 -99t195 -33q116 0 209 38.5t147.5 108.5t54.5 164q0 98 -58.5 166t-199.5 109l-324 94q-87 26 -157 67t-111 108.5t-41 172.5q0 110 60.5 195.5t165.5 134t238 48.5q161 0 268.5 -59.5
t162 -151.5t53.5 -189h-88q-11 122 -70.5 192t-146 100t-182.5 30q-180 0 -278.5 -87t-98.5 -213q0 -112 68.5 -173t189.5 -96l330 -95q117 -33 183 -88.5t93 -123.5t27 -141q0 -109 -59.5 -197.5t-170 -140t-265.5 -51.5z" />
    <glyph glyph-name="T" unicode="T" horiz-adv-x="1141" 
d="M551 0v1366h-496v80h1031v-80h-456v-1366h-79z" />
    <glyph glyph-name="U" unicode="U" horiz-adv-x="1354" 
d="M698 -20q-164 0 -270 53.5t-157 164t-51 280.5v968h86v-1002q0 -189 96.5 -288.5t295.5 -99.5q134 0 223.5 43.5t134 130t44.5 214.5v1002h78v-998q0 -157 -53 -261t-159.5 -155.5t-267.5 -51.5z" />
    <glyph glyph-name="V" unicode="V" horiz-adv-x="1282" 
d="M583 0l-528 1446h86l500 -1365l500 1365h86l-528 -1446h-116z" />
    <glyph glyph-name="W" unicode="W" horiz-adv-x="1877" 
d="M461 0l-406 1446h87l371 -1348l383 1348h79l377 -1348l384 1348h86l-416 -1446h-109l-363 1296l-370 -1296h-103z" />
    <glyph glyph-name="X" unicode="X" horiz-adv-x="1319" 
d="M110 0l500 742l-479 704h95l431 -635l428 635h96l-477 -704l505 -742h-95l-457 671l-452 -671h-95z" />
    <glyph glyph-name="Y" unicode="Y" horiz-adv-x="1094" 
d="M513 0v624l-485 822h88l436 -744l428 744h86l-476 -824v-622h-77z" />
    <glyph glyph-name="Z" unicode="Z" horiz-adv-x="1208" 
d="M147 0v62l850 1306h-832v78h933v-60l-853 -1308h853v-78h-951z" />
    <glyph glyph-name="bracketleft" unicode="[" horiz-adv-x="538" 
d="M212 -322l-2 1768h288v-72h-202l-2 -1624h202v-72h-284z" />
    <glyph glyph-name="backslash" unicode="\" horiz-adv-x="640" 
d="M524 -118l-494 1564h84l496 -1564h-86z" />
    <glyph glyph-name="bracketright" unicode="]" horiz-adv-x="538" 
d="M42 -322v72h202l-2 1624h-202v72h288l-2 -1768h-284z" />
    <glyph glyph-name="asciicircum" unicode="^" horiz-adv-x="924" 
d="M718 268l-258 658l-260 -654h-90l284 710q17 45 40.5 61.5t48 2t43.5 -63.5l288 -714h-96z" />
    <glyph glyph-name="underscore" unicode="_" horiz-adv-x="964" 
d="M130 -198v78l704 2v-78z" />
    <glyph glyph-name="grave" unicode="`" horiz-adv-x="346" 
d="M261 1155l-251 291h120l206 -291h-75z" />
    <glyph glyph-name="a" unicode="a" 
d="M453 -20q-102 0 -176.5 34.5t-115 98t-40.5 151.5q0 174 112.5 253.5t369.5 88.5l239 8v100q0 119 -72.5 191.5t-223.5 72.5q-115 0 -193 -53.5t-95 -166.5h-84q6 89 48.5 155.5t124.5 103.5t203 37q111 0 194 -36.5t129 -111.5t46 -190v-716h-72l-3 210
q-67 -129 -172 -179.5t-219 -50.5zM466 54q65 0 131 23.5t121.5 64t89.5 90.5t34 102v202l-201 -4q-165 -3 -260.5 -31t-136.5 -84.5t-41 -146.5q0 -102 72 -159t191 -57z" />
    <glyph glyph-name="b" unicode="b" horiz-adv-x="1170" 
d="M627 -20q-105 0 -174.5 28.5t-110 69.5t-59.5 78.5t-25 55.5l-6 -212h-72v1486h80v-640q7 18 30.5 52t67 70t110 61t159.5 25q195 0 314 -131t119 -403q0 -162 -47 -283.5t-143 -189t-243 -67.5zM625 54q157 0 253 117.5t96 361.5q0 200 -87 322.5t-268 122.5
q-133 0 -210.5 -54.5t-112 -154.5t-36.5 -236q0 -250 81 -364.5t284 -114.5z" />
    <glyph glyph-name="c" unicode="c" 
d="M562 -20q-135 0 -237 57.5t-158.5 176t-56.5 300.5q0 162 49 283.5t149.5 189t253.5 67.5q93 0 175.5 -32.5t141.5 -98.5t79 -167h-85q-12 68 -54.5 118t-108.5 77t-148 27q-163 0 -266 -113.5t-103 -350.5q0 -206 91 -333t278 -127q82 0 148 27t108.5 77t54.5 118h85
q-20 -100 -79 -166t-141.5 -98t-175.5 -32z" />
    <glyph glyph-name="d" unicode="d" horiz-adv-x="1170" 
d="M543 -20q-195 0 -314 132.5t-119 407.5q0 160 47 280t143 187t243 67q93 0 159.5 -25t110 -61t67 -70t30.5 -52v640h80v-1486h-72l-6 212q-6 -18 -25 -55.5t-59.5 -78.5t-110 -69.5t-174.5 -28.5zM545 54q203 0 284 114.5t81 364.5q-2 136 -36.5 236t-112 154.5
t-210.5 54.5q-160 0 -257.5 -109t-97.5 -336q0 -215 85.5 -347t263.5 -132z" />
    <glyph glyph-name="e" unicode="e" horiz-adv-x="1114" 
d="M581 -20q-136 0 -239.5 61.5t-162 179.5t-58.5 287q0 171 52.5 293.5t153 187.5t242.5 65q134 0 228.5 -59t145 -170.5t50.5 -270.5v-56h-787q0 -117 39 -217.5t122 -162.5t214 -62q123 0 210 59t105 161h85q-20 -100 -80 -166t-143.5 -98t-176.5 -32zM208 574h702
q0 115 -37 206.5t-113 144.5t-193 53q-127 0 -206.5 -60.5t-116.5 -153.5t-36 -190z" />
    <glyph glyph-name="f" unicode="f" horiz-adv-x="791" 
d="M340 0v966h-246v68h246v172q0 120 51.5 180t168.5 60h152v-68h-172q-72 0 -97 -40.5t-25 -115.5v-188h284v-68h-284v-966h-78z" />
    <glyph glyph-name="g" unicode="g" horiz-adv-x="1233" 
d="M576 -342q-211 0 -339.5 71t-128.5 219q0 59 24.5 102t59 73.5t65 49.5t41.5 29q-19 12 -39 25t-33.5 32.5t-13.5 50.5q0 42 39.5 77t114.5 57q-80 44 -129 114t-49 162q0 99 44.5 173.5t135.5 115.5t230 41q96 0 165 -24t129 -74q10 5 41.5 18.5t70.5 30t70.5 30
t41.5 17.5v-116l-184 -40q21 -37 33.5 -82t12.5 -90q0 -93 -42.5 -163.5t-130 -109.5t-221.5 -39h-11h-11q-154 -3 -211 -33t-57 -63t45 -48t169 -24q45 -3 103 -6t131 -8q135 -7 217.5 -72.5t82.5 -191.5q0 -136 -114 -220t-352 -84zM594 -268q165 0 265.5 56.5
t100.5 173.5q0 77 -53.5 127t-166.5 57l-344 22q-31 2 -80 -24.5t-87.5 -75t-38.5 -112.5q0 -100 99 -162t305 -62zM586 482q141 0 227.5 59t86.5 183q0 129 -86.5 190.5t-227.5 61.5q-144 0 -232 -62t-88 -190q0 -118 83 -180t237 -62z" />
    <glyph glyph-name="h" unicode="h" horiz-adv-x="1122" 
d="M180 0v1486h72v-606q27 49 77 88.5t119 62.5t153 23q103 0 184.5 -36.5t129 -101.5t47.5 -150v-766h-78v736q0 114 -76.5 178t-208.5 64q-91 0 -169 -28t-125 -85t-47 -145v-720h-78z" />
    <glyph glyph-name="i" unicode="i" horiz-adv-x="455" 
d="M189 0v1034h79v-1034h-79zM180 1324v120h95v-120h-95z" />
    <glyph glyph-name="j" unicode="j" horiz-adv-x="473" 
d="M66 -332q-88 0 -107 9l-19 9v52l124 2q77 2 110 39.5t33 130.5v1124h78v-1134q0 -120 -43 -176t-176 -56zM197 1324v120h96v-120h-96z" />
    <glyph glyph-name="k" unicode="k" horiz-adv-x="1087" 
d="M180 0v1486h77v-1058l592 606h110l-370 -376l408 -658h-100l-368 592l-272 -276v-316h-77z" />
    <glyph glyph-name="l" unicode="l" horiz-adv-x="554" 
d="M372 -8q-52 0 -88.5 19t-59.5 53t-33.5 79.5t-10.5 98.5v1244h78v-1244q0 -100 36.5 -142t79.5 -42h63v-58q-17 -4 -35.5 -6t-29.5 -2z" />
    <glyph glyph-name="m" unicode="m" horiz-adv-x="1668" 
d="M180 0v1034h72v-154q38 69 108 121.5t190 52.5q60 0 121.5 -19.5t111 -58t72.5 -94.5q47 81 129.5 126.5t187.5 45.5q52 0 110.5 -14t109.5 -53.5t83.5 -115.5t32.5 -201v-670h-78v670q0 125 -36.5 191.5t-95 91.5t-126.5 25q-59 0 -126.5 -22t-115.5 -78t-48 -158v-720
h-78v752q0 76 -40 126t-99 75t-117 25q-65 0 -132 -25.5t-112.5 -82.5t-45.5 -150v-720h-78z" />
    <glyph glyph-name="n" unicode="n" horiz-adv-x="1122" 
d="M180 0v1034h72v-154q27 49 76.5 88.5t118.5 62.5t152 23q102 0 184.5 -41t130.5 -126t48 -217v-670h-78v670q0 158 -76.5 233t-208.5 75q-91 0 -169 -28t-125 -85t-47 -145v-720h-78z" />
    <glyph glyph-name="o" unicode="o" horiz-adv-x="1110" 
d="M558 -20q-134 0 -235 58t-157 176.5t-56 299.5q0 162 48.5 283.5t148 189t251.5 67.5q133 0 232 -58.5t154.5 -178t55.5 -303.5q0 -160 -48 -280t-145.5 -187t-248.5 -67zM558 54q109 0 190 50t126 152t45 258q0 139 -39 243.5t-119 162.5t-203 58q-110 0 -192.5 -50
t-128 -153t-45.5 -261q0 -138 39.5 -241.5t121 -161t205.5 -57.5z" />
    <glyph glyph-name="p" unicode="p" horiz-adv-x="1168" 
d="M180 -322v1356h76l4 -212q11 28 35 67t66 77t105 63t152 25q132 0 231 -56t154 -171t55 -291q0 -167 -47.5 -292t-145 -194.5t-247.5 -69.5q-89 0 -152 25.5t-104.5 64.5t-65.5 79t-36 70v-541h-80zM618 54q161 0 258.5 116.5t97.5 357.5q0 203 -87 326.5t-269 123.5
q-175 0 -268 -122t-93 -328q0 -137 41.5 -244t122 -168.5t197.5 -61.5z" />
    <glyph glyph-name="q" unicode="q" horiz-adv-x="1168" 
d="M908 -322v541q-12 -30 -36 -70t-65.5 -79t-104.5 -64.5t-152 -25.5q-132 0 -231 60t-154 183.5t-55 312.5q0 156 47.5 272.5t145.5 181t247 64.5q89 0 152 -25t105 -63t66 -77t35 -67l4 212h76v-1356h-80zM550 54q117 0 197.5 61.5t122 168.5t41.5 244q0 206 -92.5 328
t-268.5 122q-160 0 -258 -110t-98 -340q0 -213 87.5 -343.5t268.5 -130.5z" />
    <glyph glyph-name="r" unicode="r" horiz-adv-x="739" 
d="M180 0v1034h72v-154q27 70 75.5 107.5t104.5 52t105 14.5q31 0 62 -4.5t50 -15.5v-80q-21 10 -55.5 14t-56.5 4q-37 0 -84.5 -10.5t-92 -38t-73.5 -77t-29 -126.5v-720h-78z" />
    <glyph glyph-name="s" unicode="s" horiz-adv-x="970" 
d="M509 -20q-108 0 -193.5 32t-138 98t-64.5 166h83q14 -66 52.5 -115.5t104 -77t156.5 -27.5q125 0 201.5 51.5t76.5 158.5q0 72 -37 115.5t-108 63.5l-246 68q-113 32 -179 90t-66 161q0 87 38.5 152t117 101.5t198.5 36.5q146 0 238.5 -67t99.5 -207h-83
q-10 89 -73.5 143.5t-181.5 54.5q-122 0 -197 -52t-75 -162q0 -70 48.5 -109.5t135.5 -63.5l246 -68q57 -16 96 -42t63.5 -59t35.5 -72t11 -80q0 -87 -39 -152t-118.5 -101.5t-202.5 -36.5z" />
    <glyph glyph-name="t" unicode="t" horiz-adv-x="724" 
d="M493 0q-78 0 -121.5 23.5t-61 74.5t-17.5 134v734h-168v68h168l16 290h63v-290h237v-68h-237v-734q0 -72 12.5 -104.5t47 -41t99.5 -8.5h88v-68q-19 -6 -53.5 -8t-72.5 -2z" />
    <glyph glyph-name="u" unicode="u" horiz-adv-x="1132" 
d="M560 -20q-90 1 -163.5 24t-126.5 68t-81.5 113.5t-28.5 160.5v688h78v-688q0 -130 77.5 -210t239.5 -80q143 0 231 75t88 231v672h78v-1034h-72l-6 190q-18 -64 -59.5 -111.5t-105 -73.5t-149.5 -25z" />
    <glyph glyph-name="v" unicode="v" horiz-adv-x="977" 
d="M427 0l-359 1034h84l323 -946h26l330 946h78l-356 -1034h-126z" />
    <glyph glyph-name="w" unicode="w" horiz-adv-x="1542" 
d="M379 0l-304 1034h84l276 -948h24l276 948h71l292 -944h25l262 944h82l-287 -1034h-131l-278 900l-257 -900h-135z" />
    <glyph glyph-name="x" unicode="x" horiz-adv-x="1082" 
d="M90 0l400 536l-370 498h98l322 -436l324 436h98l-370 -498l400 -536h-97l-355 474l-351 -474h-99z" />
    <glyph glyph-name="y" unicode="y" horiz-adv-x="1014" 
d="M225 -330q-76 0 -100 8l-24 8v54h109q48 0 83 10t59.5 27t40.5 40.5t27 50.5l53 138l-405 1028h84l363 -922l355 922h76l-452 -1184q-26 -65 -65 -104.5t-90.5 -57.5t-113.5 -18z" />
    <glyph glyph-name="z" unicode="z" horiz-adv-x="930" 
d="M90 0v68l657 898h-633v68h719v-68l-655 -898h662v-68h-750z" />
    <glyph glyph-name="braceleft" unicode="{" horiz-adv-x="542" 
d="M448 -322q-77 0 -123.5 24t-67.5 65t-21 91v458q0 47 -25 95t-75.5 80.5t-125.5 32.5v76q114 2 170 66t56 152v454q0 50 22.5 89.5t69 62t118.5 22.5h56v-72h-56q-45 0 -72 -10.5t-39.5 -33t-12.5 -58.5v-454q0 -79 -24.5 -132.5t-66.5 -82t-93 -33.5q-12 -1 -12.5 -6.5
t12.5 -7.5q50 -4 92 -30t67 -77.5t25 -132.5v-458q0 -55 26.5 -81.5t99.5 -26.5h54v-72h-54z" />
    <glyph glyph-name="bar" unicode="|" horiz-adv-x="516" 
d="M222 -322l-2 1974h76v-1974h-74z" />
    <glyph glyph-name="braceright" unicode="}" horiz-adv-x="560" 
d="M48 -322v72h54q74 0 100 26.5t26 81.5v458q0 81 25 132.5t67 77.5t92 30q14 2 13 7.5t-13 6.5q-51 5 -92.5 33.5t-66.5 82t-25 132.5v454q0 36 -12 58.5t-39.5 33t-72.5 10.5h-56v72h56q72 0 118.5 -22.5t69 -62t22.5 -89.5v-454q0 -88 56 -152t170 -66v-76
q-75 0 -125 -32.5t-75.5 -80.5t-25.5 -95v-458q0 -50 -21 -91t-67.5 -65t-123.5 -24h-54z" />
    <glyph glyph-name="asciitilde" unicode="~" horiz-adv-x="1048" 
d="M144 654l-24 64q39 35 90.5 64.5t133.5 29.5q53 0 98 -13.5t88 -30.5t87.5 -30.5t96.5 -13.5q78 0 119.5 27t68.5 55l26 -68q-21 -27 -73.5 -55.5t-142.5 -28.5q-58 0 -103 13t-84.5 30t-81 30t-93.5 13q-76 0 -125 -27t-81 -59z" />
    <glyph glyph-name="uni00A0" unicode="&#xa0;" horiz-adv-x="520" 
 />
    <glyph glyph-name="exclamdown" unicode="&#xa1;" horiz-adv-x="440" 
d="M170 -322l18 1066h64l20 -1066h-102zM160 880v154h120v-154h-120z" />
    <glyph glyph-name="cent" unicode="&#xa2;" horiz-adv-x="1048" 
d="M562 202q-135 0 -237 57.5t-158.5 176t-56.5 300.5q0 162 49 283.5t149.5 189t253.5 67.5q93 0 175.5 -32.5t141.5 -98.5t79 -167h-85q-12 68 -54.5 118t-108.5 77t-148 27q-163 0 -266 -113.5t-103 -350.5q0 -206 91 -333t278 -127q82 0 148 27t108.5 77t54.5 118h85
q-20 -100 -79 -166t-141.5 -98t-175.5 -32zM514 0v236h80v-236h-80zM514 1210v236h80v-236h-80z" />
    <glyph glyph-name="sterling" unicode="&#xa3;" horiz-adv-x="1156" 
d="M20 0v76h82q77 0 133.5 82.5t56.5 259.5q0 54 -5.5 121.5t-20.5 158.5h-200v74h190l-40 150q-32 125 -14 225t73 171.5t135.5 109.5t173.5 38q82 0 154.5 -28t124.5 -71t71 -89l-74 -38q-36 68 -100 105t-172 37q-85 0 -155.5 -32.5t-112.5 -94t-42 -149.5
q0 -72 16.5 -163.5t43.5 -168.5h352v-74h-342q15 -73 21.5 -131t6.5 -117q0 -114 -22.5 -190.5t-50 -121t-43.5 -62.5h426q108 0 180 36.5t108 129.5l72 -30q-45 -108 -137 -161t-223 -53h-666z" />
    <glyph glyph-name="currency" unicode="&#xa4;" horiz-adv-x="1002" 
d="M186 356l-56 62l106 104q-33 45 -49.5 97t-16.5 109q0 108 60 190q8 14 -2 24l-96 98l58 56l106 -110q41 33 94 50.5t108 17.5q108 0 186 -60q15 -9 26 2l104 104l56 -58l-114 -114q32 -42 50 -93t18 -107q0 -52 -14.5 -100t-43.5 -86q-10 -16 2 -28l104 -98l-56 -58
l-114 112q-43 -33 -95 -52.5t-109 -19.5q-107 0 -192 60q-14 11 -24 -2zM502 484q69 0 124 34t86.5 89.5t31.5 120.5q0 64 -31.5 119.5t-86.5 90t-124 34.5q-70 0 -125 -34.5t-87 -90t-32 -119.5q0 -65 32 -120.5t87 -89.5t125 -34z" />
    <glyph glyph-name="yen" unicode="&#xa5;" horiz-adv-x="1128" 
d="M524 0v606l-494 840h102l436 -744l440 744h90l-484 -808v-638h-90zM212 308v74l714 2v-74zM212 582v74l714 2v-74z" />
    <glyph glyph-name="brokenbar" unicode="&#xa6;" horiz-adv-x="516" 
d="M222 864l-2 788h76v-788h-74zM222 -322l-2 788h76v-788h-74z" />
    <glyph glyph-name="section" unicode="&#xa7;" horiz-adv-x="936" 
d="M492 -132q-81 0 -159.5 28t-142 79.5t-100.5 122.5l64 40q50 -85 141 -138.5t203 -53.5q113 0 187.5 46.5t74.5 131.5q0 60 -47.5 115t-182.5 109l-190 74q-120 47 -171 115.5t-51 150.5q0 93 62.5 159t153.5 99q-91 45 -137.5 89t-62.5 88.5t-16 90.5q0 72 43.5 129
t121.5 90t181 33q79 0 146.5 -26t120 -69t87.5 -93l-66 -42q-49 66 -119 109t-159 43q-129 0 -200.5 -46.5t-71.5 -123.5q0 -51 38.5 -102.5t159.5 -101.5l176 -72q147 -61 208.5 -139t61.5 -171q0 -103 -60 -160t-134 -92q90 -51 142 -112t52 -144q0 -73 -45 -131
t-125 -91.5t-184 -33.5zM534 432q58 -4 109 21.5t83 69.5t32 97q0 75 -34.5 129.5t-153.5 102.5l-128 50q-63 -5 -117.5 -35.5t-88.5 -76.5t-34 -96q0 -63 38 -107.5t156 -94.5z" />
    <glyph glyph-name="dieresis" unicode="&#xa8;" horiz-adv-x="420" 
d="M322 1326v120h88v-120h-88zM10 1326v120h88v-120h-88z" />
    <glyph glyph-name="copyright" unicode="&#xa9;" horiz-adv-x="1606" 
d="M804 -20q-154 0 -289 57.5t-237.5 159.5t-160 237t-57.5 290q0 153 57.5 287.5t160 236.5t237.5 160t289 58q153 0 287.5 -58t236.5 -160t160 -236.5t58 -287.5q0 -155 -58 -290t-160 -237t-236.5 -159.5t-287.5 -57.5zM808 310q-110 0 -193 52.5t-129 146.5t-46 219
q0 124 47 219t130 149t191 54q70 0 126.5 -24.5t102 -66.5t83.5 -95l-72 -42q-48 77 -107 114.5t-127 37.5q-126 0 -207 -95t-81 -247q0 -154 81 -250t205 -96q81 0 147 45.5t105 118.5l62 -38q-28 -46 -63 -83.5t-75 -64t-85 -40.5t-95 -14zM804 66q129 0 246.5 46.5
t209.5 132.5t145 207.5t53 271.5q0 148 -53 269t-145 208t-209.5 134t-246.5 47q-133 0 -251.5 -47t-209.5 -134t-143 -208t-52 -269q0 -150 52 -271.5t143 -207.5t209.5 -132.5t251.5 -46.5z" />
    <glyph glyph-name="ordfeminine" unicode="&#xaa;" horiz-adv-x="823" 
d="M340 790q-103 0 -161 47t-58 131q0 93 78.5 145t231.5 67l142 14v50q0 77 -46 113.5t-134 36.5q-63 0 -108 -22t-86 -84l-61 26q34 69 103 107.5t160 38.5q116 0 179 -60t63 -164v-134.5v-85.5q0 -20 1 -40.5t2.5 -42.5t4.5 -47l12 -84h-75l-17 100q-54 -58 -108.5 -85
t-122.5 -27zM355 852q92 0 158 62q29 26 44.5 50.5t15.5 51.5v116l-118 -10q-133 -10 -195.5 -49.5t-62.5 -102.5q0 -54 44 -86t114 -32z" />
    <glyph glyph-name="guillemotleft" unicode="&#xab;" horiz-adv-x="820" 
d="M672 152l-286 350l288 366h56l-240 -366l236 -350h-54zM346 152l-286 350l288 366h56l-240 -366l236 -350h-54z" />
    <glyph glyph-name="logicalnot" unicode="&#xac;" horiz-adv-x="1042" 
d="M130 688v74l782 2v-74zM840 418l-2 332h74v-332h-72z" />
    <glyph glyph-name="uni00AD" unicode="&#xad;" horiz-adv-x="724" 
d="M127 478v78l470 2v-78z" />
    <glyph glyph-name="registered" unicode="&#xae;" horiz-adv-x="1050" 
d="M526 536q-130 0 -235.5 62t-168 167.5t-62.5 234.5t62.5 235t168 168.5t235.5 62.5q128 0 233.5 -62.5t168 -168.5t62.5 -235t-62.5 -234.5t-168 -167.5t-233.5 -62zM526 604q115 0 204 48.5t139.5 137.5t50.5 210q0 120 -50.5 209.5t-139.5 139t-204 49.5
q-117 0 -206.5 -49.5t-139.5 -139t-50 -209.5q0 -121 50 -210t139.5 -137.5t206.5 -48.5zM356 766v462h200q69 0 106.5 -28t37.5 -84q0 -58 -32.5 -85t-67.5 -39l88 -226h-62l-84 222h-128v-222h-58zM414 1044h128q39 0 68.5 12.5t29.5 51.5q0 26 -19.5 46t-84.5 20h-122
v-130z" />
    <glyph glyph-name="macron" unicode="&#xaf;" horiz-adv-x="526" 
d="M18 1265v74h490v-74h-490z" />
    <glyph glyph-name="degree" unicode="&#xb0;" horiz-adv-x="904" 
d="M452 1088q-85 0 -151 37.5t-103.5 103.5t-37.5 151q0 86 37.5 152.5t103.5 104t151 37.5q84 0 150 -37.5t104 -104t38 -152.5q0 -85 -38 -151t-104 -103.5t-150 -37.5zM450 1158q98 0 154 61.5t56 158.5q0 98 -56.5 159t-155.5 61q-96 0 -153.5 -61t-56.5 -159
q2 -97 58.5 -158.5t153.5 -61.5z" />
    <glyph glyph-name="plusminus" unicode="&#xb1;" horiz-adv-x="1042" 
d="M130 162v74l782 2v-74zM558 899l354 1v-74l-354 -1v-353h-72l-1 353l-355 -1v74l355 1l-1 355h74v-355z" />
    <glyph glyph-name="uni00B2" unicode="&#xb2;" horiz-adv-x="683" 
d="M71 746v56v27q0 83 35 140t89.5 98.5t116.5 76.5t116.5 72.5t89.5 87.5t35 121q0 82 -58 131.5t-155 49.5q-101 0 -163 -56.5t-65 -151.5h-63q1 72 35.5 133.5t100.5 99t160 37.5q122 0 195.5 -67t73.5 -177q0 -83 -34.5 -140t-89 -98.5t-116 -76t-116 -72t-89 -87
t-34.5 -121.5v-22h490v-61h-554z" />
    <glyph glyph-name="uni00B3" unicode="&#xb3;" horiz-adv-x="756" 
d="M364 736q-124 2 -208 75.5t-88 184.5h65q11 -91 75 -145t162 -54q114 0 183.5 53t69.5 140q0 95 -74.5 150.5t-200.5 55.5h-79v60h79q67 0 123 26t90.5 68t34.5 91q0 62 -55.5 114t-168.5 52q-53 0 -104.5 -23t-85 -69t-32.5 -116h-64q-1 77 36 137.5t101.5 96
t145.5 35.5q88 0 153 -28.5t101 -79.5t36 -119t-44 -123t-124 -87q95 -29 146 -90t51 -147q0 -78 -41 -136.5t-113.5 -90.5t-169.5 -31z" />
    <glyph glyph-name="acute" unicode="&#xb4;" horiz-adv-x="346" 
d="M10 1155l206 291h120l-251 -291h-75z" />
    <glyph glyph-name="uni00B5" unicode="&#xb5;" horiz-adv-x="1134" 
d="M160 -330v1390h80v-786q0 -58 33.5 -107.5t90 -80t124.5 -30.5q98 0 193.5 57.5t192.5 154.5v792h80v-1060h-74v164q-124 -100 -208.5 -142t-179.5 -42q-75 0 -137 21t-115 73v-404h-80z" />
    <glyph glyph-name="paragraph" unicode="&#xb6;" horiz-adv-x="1039" 
d="M540 -166v758q-140 0 -236 59.5t-145 153.5t-49 197q0 109 49.5 211t150 167.5t252.5 65.5h317v-62h-118v-1550h-67v1550h-86v-1550h-68z" />
    <glyph glyph-name="periodcentered" unicode="&#xb7;" horiz-adv-x="400" 
d="M120 652v154h160v-154h-160z" />
    <glyph glyph-name="cedilla" unicode="&#xb8;" horiz-adv-x="378" 
d="M166 -398q-45 0 -81.5 12t-68.5 34l22 56q21 -19 48 -31.5t72 -12.5q62 0 89 22t27 62q0 47 -36.5 69t-113.5 25q-7 0 -8 2.5t0 5.5l72 164h66l-50 -124q61 -5 95 -26t47.5 -51t13.5 -61q0 -49 -26.5 -81.5t-70.5 -48.5t-97 -16z" />
    <glyph glyph-name="uni00B9" unicode="&#xb9;" horiz-adv-x="446" 
d="M236 744v758h-187v59q122 -1 160 17.5t37 75.5h54v-910h-64z" />
    <glyph glyph-name="ordmasculine" unicode="&#xba;" horiz-adv-x="818" 
d="M408 794q-96 0 -162.5 42.5t-101 117.5t-34.5 172q0 101 36 177t103 118.5t159 42.5q94 0 161 -42.5t103 -118.5t36 -177q0 -97 -34.5 -172t-101.5 -117.5t-164 -42.5zM408 858q109 0 165 75t56 199q0 117 -56 190.5t-165 73.5q-108 0 -163 -73.5t-55 -190.5
q0 -124 55 -199t163 -75z" />
    <glyph glyph-name="guillemotright" unicode="&#xbb;" horiz-adv-x="893" 
d="M455 152l236 350l-240 366h54l288 -366l-286 -350h-52zM129 152l236 350l-240 366h54l288 -366l-285 -350h-53z" />
    <glyph glyph-name="onequarter" unicode="&#xbc;" horiz-adv-x="1505" 
d="M236 536v758h-187v59q122 -1 160 17.5t37 75.5h54v-910h-64zM271 -8h-78l977 1470h73zM1236 1v260h-432v67l430 583h63v-590h159v-60h-159v-260h-61zM870 321h362v487z" />
    <glyph glyph-name="onehalf" unicode="&#xbd;" horiz-adv-x="1663" 
d="M236 536v758h-187v59q122 -1 160 17.5t37 75.5h54v-910h-64zM271 -8h-78l977 1470h73zM1051 -2v56v27q0 83 35 140t89.5 98.5t116.5 76.5t116.5 72.5t89.5 87.5t35 121q0 82 -58 131.5t-155 49.5q-101 0 -163 -56.5t-65 -151.5h-63q1 72 35.5 133.5t100.5 99t160 37.5
q122 0 195.5 -67t73.5 -177q0 -83 -34.5 -140t-89 -98.5t-116 -76t-116 -72t-89 -87t-34.5 -121.5v-22h490v-61h-554z" />
    <glyph glyph-name="threequarters" unicode="&#xbe;" horiz-adv-x="1755" 
d="M364 526q-124 2 -208 75.5t-88 184.5h65q11 -91 75 -145t162 -54q114 0 183.5 53t69.5 140q0 95 -74.5 150.5t-200.5 55.5h-79v60h79q67 0 123 26t90.5 68t34.5 91q0 62 -55.5 114t-168.5 52q-53 0 -104.5 -23t-85 -69t-32.5 -116h-64q-1 77 36 137.5t101.5 96
t145.5 35.5q88 0 153 -28.5t101 -79.5t36 -119t-44 -123t-124 -87q95 -29 146 -90t51 -147q0 -78 -41 -136.5t-113.5 -90.5t-169.5 -31zM521 -8h-78l977 1470h73zM1486 1v260h-432v67l430 583h63v-590h159v-60h-159v-260h-61zM1120 321h362v487z" />
    <glyph glyph-name="questiondown" unicode="&#xbf;" horiz-adv-x="984" 
d="M472 -342q-126 0 -218.5 44t-143 124t-50.5 188q0 84 30 144t76.5 108t99.5 93t99.5 97.5t76.5 121t30 164.5h82q0 -103 -29 -176.5t-75 -128t-98 -100t-98 -91t-75 -101t-29 -131.5q0 -126 87.5 -200t234.5 -74q76 0 150.5 28.5t131 76t78.5 103.5l82 -40
q-63 -114 -182 -182t-260 -68zM452 880v154h122v-154h-122z" />
    <glyph glyph-name="Agrave" unicode="&#xc0;" horiz-adv-x="1388" 
d="M110 0l529 1446h111l528 -1446h-86l-167 456h-664l-167 -456h-84zM392 542h602l-301 823zM669 1567l-251 291h120l206 -291h-75z" />
    <glyph glyph-name="Aacute" unicode="&#xc1;" horiz-adv-x="1388" 
d="M110 0l529 1446h111l528 -1446h-86l-167 456h-664l-167 -456h-84zM392 542h602l-301 823zM641 1567l206 291h120l-251 -291h-75z" />
    <glyph glyph-name="Acircumflex" unicode="&#xc2;" horiz-adv-x="1388" 
d="M110 0l529 1446h111l528 -1446h-86l-167 456h-664l-167 -456h-84zM392 542h602l-301 823zM426 1567l238 190h64l234 -190h-120l-148 120l-156 -120h-112z" />
    <glyph glyph-name="Atilde" unicode="&#xc3;" horiz-adv-x="1388" 
d="M110 0l529 1446h111l528 -1446h-86l-167 456h-664l-167 -456h-84zM392 542h602l-301 823zM462 1660l-24 66q30 24 62 41t78 17q43 0 79.5 -12.5l73 -25t79.5 -12.5q38 0 62 11t52 31l28 -70q-21 -13 -53 -29.5t-91 -16.5q-51 0 -85.5 12t-65.5 24t-71 12q-48 0 -74.5 -17
t-49.5 -31z" />
    <glyph glyph-name="Adieresis" unicode="&#xc4;" horiz-adv-x="1388" 
d="M110 0l529 1446h111l528 -1446h-86l-167 456h-664l-167 -456h-84zM392 542h602l-301 823zM806 1738v120h88v-120h-88zM494 1738v120h88v-120h-88z" />
    <glyph glyph-name="Aring" unicode="&#xc5;" horiz-adv-x="1388" 
d="M110 0l529 1446h111l528 -1446h-86l-167 456h-664l-167 -456h-84zM392 542h602l-301 823zM694 1584q-81 0 -137.5 57t-56.5 141q0 78 57.5 133t136.5 55q55 0 99.5 -25.5t70.5 -69t26 -97.5q0 -82 -56.5 -138t-139.5 -56zM692 1662q48 0 81 35t33 81q0 51 -33 82.5
t-81 31.5q-45 0 -79.5 -31.5t-34.5 -82.5q0 -46 34.5 -81t79.5 -35z" />
    <glyph glyph-name="AE" unicode="&#xc6;" horiz-adv-x="1817" 
d="M0 0l826 1446h828v-78h-694v-598h642v-78h-642v-614h722v-78h-810v464h-522l-266 -464h-84zM388 542h484v828z" />
    <glyph glyph-name="Ccedilla" unicode="&#xc7;" horiz-adv-x="1318" 
d="M648 -398q-45 0 -81.5 12t-68.5 34l22 56q21 -19 48 -31.5t72 -12.5q62 0 89 22t27 62q0 47 -36.5 69t-113.5 25q-7 0 -8 2.5t0 5.5l72 164h66l-50 -124q61 -5 95 -26t47.5 -51t13.5 -61q0 -49 -26.5 -81.5t-70.5 -48.5t-97 -16zM694 -20q-187 0 -315 83.5t-193.5 248
t-65.5 408.5t65.5 410t193.5 251t315 85q143 0 252 -61.5t174.5 -160.5t77.5 -210h-88q-19 94 -71.5 173.5t-138.5 128t-206 48.5q-162 0 -270 -73.5t-162 -221t-54 -369.5q0 -333 121 -495.5t365 -162.5q120 0 206 48t138.5 127.5t71.5 173.5h88q-9 -82 -49 -159.5
t-105.5 -138.5t-154 -97t-195.5 -36z" />
    <glyph glyph-name="Egrave" unicode="&#xc8;" horiz-adv-x="1213" 
d="M220 0v1446h830v-80h-752v-594h700v-82h-700v-606l780 -2v-82h-858zM615 1567l-251 291h120l206 -291h-75z" />
    <glyph glyph-name="Eacute" unicode="&#xc9;" horiz-adv-x="1213" 
d="M220 0v1446h830v-80h-752v-594h700v-82h-700v-606l780 -2v-82h-858zM587 1567l206 291h120l-251 -291h-75z" />
    <glyph glyph-name="Ecircumflex" unicode="&#xca;" horiz-adv-x="1213" 
d="M220 0v1446h830v-80h-752v-594h700v-82h-700v-606l780 -2v-82h-858zM372 1567l238 190h64l234 -190h-120l-148 120l-156 -120h-112z" />
    <glyph glyph-name="Edieresis" unicode="&#xcb;" horiz-adv-x="1213" 
d="M220 0v1446h830v-80h-752v-594h700v-82h-700v-606l780 -2v-82h-858zM752 1738v120h88v-120h-88zM440 1738v120h88v-120h-88z" />
    <glyph glyph-name="Igrave" unicode="&#xcc;" horiz-adv-x="518" 
d="M220 0v1446h78v-1446h-78zM235 1567l-251 291h120l206 -291h-75z" />
    <glyph glyph-name="Iacute" unicode="&#xcd;" horiz-adv-x="518" 
d="M220 0v1446h78v-1446h-78zM207 1567l206 291h120l-251 -291h-75z" />
    <glyph glyph-name="Icircumflex" unicode="&#xce;" horiz-adv-x="518" 
d="M220 0v1446h78v-1446h-78zM-8 1567l238 190h64l234 -190h-120l-148 120l-156 -120h-112z" />
    <glyph glyph-name="Idieresis" unicode="&#xcf;" horiz-adv-x="518" 
d="M220 0v1446h78v-1446h-78zM372 1738v120h88v-120h-88zM60 1738v120h88v-120h-88z" />
    <glyph glyph-name="Eth" unicode="&#xd0;" horiz-adv-x="1330" 
d="M70 688v81h598v-81h-598zM216 0v1446q2 0 22.5 -0.5t54 -0.5t76 -0.5t87.5 -0.5q268 -1 434 -78t243 -234t77 -398q0 -255 -84.5 -417t-258 -239.5t-439.5 -77.5h-212zM302 82h120q234 0 390.5 62.5t235 204t78.5 377.5q0 249 -81 387.5t-235.5 194.5t-375.5 56h-132
v-1282z" />
    <glyph glyph-name="Ntilde" unicode="&#xd1;" horiz-adv-x="1452" 
d="M220 0v1446h64l870 -1290v1290h78v-1446h-68l-866 1286v-1286h-78zM494 1660l-24 66q30 24 62 41t78 17q43 0 79.5 -12.5l73 -25t79.5 -12.5q38 0 62 11t52 31l28 -70q-21 -13 -53 -29.5t-91 -16.5q-51 0 -85.5 12t-65.5 24t-71 12q-48 0 -74.5 -17t-49.5 -31z" />
    <glyph glyph-name="Ograve" unicode="&#xd2;" horiz-adv-x="1414" 
d="M710 -20q-182 0 -314.5 84.5t-204 249.5t-71.5 406q0 243 71.5 409t204 251.5t314.5 85.5t313 -85t201 -251t70 -410q0 -241 -70 -405.5t-201 -249.5t-313 -85zM710 62q162 0 272.5 72t167 218.5t56.5 367.5q0 224 -57.5 371t-168 220t-270.5 73t-272 -73.5t-171 -221
t-59 -369.5t59 -368t171 -218t272 -72zM687 1567l-251 291h120l206 -291h-75z" />
    <glyph glyph-name="Oacute" unicode="&#xd3;" horiz-adv-x="1414" 
d="M710 -20q-182 0 -314.5 84.5t-204 249.5t-71.5 406q0 243 71.5 409t204 251.5t314.5 85.5t313 -85t201 -251t70 -410q0 -241 -70 -405.5t-201 -249.5t-313 -85zM710 62q162 0 272.5 72t167 218.5t56.5 367.5q0 224 -57.5 371t-168 220t-270.5 73t-272 -73.5t-171 -221
t-59 -369.5t59 -368t171 -218t272 -72zM659 1567l206 291h120l-251 -291h-75z" />
    <glyph glyph-name="Ocircumflex" unicode="&#xd4;" horiz-adv-x="1414" 
d="M710 -20q-182 0 -314.5 84.5t-204 249.5t-71.5 406q0 243 71.5 409t204 251.5t314.5 85.5t313 -85t201 -251t70 -410q0 -241 -70 -405.5t-201 -249.5t-313 -85zM710 62q162 0 272.5 72t167 218.5t56.5 367.5q0 224 -57.5 371t-168 220t-270.5 73t-272 -73.5t-171 -221
t-59 -369.5t59 -368t171 -218t272 -72zM444 1567l238 190h64l234 -190h-120l-148 120l-156 -120h-112z" />
    <glyph glyph-name="Otilde" unicode="&#xd5;" horiz-adv-x="1414" 
d="M710 -20q-182 0 -314.5 84.5t-204 249.5t-71.5 406q0 243 71.5 409t204 251.5t314.5 85.5t313 -85t201 -251t70 -410q0 -241 -70 -405.5t-201 -249.5t-313 -85zM710 62q162 0 272.5 72t167 218.5t56.5 367.5q0 224 -57.5 371t-168 220t-270.5 73t-272 -73.5t-171 -221
t-59 -369.5t59 -368t171 -218t272 -72zM480 1660l-24 66q30 24 62 41t78 17q43 0 79.5 -12.5l73 -25t79.5 -12.5q38 0 62 11t52 31l28 -70q-21 -13 -53 -29.5t-91 -16.5q-51 0 -85.5 12t-65.5 24t-71 12q-48 0 -74.5 -17t-49.5 -31z" />
    <glyph glyph-name="Odieresis" unicode="&#xd6;" horiz-adv-x="1414" 
d="M710 -20q-182 0 -314.5 84.5t-204 249.5t-71.5 406q0 243 71.5 409t204 251.5t314.5 85.5t313 -85t201 -251t70 -410q0 -241 -70 -405.5t-201 -249.5t-313 -85zM710 62q162 0 272.5 72t167 218.5t56.5 367.5q0 224 -57.5 371t-168 220t-270.5 73t-272 -73.5t-171 -221
t-59 -369.5t59 -368t171 -218t272 -72zM824 1738v120h88v-120h-88zM512 1738v120h88v-120h-88z" />
    <glyph glyph-name="multiply" unicode="&#xd7;" horiz-adv-x="1006" 
d="M186 354l-54 54l688 692l54 -52zM822 354l-692 690l54 52l692 -688z" />
    <glyph glyph-name="Oslash" unicode="&#xd8;" horiz-adv-x="1450" 
d="M140 -26l-70 64l174 202q-52 89 -79 208.5t-27 267.5q0 244 71 411t202.5 253t314.5 86q134 0 240 -45.5t182 -134.5l160 184l72 -62l-176 -204q53 -91 80.5 -212.5t27.5 -271.5q0 -241 -70.5 -406t-202.5 -249.5t-315 -84.5q-135 0 -241.5 45t-180.5 133zM728 64
q242 0 363 161.5t121 494.5q0 128 -18 230.5t-54 181.5l-780 -904q125 -164 368 -164zM308 314l780 904q-61 83 -151.5 123.5t-210.5 40.5q-241 0 -365.5 -164.5t-124.5 -497.5q0 -126 18 -227t54 -179z" />
    <glyph glyph-name="Ugrave" unicode="&#xd9;" horiz-adv-x="1354" 
d="M698 -20q-164 0 -270 53.5t-157 164t-51 280.5v968h86v-1002q0 -189 96.5 -288.5t295.5 -99.5q134 0 223.5 43.5t134 130t44.5 214.5v1002h78v-998q0 -157 -53 -261t-159.5 -155.5t-267.5 -51.5zM677 1567l-251 291h120l206 -291h-75z" />
    <glyph glyph-name="Uacute" unicode="&#xda;" horiz-adv-x="1354" 
d="M698 -20q-164 0 -270 53.5t-157 164t-51 280.5v968h86v-1002q0 -189 96.5 -288.5t295.5 -99.5q134 0 223.5 43.5t134 130t44.5 214.5v1002h78v-998q0 -157 -53 -261t-159.5 -155.5t-267.5 -51.5zM649 1567l206 291h120l-251 -291h-75z" />
    <glyph glyph-name="Ucircumflex" unicode="&#xdb;" horiz-adv-x="1354" 
d="M698 -20q-164 0 -270 53.5t-157 164t-51 280.5v968h86v-1002q0 -189 96.5 -288.5t295.5 -99.5q134 0 223.5 43.5t134 130t44.5 214.5v1002h78v-998q0 -157 -53 -261t-159.5 -155.5t-267.5 -51.5zM434 1567l238 190h64l234 -190h-120l-148 120l-156 -120h-112z" />
    <glyph glyph-name="Udieresis" unicode="&#xdc;" horiz-adv-x="1354" 
d="M698 -20q-164 0 -270 53.5t-157 164t-51 280.5v968h86v-1002q0 -189 96.5 -288.5t295.5 -99.5q134 0 223.5 43.5t134 130t44.5 214.5v1002h78v-998q0 -157 -53 -261t-159.5 -155.5t-267.5 -51.5zM814 1738v120h88v-120h-88zM502 1738v120h88v-120h-88z" />
    <glyph glyph-name="Yacute" unicode="&#xdd;" horiz-adv-x="1094" 
d="M513 0v624l-485 822h88l436 -744l428 744h86l-476 -824v-622h-77zM495 1571l206 291h120l-251 -291h-75z" />
    <glyph glyph-name="Thorn" unicode="&#xde;" horiz-adv-x="1241" 
d="M220 0v1446h86v-316h360q153 0 270.5 -38.5t183.5 -120.5t66 -211q0 -147 -65.5 -236t-180.5 -129.5t-262 -40.5h-372v-354h-86zM306 436h372q125 0 221 31.5t150.5 102.5t54.5 190q0 108 -55 171t-154 90t-231 27h-358v-612z" />
    <glyph glyph-name="germandbls" unicode="&#xdf;" horiz-adv-x="1103" 
d="M636 -20q-66 0 -146 19t-133 53l44 66q50 -28 99 -46t122 -18q138 0 218 65.5t80 182.5q0 90 -43.5 142.5t-110.5 82.5t-140 53q-47 14 -96 32.5t-82.5 55.5t-33.5 106q0 74 47 121t152 99q43 22 84.5 45t69 59t27.5 96q0 83 -60.5 130.5t-170.5 47.5q-131 0 -217 -80
t-86 -248v-1044h-78l-2 1034q0 97 29 173t82.5 129.5t127 81.5t161.5 28q115 0 179 -40t90.5 -99.5t26.5 -118.5q0 -79 -33 -125.5t-83.5 -75.5t-103.5 -57q-88 -48 -124 -75.5t-36 -78.5q0 -49 33.5 -70t119.5 -48q47 -15 107 -37t116 -59.5t93 -98.5t37 -155
q0 -107 -50.5 -180t-134 -110.5t-181.5 -37.5z" />
    <glyph glyph-name="agrave" unicode="&#xe0;" 
d="M453 -20q-102 0 -176.5 34.5t-115 98t-40.5 151.5q0 174 112.5 253.5t369.5 88.5l239 8v100q0 119 -72.5 191.5t-223.5 72.5q-115 0 -193 -53.5t-95 -166.5h-84q6 89 48.5 155.5t124.5 103.5t203 37q111 0 194 -36.5t129 -111.5t46 -190v-716h-72l-3 210
q-67 -129 -172 -179.5t-219 -50.5zM466 54q65 0 131 23.5t121.5 64t89.5 90.5t34 102v202l-201 -4q-165 -3 -260.5 -31t-136.5 -84.5t-41 -146.5q0 -102 72 -159t191 -57zM524 1155l-251 291h120l206 -291h-75z" />
    <glyph glyph-name="aacute" unicode="&#xe1;" 
d="M453 -20q-102 0 -176.5 34.5t-115 98t-40.5 151.5q0 174 112.5 253.5t369.5 88.5l239 8v100q0 119 -72.5 191.5t-223.5 72.5q-115 0 -193 -53.5t-95 -166.5h-84q6 89 48.5 155.5t124.5 103.5t203 37q111 0 194 -36.5t129 -111.5t46 -190v-716h-72l-3 210
q-67 -129 -172 -179.5t-219 -50.5zM466 54q65 0 131 23.5t121.5 64t89.5 90.5t34 102v202l-201 -4q-165 -3 -260.5 -31t-136.5 -84.5t-41 -146.5q0 -102 72 -159t191 -57zM496 1155l206 291h120l-251 -291h-75z" />
    <glyph glyph-name="acircumflex" unicode="&#xe2;" 
d="M453 -20q-102 0 -176.5 34.5t-115 98t-40.5 151.5q0 174 112.5 253.5t369.5 88.5l239 8v100q0 119 -72.5 191.5t-223.5 72.5q-115 0 -193 -53.5t-95 -166.5h-84q6 89 48.5 155.5t124.5 103.5t203 37q111 0 194 -36.5t129 -111.5t46 -190v-716h-72l-3 210
q-67 -129 -172 -179.5t-219 -50.5zM466 54q65 0 131 23.5t121.5 64t89.5 90.5t34 102v202l-201 -4q-165 -3 -260.5 -31t-136.5 -84.5t-41 -146.5q0 -102 72 -159t191 -57zM281 1155l238 190h64l234 -190h-120l-148 120l-156 -120h-112z" />
    <glyph glyph-name="atilde" unicode="&#xe3;" 
d="M453 -20q-102 0 -176.5 34.5t-115 98t-40.5 151.5q0 174 112.5 253.5t369.5 88.5l239 8v100q0 119 -72.5 191.5t-223.5 72.5q-115 0 -193 -53.5t-95 -166.5h-84q6 89 48.5 155.5t124.5 103.5t203 37q111 0 194 -36.5t129 -111.5t46 -190v-716h-72l-3 210
q-67 -129 -172 -179.5t-219 -50.5zM466 54q65 0 131 23.5t121.5 64t89.5 90.5t34 102v202l-201 -4q-165 -3 -260.5 -31t-136.5 -84.5t-41 -146.5q0 -102 72 -159t191 -57zM317 1248l-24 66q30 24 62 41t78 17q43 0 79.5 -12.5l73 -25t79.5 -12.5q38 0 62 11t52 31l28 -70
q-21 -13 -53 -29.5t-91 -16.5q-51 0 -85.5 12t-65.5 24t-71 12q-48 0 -74.5 -17t-49.5 -31z" />
    <glyph glyph-name="adieresis" unicode="&#xe4;" 
d="M453 -20q-102 0 -176.5 34.5t-115 98t-40.5 151.5q0 174 112.5 253.5t369.5 88.5l239 8v100q0 119 -72.5 191.5t-223.5 72.5q-115 0 -193 -53.5t-95 -166.5h-84q6 89 48.5 155.5t124.5 103.5t203 37q111 0 194 -36.5t129 -111.5t46 -190v-716h-72l-3 210
q-67 -129 -172 -179.5t-219 -50.5zM466 54q65 0 131 23.5t121.5 64t89.5 90.5t34 102v202l-201 -4q-165 -3 -260.5 -31t-136.5 -84.5t-41 -146.5q0 -102 72 -159t191 -57zM661 1326v120h88v-120h-88zM349 1326v120h88v-120h-88z" />
    <glyph glyph-name="aring" unicode="&#xe5;" 
d="M453 -20q-102 0 -176.5 34.5t-115 98t-40.5 151.5q0 174 112.5 253.5t369.5 88.5l239 8v100q0 119 -72.5 191.5t-223.5 72.5q-115 0 -193 -53.5t-95 -166.5h-84q6 89 48.5 155.5t124.5 103.5t203 37q111 0 194 -36.5t129 -111.5t46 -190v-716h-72l-3 210
q-67 -129 -172 -179.5t-219 -50.5zM466 54q65 0 131 23.5t121.5 64t89.5 90.5t34 102v202l-201 -4q-165 -3 -260.5 -31t-136.5 -84.5t-41 -146.5q0 -102 72 -159t191 -57zM549 1172q-81 0 -137.5 57t-56.5 141q0 78 57.5 133t136.5 55q55 0 99.5 -25.5t70.5 -69t26 -97.5
q0 -82 -56.5 -138t-139.5 -56zM547 1250q48 0 81 35t33 81q0 51 -33 82.5t-81 31.5q-45 0 -79.5 -31.5t-34.5 -82.5q0 -46 34.5 -81t79.5 -35z" />
    <glyph glyph-name="ae" unicode="&#xe6;" horiz-adv-x="1829" 
d="M453 -20q-102 0 -176.5 34.5t-115 98t-40.5 151.5q0 174 112.5 254t369.5 88l239 8v100q0 125 -82.5 194.5t-213.5 69.5q-113 0 -192.5 -56.5t-95.5 -163.5h-84q5 73 48 141t125.5 111.5t202.5 43.5q132 0 225 -59t127 -165q55 108 152 166t230 58q134 0 228.5 -59
t145 -170.5t50.5 -270.5v-56h-787q0 -117 39 -217.5t122 -162.5t214 -62q123 0 210 59t105 161h85q-20 -100 -80 -166t-143.5 -98t-176.5 -32q-144 0 -252.5 69.5t-161.5 200.5q-21 -82 -88 -142.5t-157 -94t-184 -33.5zM466 54q115 0 198 53t128 129.5t45 146.5l-1 153
l-195 -4q-165 -3 -260.5 -31t-136.5 -84.5t-41 -146.5q0 -102 72 -159t191 -57zM923 574h702q0 115 -37 206.5t-113 144.5t-193 53q-127 0 -206.5 -60.5t-116.5 -153.5t-36 -190z" />
    <glyph glyph-name="ccedilla" unicode="&#xe7;" 
d="M512 -398q-45 0 -81.5 12t-68.5 34l22 56q21 -19 48 -31.5t72 -12.5q62 0 89 22t27 62q0 47 -36.5 69t-113.5 25q-7 0 -8 2.5t0 5.5l72 164h66l-50 -124q61 -5 95 -26t47.5 -51t13.5 -61q0 -49 -26.5 -81.5t-70.5 -48.5t-97 -16zM562 -20q-135 0 -237 57.5t-158.5 176
t-56.5 300.5q0 162 49 283.5t149.5 189t253.5 67.5q93 0 175.5 -32.5t141.5 -98.5t79 -167h-85q-12 68 -54.5 118t-108.5 77t-148 27q-163 0 -266 -113.5t-103 -350.5q0 -206 91 -333t278 -127q82 0 148 27t108.5 77t54.5 118h85q-20 -100 -79 -166t-141.5 -98t-175.5 -32z
" />
    <glyph glyph-name="egrave" unicode="&#xe8;" horiz-adv-x="1114" 
d="M581 -20q-136 0 -239.5 61.5t-162 179.5t-58.5 287q0 171 52.5 293.5t153 187.5t242.5 65q134 0 228.5 -59t145 -170.5t50.5 -270.5v-56h-787q0 -117 39 -217.5t122 -162.5t214 -62q123 0 210 59t105 161h85q-20 -100 -80 -166t-143.5 -98t-176.5 -32zM208 574h702
q0 115 -37 206.5t-113 144.5t-193 53q-127 0 -206.5 -60.5t-116.5 -153.5t-36 -190zM544 1155l-251 291h120l206 -291h-75z" />
    <glyph glyph-name="eacute" unicode="&#xe9;" horiz-adv-x="1114" 
d="M581 -20q-136 0 -239.5 61.5t-162 179.5t-58.5 287q0 171 52.5 293.5t153 187.5t242.5 65q134 0 228.5 -59t145 -170.5t50.5 -270.5v-56h-787q0 -117 39 -217.5t122 -162.5t214 -62q123 0 210 59t105 161h85q-20 -100 -80 -166t-143.5 -98t-176.5 -32zM208 574h702
q0 115 -37 206.5t-113 144.5t-193 53q-127 0 -206.5 -60.5t-116.5 -153.5t-36 -190zM516 1155l206 291h120l-251 -291h-75z" />
    <glyph glyph-name="ecircumflex" unicode="&#xea;" horiz-adv-x="1114" 
d="M581 -20q-136 0 -239.5 61.5t-162 179.5t-58.5 287q0 171 52.5 293.5t153 187.5t242.5 65q134 0 228.5 -59t145 -170.5t50.5 -270.5v-56h-787q0 -117 39 -217.5t122 -162.5t214 -62q123 0 210 59t105 161h85q-20 -100 -80 -166t-143.5 -98t-176.5 -32zM208 574h702
q0 115 -37 206.5t-113 144.5t-193 53q-127 0 -206.5 -60.5t-116.5 -153.5t-36 -190zM301 1155l238 190h64l234 -190h-120l-148 120l-156 -120h-112z" />
    <glyph glyph-name="edieresis" unicode="&#xeb;" horiz-adv-x="1114" 
d="M581 -20q-136 0 -239.5 61.5t-162 179.5t-58.5 287q0 171 52.5 293.5t153 187.5t242.5 65q134 0 228.5 -59t145 -170.5t50.5 -270.5v-56h-787q0 -117 39 -217.5t122 -162.5t214 -62q123 0 210 59t105 161h85q-20 -100 -80 -166t-143.5 -98t-176.5 -32zM208 574h702
q0 115 -37 206.5t-113 144.5t-193 53q-127 0 -206.5 -60.5t-116.5 -153.5t-36 -190zM681 1326v120h88v-120h-88zM369 1326v120h88v-120h-88z" />
    <glyph glyph-name="igrave" unicode="&#xec;" horiz-adv-x="438" 
d="M180 0v1034h78v-1034h-78zM184 1155l-190 291h119l139 -291h-68z" />
    <glyph glyph-name="iacute" unicode="&#xed;" horiz-adv-x="438" 
d="M180 0v1034h78v-1034h-78zM254 1155h-68l139 291h119z" />
    <glyph glyph-name="icircumflex" unicode="&#xee;" horiz-adv-x="438" 
d="M180 0v1034h78v-1034h-78zM-50 1155l238 190h64l234 -190h-120l-148 120l-156 -120h-112z" />
    <glyph glyph-name="idieresis" unicode="&#xef;" horiz-adv-x="438" 
d="M180 0v1034h78v-1034h-78zM330 1326v120h88v-120h-88zM18 1326v120h88v-120h-88z" />
    <glyph glyph-name="eth" unicode="&#xf0;" horiz-adv-x="1112" 
d="M559 -20q-160 0 -259 71t-144.5 192t-45.5 271q0 119 28 217.5t84 171t141 112t200 39.5q170 0 269 -85.5t133 -206.5l-100 115q-31 111 -84.5 204t-117 169t-128 133.5t-118.5 96.5h107q92 -71 178 -164.5t153.5 -212.5t107 -265.5t39.5 -323.5q0 -148 -45.5 -269.5
t-143 -193t-254.5 -71.5zM559 54q127 0 206.5 60.5t117 165t37.5 234.5q0 228 -93.5 346t-263.5 118q-187 0 -279 -127.5t-92 -336.5q0 -123 35 -228t115.5 -168.5t216.5 -63.5zM388 1175l-21 65l559 174l18 -66z" />
    <glyph glyph-name="ntilde" unicode="&#xf1;" horiz-adv-x="1122" 
d="M180 0v1034h72v-154q27 49 76.5 88.5t118.5 62.5t152 23q102 0 184.5 -41t130.5 -126t48 -217v-670h-78v670q0 158 -76.5 233t-208.5 75q-91 0 -169 -28t-125 -85t-47 -145v-720h-78zM360 1248l-24 66q30 24 62 41t78 17q43 0 79.5 -12.5l73 -25t79.5 -12.5q38 0 62 11
t52 31l28 -70q-21 -13 -53 -29.5t-91 -16.5q-51 0 -85.5 12t-65.5 24t-71 12q-48 0 -74.5 -17t-49.5 -31z" />
    <glyph glyph-name="ograve" unicode="&#xf2;" horiz-adv-x="1110" 
d="M558 -20q-134 0 -235 58t-157 176.5t-56 299.5q0 162 48.5 283.5t148 189t251.5 67.5q133 0 232 -58.5t154.5 -178t55.5 -303.5q0 -160 -48 -280t-145.5 -187t-248.5 -67zM558 54q109 0 190 50t126 152t45 258q0 139 -39 243.5t-119 162.5t-203 58q-110 0 -192.5 -50
t-128 -153t-45.5 -261q0 -138 39.5 -241.5t121 -161t205.5 -57.5zM531 1155l-251 291h120l206 -291h-75z" />
    <glyph glyph-name="oacute" unicode="&#xf3;" horiz-adv-x="1110" 
d="M558 -20q-134 0 -235 58t-157 176.5t-56 299.5q0 162 48.5 283.5t148 189t251.5 67.5q133 0 232 -58.5t154.5 -178t55.5 -303.5q0 -160 -48 -280t-145.5 -187t-248.5 -67zM558 54q109 0 190 50t126 152t45 258q0 139 -39 243.5t-119 162.5t-203 58q-110 0 -192.5 -50
t-128 -153t-45.5 -261q0 -138 39.5 -241.5t121 -161t205.5 -57.5zM503 1155l206 291h120l-251 -291h-75z" />
    <glyph glyph-name="ocircumflex" unicode="&#xf4;" horiz-adv-x="1110" 
d="M558 -20q-134 0 -235 58t-157 176.5t-56 299.5q0 162 48.5 283.5t148 189t251.5 67.5q133 0 232 -58.5t154.5 -178t55.5 -303.5q0 -160 -48 -280t-145.5 -187t-248.5 -67zM558 54q109 0 190 50t126 152t45 258q0 139 -39 243.5t-119 162.5t-203 58q-110 0 -192.5 -50
t-128 -153t-45.5 -261q0 -138 39.5 -241.5t121 -161t205.5 -57.5zM288 1155l238 190h64l234 -190h-120l-148 120l-156 -120h-112z" />
    <glyph glyph-name="otilde" unicode="&#xf5;" horiz-adv-x="1110" 
d="M558 -20q-134 0 -235 58t-157 176.5t-56 299.5q0 162 48.5 283.5t148 189t251.5 67.5q133 0 232 -58.5t154.5 -178t55.5 -303.5q0 -160 -48 -280t-145.5 -187t-248.5 -67zM558 54q109 0 190 50t126 152t45 258q0 139 -39 243.5t-119 162.5t-203 58q-110 0 -192.5 -50
t-128 -153t-45.5 -261q0 -138 39.5 -241.5t121 -161t205.5 -57.5zM324 1248l-24 66q30 24 62 41t78 17q43 0 79.5 -12.5l73 -25t79.5 -12.5q38 0 62 11t52 31l28 -70q-21 -13 -53 -29.5t-91 -16.5q-51 0 -85.5 12t-65.5 24t-71 12q-48 0 -74.5 -17t-49.5 -31z" />
    <glyph glyph-name="odieresis" unicode="&#xf6;" horiz-adv-x="1110" 
d="M558 -20q-134 0 -235 58t-157 176.5t-56 299.5q0 162 48.5 283.5t148 189t251.5 67.5q133 0 232 -58.5t154.5 -178t55.5 -303.5q0 -160 -48 -280t-145.5 -187t-248.5 -67zM558 54q109 0 190 50t126 152t45 258q0 139 -39 243.5t-119 162.5t-203 58q-110 0 -192.5 -50
t-128 -153t-45.5 -261q0 -138 39.5 -241.5t121 -161t205.5 -57.5zM668 1326v120h88v-120h-88zM356 1326v120h88v-120h-88z" />
    <glyph glyph-name="divide" unicode="&#xf7;" horiz-adv-x="1042" 
d="M130 688v74l782 2v-74zM442 340v154h160v-154h-160zM442 960v154h160v-154h-160z" />
    <glyph glyph-name="oslash" unicode="&#xf8;" horiz-adv-x="1120" 
d="M84 -8l-54 56l1006 990l54 -56zM548 -20q-134 0 -235 58t-157 176.5t-56 299.5q0 162 48.5 283.5t148 189t251.5 67.5q133 0 232 -58.5t154.5 -178t55.5 -303.5q0 -160 -48 -280t-145.5 -187t-248.5 -67zM548 54q109 0 190 50t126 152t45 258q0 139 -39 243.5t-119 162.5
t-203 58q-110 0 -192.5 -50t-128 -153t-45.5 -261q0 -138 39.5 -241.5t121 -161t205.5 -57.5z" />
    <glyph glyph-name="ugrave" unicode="&#xf9;" horiz-adv-x="1132" 
d="M560 -20q-90 1 -163.5 24t-126.5 68t-81.5 113.5t-28.5 160.5v688h78v-688q0 -130 77.5 -210t239.5 -80q143 0 231 75t88 231v672h78v-1034h-72l-6 190q-18 -64 -59.5 -111.5t-105 -73.5t-149.5 -25zM535 1155l-251 291h120l206 -291h-75z" />
    <glyph glyph-name="uacute" unicode="&#xfa;" horiz-adv-x="1132" 
d="M560 -20q-90 1 -163.5 24t-126.5 68t-81.5 113.5t-28.5 160.5v688h78v-688q0 -130 77.5 -210t239.5 -80q143 0 231 75t88 231v672h78v-1034h-72l-6 190q-18 -64 -59.5 -111.5t-105 -73.5t-149.5 -25zM507 1155l206 291h120l-251 -291h-75z" />
    <glyph glyph-name="ucircumflex" unicode="&#xfb;" horiz-adv-x="1132" 
d="M560 -20q-90 1 -163.5 24t-126.5 68t-81.5 113.5t-28.5 160.5v688h78v-688q0 -130 77.5 -210t239.5 -80q143 0 231 75t88 231v672h78v-1034h-72l-6 190q-18 -64 -59.5 -111.5t-105 -73.5t-149.5 -25zM292 1155l238 190h64l234 -190h-120l-148 120l-156 -120h-112z" />
    <glyph glyph-name="udieresis" unicode="&#xfc;" horiz-adv-x="1132" 
d="M560 -20q-90 1 -163.5 24t-126.5 68t-81.5 113.5t-28.5 160.5v688h78v-688q0 -130 77.5 -210t239.5 -80q143 0 231 75t88 231v672h78v-1034h-72l-6 190q-18 -64 -59.5 -111.5t-105 -73.5t-149.5 -25zM672 1326v120h88v-120h-88zM360 1326v120h88v-120h-88z" />
    <glyph glyph-name="yacute" unicode="&#xfd;" horiz-adv-x="1014" 
d="M225 -330q-76 0 -100 8l-24 8v54h109q48 0 83 10t59.5 27t40.5 40.5t27 50.5l53 138l-405 1028h84l363 -922l355 922h76l-452 -1184q-26 -65 -65 -104.5t-90.5 -57.5t-113.5 -18zM462 1155l206 291h120l-251 -291h-75z" />
    <glyph glyph-name="thorn" unicode="&#xfe;" horiz-adv-x="1150" 
d="M180 -322v1768h74v-566q16 19 54.5 61t107.5 77.5t178 35.5q125 0 226 -57.5t160.5 -172.5t59.5 -288q0 -166 -57.5 -291t-163 -195t-248.5 -70q-100 0 -171.5 32t-115.5 66q-15 14 -20.5 10t-5.5 -24v-386h-78zM569 54q113 0 200.5 57t138 163t50.5 254q0 155 -53 254.5
t-138 147.5t-183 48q-97 0 -170.5 -43t-114.5 -105t-41 -120v-508q70 -67 146 -107.5t165 -40.5z" />
    <glyph glyph-name="ydieresis" unicode="&#xff;" horiz-adv-x="1014" 
d="M225 -330q-76 0 -100 8l-24 8v54h109q48 0 83 10t59.5 27t40.5 40.5t27 50.5l53 138l-405 1028h84l363 -922l355 922h76l-452 -1184q-26 -65 -65 -104.5t-90.5 -57.5t-113.5 -18zM627 1326v120h88v-120h-88zM315 1326v120h88v-120h-88z" />
    <glyph glyph-name="Amacron" unicode="&#x100;" horiz-adv-x="1388" 
d="M110 0l529 1446h111l528 -1446h-86l-167 456h-664l-167 -456h-84zM392 542h602l-301 823zM448 1677v74h490v-74h-490z" />
    <glyph glyph-name="amacron" unicode="&#x101;" 
d="M453 -20q-102 0 -176.5 34.5t-115 98t-40.5 151.5q0 174 112.5 253.5t369.5 88.5l239 8v100q0 119 -72.5 191.5t-223.5 72.5q-115 0 -193 -53.5t-95 -166.5h-84q6 89 48.5 155.5t124.5 103.5t203 37q111 0 194 -36.5t129 -111.5t46 -190v-716h-72l-3 210
q-67 -129 -172 -179.5t-219 -50.5zM466 54q65 0 131 23.5t121.5 64t89.5 90.5t34 102v202l-201 -4q-165 -3 -260.5 -31t-136.5 -84.5t-41 -146.5q0 -102 72 -159t191 -57zM303 1265v74h490v-74h-490z" />
    <glyph glyph-name="Abreve" unicode="&#x102;" horiz-adv-x="1388" 
d="M110 0l529 1446h111l528 -1446h-86l-167 456h-664l-167 -456h-84zM392 542h602l-301 823zM691 1563q-63 0 -116 21t-88.5 61t-48.5 96h84q18 -46 62.5 -75.5t106.5 -29.5t109 29.5t66 75.5h83q-13 -53 -47.5 -93t-88 -62.5t-122.5 -22.5z" />
    <glyph glyph-name="abreve" unicode="&#x103;" 
d="M453 -20q-102 0 -176.5 34.5t-115 98t-40.5 151.5q0 174 112.5 253.5t369.5 88.5l239 8v100q0 119 -72.5 191.5t-223.5 72.5q-115 0 -193 -53.5t-95 -166.5h-84q6 89 48.5 155.5t124.5 103.5t203 37q111 0 194 -36.5t129 -111.5t46 -190v-716h-72l-3 210
q-67 -129 -172 -179.5t-219 -50.5zM466 54q65 0 131 23.5t121.5 64t89.5 90.5t34 102v202l-201 -4q-165 -3 -260.5 -31t-136.5 -84.5t-41 -146.5q0 -102 72 -159t191 -57zM546 1151q-63 0 -116 21t-88.5 61t-48.5 96h84q18 -46 62.5 -75.5t106.5 -29.5t109 29.5t66 75.5h83
q-13 -53 -47.5 -93t-88 -62.5t-122.5 -22.5z" />
    <glyph glyph-name="Aogonek" unicode="&#x104;" horiz-adv-x="1388" 
d="M110 0l529 1446h111l528 -1446h-86l-167 456h-664l-167 -456h-84zM392 542h602l-301 823zM1180 -328q-93 0 -135.5 43t-42.5 109q0 65 46.5 113.5t169.5 84.5l66 -18q-97 -45 -146.5 -86t-49.5 -98q0 -40 26 -61t86 -21q50 0 89.5 11.5t52.5 18.5v-62q-22 -12 -66.5 -23
t-95.5 -11z" />
    <glyph glyph-name="aogonek" unicode="&#x105;" 
d="M453 -20q-102 0 -176.5 34.5t-115 98t-40.5 151.5q0 174 112.5 253.5t369.5 88.5l239 8v100q0 119 -72.5 191.5t-223.5 72.5q-115 0 -193 -53.5t-95 -166.5h-84q6 89 48.5 155.5t124.5 103.5t203 37q111 0 194 -36.5t129 -111.5t46 -190v-716h-72l-3 210
q-67 -129 -172 -179.5t-219 -50.5zM466 54q65 0 131 23.5t121.5 64t89.5 90.5t34 102v202l-201 -4q-165 -3 -260.5 -31t-136.5 -84.5t-41 -146.5q0 -102 72 -159t191 -57zM813 -324q-93 0 -135.5 43t-42.5 109q0 65 46.5 113.5t169.5 84.5l66 -18q-97 -45 -146.5 -86
t-49.5 -98q0 -40 26 -61t86 -21q50 0 89.5 11.5t52.5 18.5v-62q-22 -12 -66.5 -23t-95.5 -11z" />
    <glyph glyph-name="Cacute" unicode="&#x106;" horiz-adv-x="1318" 
d="M694 -20q-187 0 -315 83.5t-193.5 248t-65.5 408.5t65.5 410t193.5 251t315 85q143 0 252 -61.5t174.5 -160.5t77.5 -210h-88q-19 94 -71.5 173.5t-138.5 128t-206 48.5q-162 0 -270 -73.5t-162 -221t-54 -369.5q0 -333 121 -495.5t365 -162.5q120 0 206 48t138.5 127.5
t71.5 173.5h88q-9 -82 -49 -159.5t-105.5 -138.5t-154 -97t-195.5 -36zM633 1567l206 291h120l-251 -291h-75z" />
    <glyph glyph-name="cacute" unicode="&#x107;" 
d="M562 -20q-135 0 -237 57.5t-158.5 176t-56.5 300.5q0 162 49 283.5t149.5 189t253.5 67.5q93 0 175.5 -32.5t141.5 -98.5t79 -167h-85q-12 68 -54.5 118t-108.5 77t-148 27q-163 0 -266 -113.5t-103 -350.5q0 -206 91 -333t278 -127q82 0 148 27t108.5 77t54.5 118h85
q-20 -100 -79 -166t-141.5 -98t-175.5 -32zM512 1155l206 291h120l-251 -291h-75z" />
    <glyph glyph-name="Ccircumflex" unicode="&#x108;" horiz-adv-x="1318" 
d="M694 -20q-187 0 -315 83.5t-193.5 248t-65.5 408.5t65.5 410t193.5 251t315 85q143 0 252 -61.5t174.5 -160.5t77.5 -210h-88q-19 94 -71.5 173.5t-138.5 128t-206 48.5q-162 0 -270 -73.5t-162 -221t-54 -369.5q0 -333 121 -495.5t365 -162.5q120 0 206 48t138.5 127.5
t71.5 173.5h88q-9 -82 -49 -159.5t-105.5 -138.5t-154 -97t-195.5 -36zM418 1567l238 190h64l234 -190h-120l-148 120l-156 -120h-112z" />
    <glyph glyph-name="ccircumflex" unicode="&#x109;" 
d="M562 -20q-135 0 -237 57.5t-158.5 176t-56.5 300.5q0 162 49 283.5t149.5 189t253.5 67.5q93 0 175.5 -32.5t141.5 -98.5t79 -167h-85q-12 68 -54.5 118t-108.5 77t-148 27q-163 0 -266 -113.5t-103 -350.5q0 -206 91 -333t278 -127q82 0 148 27t108.5 77t54.5 118h85
q-20 -100 -79 -166t-141.5 -98t-175.5 -32zM297 1155l238 190h64l234 -190h-120l-148 120l-156 -120h-112z" />
    <glyph glyph-name="Cdotaccent" unicode="&#x10a;" horiz-adv-x="1318" 
d="M694 -20q-187 0 -315 83.5t-193.5 248t-65.5 408.5t65.5 410t193.5 251t315 85q143 0 252 -61.5t174.5 -160.5t77.5 -210h-88q-19 94 -71.5 173.5t-138.5 128t-206 48.5q-162 0 -270 -73.5t-162 -221t-54 -369.5q0 -333 121 -495.5t365 -162.5q120 0 206 48t138.5 127.5
t71.5 173.5h88q-9 -82 -49 -159.5t-105.5 -138.5t-154 -97t-195.5 -36zM638 1738v120h96v-120h-96z" />
    <glyph glyph-name="cdotaccent" unicode="&#x10b;" 
d="M562 -20q-135 0 -237 57.5t-158.5 176t-56.5 300.5q0 162 49 283.5t149.5 189t253.5 67.5q93 0 175.5 -32.5t141.5 -98.5t79 -167h-85q-12 68 -54.5 118t-108.5 77t-148 27q-163 0 -266 -113.5t-103 -350.5q0 -206 91 -333t278 -127q82 0 148 27t108.5 77t54.5 118h85
q-20 -100 -79 -166t-141.5 -98t-175.5 -32zM517 1326v120h96v-120h-96z" />
    <glyph glyph-name="Ccaron" unicode="&#x10c;" horiz-adv-x="1318" 
d="M694 -20q-187 0 -315 83.5t-193.5 248t-65.5 408.5t65.5 410t193.5 251t315 85q143 0 252 -61.5t174.5 -160.5t77.5 -210h-88q-19 94 -71.5 173.5t-138.5 128t-206 48.5q-162 0 -270 -73.5t-162 -221t-54 -369.5q0 -333 121 -495.5t365 -162.5q120 0 206 48t138.5 127.5
t71.5 173.5h88q-9 -82 -49 -159.5t-105.5 -138.5t-154 -97t-195.5 -36zM656 1567l-240 190h114l156 -120l148 120h120l-234 -190h-64z" />
    <glyph glyph-name="ccaron" unicode="&#x10d;" 
d="M562 -20q-135 0 -237 57.5t-158.5 176t-56.5 300.5q0 162 49 283.5t149.5 189t253.5 67.5q93 0 175.5 -32.5t141.5 -98.5t79 -167h-85q-12 68 -54.5 118t-108.5 77t-148 27q-163 0 -266 -113.5t-103 -350.5q0 -206 91 -333t278 -127q82 0 148 27t108.5 77t54.5 118h85
q-20 -100 -79 -166t-141.5 -98t-175.5 -32zM535 1155l-240 190h114l156 -120l148 120h120l-234 -190h-64z" />
    <glyph glyph-name="Dcaron" unicode="&#x10e;" horiz-adv-x="1334" 
d="M220 0v1446q2 0 22.5 -0.5t54 -0.5t76 -0.5t87.5 -0.5q268 -1 434 -78t243 -234t77 -398q0 -255 -84.5 -417t-258 -239.5t-439.5 -77.5h-212zM306 82h120q234 0 390.5 62.5t235 204t78.5 377.5q0 249 -81 387.5t-235.5 194.5t-375.5 56h-132v-1282zM620 1567l-240 190
h114l156 -120l148 120h120l-234 -190h-64z" />
    <glyph glyph-name="dcaron" unicode="&#x10f;" horiz-adv-x="1149" 
d="M543 -20q-195 0 -314 132.5t-119 407.5q0 160 47 280t143 187t243 67q93 0 159.5 -25t110 -61t67 -70t30.5 -52v640h80v-1486h-72l-6 212q-6 -18 -25 -55.5t-59.5 -78.5t-110 -69.5t-174.5 -28.5zM545 54q203 0 284 114.5t81 364.5q-2 136 -36.5 236t-112 154.5
t-210.5 54.5q-160 0 -257.5 -109t-97.5 -336q0 -215 85.5 -347t263.5 -132zM1099 1146l71 166l-38 8v166h106v-174l-72 -166h-67z" />
    <glyph glyph-name="Dcroat" unicode="&#x110;" horiz-adv-x="1330" 
d="M70 688v81h598v-81h-598zM216 0v1446q2 0 22.5 -0.5t54 -0.5t76 -0.5t87.5 -0.5q268 -1 434 -78t243 -234t77 -398q0 -255 -84.5 -417t-258 -239.5t-439.5 -77.5h-212zM302 82h120q234 0 390.5 62.5t235 204t78.5 377.5q0 249 -81 387.5t-235.5 194.5t-375.5 56h-132
v-1282z" />
    <glyph glyph-name="dcroat" unicode="&#x111;" horiz-adv-x="1190" 
d="M568 1222v68h562v-68h-562zM543 -20q-195 0 -314 132.5t-119 407.5q0 160 47 280t143 187t243 67q93 0 159.5 -25t110 -61t67 -70t30.5 -52v640h80v-1486h-72l-6 212q-6 -18 -25 -55.5t-59.5 -78.5t-110 -69.5t-174.5 -28.5zM545 54q203 0 284 114.5t81 364.5
q-2 136 -36.5 236t-112 154.5t-210.5 54.5q-160 0 -257.5 -109t-97.5 -336q0 -215 85.5 -347t263.5 -132z" />
    <glyph glyph-name="Emacron" unicode="&#x112;" horiz-adv-x="1213" 
d="M220 0v1446h830v-80h-752v-594h700v-82h-700v-606l780 -2v-82h-858zM394 1677v74h490v-74h-490z" />
    <glyph glyph-name="emacron" unicode="&#x113;" horiz-adv-x="1114" 
d="M581 -20q-136 0 -239.5 61.5t-162 179.5t-58.5 287q0 171 52.5 293.5t153 187.5t242.5 65q134 0 228.5 -59t145 -170.5t50.5 -270.5v-56h-787q0 -117 39 -217.5t122 -162.5t214 -62q123 0 210 59t105 161h85q-20 -100 -80 -166t-143.5 -98t-176.5 -32zM208 574h702
q0 115 -37 206.5t-113 144.5t-193 53q-127 0 -206.5 -60.5t-116.5 -153.5t-36 -190zM323 1265v74h490v-74h-490z" />
    <glyph glyph-name="Ebreve" unicode="&#x114;" horiz-adv-x="1213" 
d="M220 0v1446h830v-80h-752v-594h700v-82h-700v-606l780 -2v-82h-858zM637 1563q-63 0 -116 21t-88.5 61t-48.5 96h84q18 -46 62.5 -75.5t106.5 -29.5t109 29.5t66 75.5h83q-13 -53 -47.5 -93t-88 -62.5t-122.5 -22.5z" />
    <glyph glyph-name="ebreve" unicode="&#x115;" horiz-adv-x="1114" 
d="M581 -20q-136 0 -239.5 61.5t-162 179.5t-58.5 287q0 171 52.5 293.5t153 187.5t242.5 65q134 0 228.5 -59t145 -170.5t50.5 -270.5v-56h-787q0 -117 39 -217.5t122 -162.5t214 -62q123 0 210 59t105 161h85q-20 -100 -80 -166t-143.5 -98t-176.5 -32zM208 574h702
q0 115 -37 206.5t-113 144.5t-193 53q-127 0 -206.5 -60.5t-116.5 -153.5t-36 -190zM566 1151q-63 0 -116 21t-88.5 61t-48.5 96h84q18 -46 62.5 -75.5t106.5 -29.5t109 29.5t66 75.5h83q-13 -53 -47.5 -93t-88 -62.5t-122.5 -22.5z" />
    <glyph glyph-name="Edotaccent" unicode="&#x116;" horiz-adv-x="1213" 
d="M220 0v1446h830v-80h-752v-594h700v-82h-700v-606l780 -2v-82h-858zM592 1738v120h96v-120h-96z" />
    <glyph glyph-name="edotaccent" unicode="&#x117;" horiz-adv-x="1114" 
d="M581 -20q-136 0 -239.5 61.5t-162 179.5t-58.5 287q0 171 52.5 293.5t153 187.5t242.5 65q134 0 228.5 -59t145 -170.5t50.5 -270.5v-56h-787q0 -117 39 -217.5t122 -162.5t214 -62q123 0 210 59t105 161h85q-20 -100 -80 -166t-143.5 -98t-176.5 -32zM208 574h702
q0 115 -37 206.5t-113 144.5t-193 53q-127 0 -206.5 -60.5t-116.5 -153.5t-36 -190zM521 1326v120h96v-120h-96z" />
    <glyph glyph-name="Eogonek" unicode="&#x118;" horiz-adv-x="1213" 
d="M220 0v1446h830v-80h-752v-594h700v-82h-700v-606l780 -2v-82h-858zM974 -332q-93 0 -135.5 43t-42.5 109q0 65 46.5 113.5t169.5 84.5l66 -18q-97 -45 -146.5 -86t-49.5 -98q0 -40 26 -61t86 -21q50 0 89.5 11.5t52.5 18.5v-62q-22 -12 -66.5 -23t-95.5 -11z" />
    <glyph glyph-name="eogonek" unicode="&#x119;" horiz-adv-x="1114" 
d="M661 -316q-93 0 -135.5 43t-42.5 109q0 43 19.5 79t67.5 65q-133 3 -234 65t-158 179.5t-57 283.5q0 171 52.5 293.5t153 187.5t242.5 65q134 0 228.5 -59t145 -170.5t50.5 -270.5v-56h-787q0 -117 39 -217.5t122 -162.5t214 -62q123 0 210 59t105 161h85
q-21 -103 -83.5 -166t-148.5 -101q-92 -40 -136 -81t-44 -96q0 -40 26 -61t86 -21q50 0 89.5 11.5t52.5 18.5v-62q-22 -12 -66.5 -23t-95.5 -11zM208 574h702q0 115 -37 206.5t-113 144.5t-193 53q-127 0 -206.5 -60.5t-116.5 -153.5t-36 -190z" />
    <glyph glyph-name="Ecaron" unicode="&#x11a;" horiz-adv-x="1213" 
d="M220 0v1446h830v-80h-752v-594h700v-82h-700v-606l780 -2v-82h-858zM610 1567l-240 190h114l156 -120l148 120h120l-234 -190h-64z" />
    <glyph glyph-name="ecaron" unicode="&#x11b;" horiz-adv-x="1114" 
d="M581 -20q-136 0 -239.5 61.5t-162 179.5t-58.5 287q0 171 52.5 293.5t153 187.5t242.5 65q134 0 228.5 -59t145 -170.5t50.5 -270.5v-56h-787q0 -117 39 -217.5t122 -162.5t214 -62q123 0 210 59t105 161h85q-20 -100 -80 -166t-143.5 -98t-176.5 -32zM208 574h702
q0 115 -37 206.5t-113 144.5t-193 53q-127 0 -206.5 -60.5t-116.5 -153.5t-36 -190zM539 1155l-240 190h114l156 -120l148 120h120l-234 -190h-64z" />
    <glyph glyph-name="Gcircumflex" unicode="&#x11c;" horiz-adv-x="1414" 
d="M697 -20q-182 0 -311.5 84t-197.5 248.5t-68 407.5q0 241 68 407.5t197.5 252.5t311.5 86q90 0 175.5 -35t155 -95.5t114 -138t52.5 -163.5h-88q-15 91 -72.5 171t-144.5 129.5t-192 49.5q-152 0 -263.5 -73.5t-171.5 -221t-60 -369.5q0 -166 34.5 -290.5t99 -207
t156 -123.5t205.5 -41q116 0 200.5 42t139.5 109t82 143.5t27 145.5v168h-404v70h482v-736h-78v252q-39 -76 -101.5 -137.5t-149 -98t-198.5 -36.5zM430 1567l238 190h64l234 -190h-120l-148 120l-156 -120h-112z" />
    <glyph glyph-name="gcircumflex" unicode="&#x11d;" horiz-adv-x="1233" 
d="M576 -342q-211 0 -339.5 71t-128.5 219q0 59 24.5 102t59 73.5t65 49.5t41.5 29q-19 12 -39 25t-33.5 32.5t-13.5 50.5q0 42 39.5 77t114.5 57q-80 44 -129 114t-49 162q0 99 44.5 173.5t135.5 115.5t230 41q96 0 165 -24t129 -74q10 5 41.5 18.5t70.5 30t70.5 30
t41.5 17.5v-116l-184 -40q21 -37 33.5 -82t12.5 -90q0 -93 -42.5 -163.5t-130 -109.5t-221.5 -39h-11h-11q-154 -3 -211 -33t-57 -63t45 -48t169 -24q45 -3 103 -6t131 -8q135 -7 217.5 -72.5t82.5 -191.5q0 -136 -114 -220t-352 -84zM594 -268q165 0 265.5 56.5
t100.5 173.5q0 77 -53.5 127t-166.5 57l-344 22q-31 2 -80 -24.5t-87.5 -75t-38.5 -112.5q0 -100 99 -162t305 -62zM586 482q141 0 227.5 59t86.5 183q0 129 -86.5 190.5t-227.5 61.5q-144 0 -232 -62t-88 -190q0 -118 83 -180t237 -62zM324 1155l238 190h64l234 -190h-120
l-148 120l-156 -120h-112z" />
    <glyph glyph-name="Gbreve" unicode="&#x11e;" horiz-adv-x="1414" 
d="M697 -20q-182 0 -311.5 84t-197.5 248.5t-68 407.5q0 241 68 407.5t197.5 252.5t311.5 86q90 0 175.5 -35t155 -95.5t114 -138t52.5 -163.5h-88q-15 91 -72.5 171t-144.5 129.5t-192 49.5q-152 0 -263.5 -73.5t-171.5 -221t-60 -369.5q0 -166 34.5 -290.5t99 -207
t156 -123.5t205.5 -41q116 0 200.5 42t139.5 109t82 143.5t27 145.5v168h-404v70h482v-736h-78v252q-39 -76 -101.5 -137.5t-149 -98t-198.5 -36.5zM695 1563q-63 0 -116 21t-88.5 61t-48.5 96h84q18 -46 62.5 -75.5t106.5 -29.5t109 29.5t66 75.5h83q-13 -53 -47.5 -93
t-88 -62.5t-122.5 -22.5z" />
    <glyph glyph-name="gbreve" unicode="&#x11f;" horiz-adv-x="1233" 
d="M576 -342q-211 0 -339.5 71t-128.5 219q0 59 24.5 102t59 73.5t65 49.5t41.5 29q-19 12 -39 25t-33.5 32.5t-13.5 50.5q0 42 39.5 77t114.5 57q-80 44 -129 114t-49 162q0 99 44.5 173.5t135.5 115.5t230 41q96 0 165 -24t129 -74q10 5 41.5 18.5t70.5 30t70.5 30
t41.5 17.5v-116l-184 -40q21 -37 33.5 -82t12.5 -90q0 -93 -42.5 -163.5t-130 -109.5t-221.5 -39h-11h-11q-154 -3 -211 -33t-57 -63t45 -48t169 -24q45 -3 103 -6t131 -8q135 -7 217.5 -72.5t82.5 -191.5q0 -136 -114 -220t-352 -84zM594 -268q165 0 265.5 56.5
t100.5 173.5q0 77 -53.5 127t-166.5 57l-344 22q-31 2 -80 -24.5t-87.5 -75t-38.5 -112.5q0 -100 99 -162t305 -62zM586 482q141 0 227.5 59t86.5 183q0 129 -86.5 190.5t-227.5 61.5q-144 0 -232 -62t-88 -190q0 -118 83 -180t237 -62zM589 1151q-63 0 -116 21t-88.5 61
t-48.5 96h84q18 -46 62.5 -75.5t106.5 -29.5t109 29.5t66 75.5h83q-13 -53 -47.5 -93t-88 -62.5t-122.5 -22.5z" />
    <glyph glyph-name="Gdotaccent" unicode="&#x120;" horiz-adv-x="1414" 
d="M697 -20q-182 0 -311.5 84t-197.5 248.5t-68 407.5q0 241 68 407.5t197.5 252.5t311.5 86q90 0 175.5 -35t155 -95.5t114 -138t52.5 -163.5h-88q-15 91 -72.5 171t-144.5 129.5t-192 49.5q-152 0 -263.5 -73.5t-171.5 -221t-60 -369.5q0 -166 34.5 -290.5t99 -207
t156 -123.5t205.5 -41q116 0 200.5 42t139.5 109t82 143.5t27 145.5v168h-404v70h482v-736h-78v252q-39 -76 -101.5 -137.5t-149 -98t-198.5 -36.5zM650 1738v120h96v-120h-96z" />
    <glyph glyph-name="gdotaccent" unicode="&#x121;" horiz-adv-x="1233" 
d="M576 -342q-211 0 -339.5 71t-128.5 219q0 59 24.5 102t59 73.5t65 49.5t41.5 29q-19 12 -39 25t-33.5 32.5t-13.5 50.5q0 42 39.5 77t114.5 57q-80 44 -129 114t-49 162q0 99 44.5 173.5t135.5 115.5t230 41q96 0 165 -24t129 -74q10 5 41.5 18.5t70.5 30t70.5 30
t41.5 17.5v-116l-184 -40q21 -37 33.5 -82t12.5 -90q0 -93 -42.5 -163.5t-130 -109.5t-221.5 -39h-11h-11q-154 -3 -211 -33t-57 -63t45 -48t169 -24q45 -3 103 -6t131 -8q135 -7 217.5 -72.5t82.5 -191.5q0 -136 -114 -220t-352 -84zM594 -268q165 0 265.5 56.5
t100.5 173.5q0 77 -53.5 127t-166.5 57l-344 22q-31 2 -80 -24.5t-87.5 -75t-38.5 -112.5q0 -100 99 -162t305 -62zM586 482q141 0 227.5 59t86.5 183q0 129 -86.5 190.5t-227.5 61.5q-144 0 -232 -62t-88 -190q0 -118 83 -180t237 -62zM544 1326v120h96v-120h-96z" />
    <glyph glyph-name="uni0122" unicode="&#x122;" horiz-adv-x="1414" 
d="M697 -20q-182 0 -311.5 84t-197.5 248.5t-68 407.5q0 241 68 407.5t197.5 252.5t311.5 86q90 0 175.5 -35t155 -95.5t114 -138t52.5 -163.5h-88q-15 91 -72.5 171t-144.5 129.5t-192 49.5q-152 0 -263.5 -73.5t-171.5 -221t-60 -369.5q0 -166 34.5 -290.5t99 -207
t156 -123.5t205.5 -41q116 0 200.5 42t139.5 109t82 143.5t27 145.5v168h-404v70h482v-736h-78v252q-39 -76 -101.5 -137.5t-149 -98t-198.5 -36.5zM611 -320l72 99h-45v121h126v-103l-104 -117h-49z" />
    <glyph glyph-name="uni0123" unicode="&#x123;" horiz-adv-x="1233" 
d="M576 -342q-211 0 -339.5 71t-128.5 219q0 59 24.5 102t59 73.5t65 49.5t41.5 29q-19 12 -39 25t-33.5 32.5t-13.5 50.5q0 42 39.5 77t114.5 57q-80 44 -129 114t-49 162q0 99 44.5 173.5t135.5 115.5t230 41q96 0 165 -24t129 -74q10 5 41.5 18.5t70.5 30t70.5 30
t41.5 17.5v-116l-184 -40q21 -37 33.5 -82t12.5 -90q0 -93 -42.5 -163.5t-130 -109.5t-221.5 -39h-11h-11q-154 -3 -211 -33t-57 -63t45 -48t169 -24q45 -3 103 -6t131 -8q135 -7 217.5 -72.5t82.5 -191.5q0 -136 -114 -220t-352 -84zM594 -268q165 0 265.5 56.5
t100.5 173.5q0 77 -53.5 127t-166.5 57l-344 22q-31 2 -80 -24.5t-87.5 -75t-38.5 -112.5q0 -100 99 -162t305 -62zM586 482q141 0 227.5 59t86.5 183q0 129 -86.5 190.5t-227.5 61.5q-144 0 -232 -62t-88 -190q0 -118 83 -180t237 -62zM534 1155v170l68 130h62l-64 -138h46
v-162h-112z" />
    <glyph glyph-name="Hcircumflex" unicode="&#x124;" horiz-adv-x="1524" 
d="M220 0v1446h78v-652h928v652h78v-1446h-78v712h-928v-712h-78zM489 1579l238 190h64l234 -190h-120l-148 120l-156 -120h-112z" />
    <glyph glyph-name="hcircumflex" unicode="&#x125;" horiz-adv-x="1122" 
d="M180 0v1486h72v-606q27 49 77 88.5t119 62.5t153 23q103 0 184.5 -36.5t129 -101.5t47.5 -150v-766h-78v736q0 114 -76.5 178t-208.5 64q-91 0 -169 -28t-125 -85t-47 -145v-720h-78zM-52 1567l238 190h64l234 -190h-120l-148 120l-156 -120h-112z" />
    <glyph glyph-name="Hbar" unicode="&#x126;" horiz-adv-x="1518" 
d="M20 1128v78h1478v-78h-1478zM222 0v1446h78v-652h928v652h78v-1446h-78v712h-928v-712h-78z" />
    <glyph glyph-name="hbar" unicode="&#x127;" horiz-adv-x="1118" 
d="M40 1222v68h564v-68h-564zM176 0v1486h72v-606q27 49 77 88.5t119 62.5t153 23q103 0 184.5 -36.5t129 -101.5t47.5 -150v-766h-78v736q0 114 -76.5 178t-208.5 64q-91 0 -169 -28t-125 -85t-47 -145v-720h-78z" />
    <glyph glyph-name="Itilde" unicode="&#x128;" horiz-adv-x="518" 
d="M220 0v1446h78v-1446h-78zM28 1660l-24 66q30 24 62 41t78 17q43 0 79.5 -12.5l73 -25t79.5 -12.5q38 0 62 11t52 31l28 -70q-21 -13 -53 -29.5t-91 -16.5q-51 0 -85.5 12t-65.5 24t-71 12q-48 0 -74.5 -17t-49.5 -31z" />
    <glyph glyph-name="itilde" unicode="&#x129;" horiz-adv-x="438" 
d="M180 0v1034h78v-1034h-78zM-14 1248l-24 66q30 24 62 41t78 17q43 0 79.5 -12.5l73 -25t79.5 -12.5q38 0 62 11t52 31l28 -70q-21 -13 -53 -29.5t-91 -16.5q-51 0 -85.5 12t-65.5 24t-71 12q-48 0 -74.5 -17t-49.5 -31z" />
    <glyph glyph-name="Imacron" unicode="&#x12a;" horiz-adv-x="518" 
d="M220 0v1446h78v-1446h-78zM14 1677v74h490v-74h-490z" />
    <glyph glyph-name="imacron" unicode="&#x12b;" horiz-adv-x="438" 
d="M180 0v1034h78v-1034h-78zM-28 1265v74h490v-74h-490z" />
    <glyph glyph-name="Ibreve" unicode="&#x12c;" horiz-adv-x="518" 
d="M220 0v1446h78v-1446h-78zM257 1563q-63 0 -116 21t-88.5 61t-48.5 96h84q18 -46 62.5 -75.5t106.5 -29.5t109 29.5t66 75.5h83q-13 -53 -47.5 -93t-88 -62.5t-122.5 -22.5z" />
    <glyph glyph-name="ibreve" unicode="&#x12d;" horiz-adv-x="438" 
d="M180 0v1034h78v-1034h-78zM215 1151q-63 0 -116 21t-88.5 61t-48.5 96h84q18 -46 62.5 -75.5t106.5 -29.5t109 29.5t66 75.5h83q-13 -53 -47.5 -93t-88 -62.5t-122.5 -22.5z" />
    <glyph glyph-name="Iogonek" unicode="&#x12e;" horiz-adv-x="518" 
d="M220 0v1446h78v-1446h-78zM194 -332q-93 0 -135.5 43t-42.5 109q0 65 46.5 113.5t169.5 84.5l66 -18q-97 -45 -146.5 -86t-49.5 -98q0 -40 26 -61t86 -21q50 0 89.5 11.5t52.5 18.5v-62q-22 -12 -66.5 -23t-95.5 -11z" />
    <glyph glyph-name="iogonek" unicode="&#x12f;" horiz-adv-x="438" 
d="M180 0v1034h78v-1034h-78zM170 1326v120h96v-120h-96zM149 -326q-93 0 -135.5 43t-42.5 109q0 65 46.5 113.5t169.5 84.5l66 -18q-97 -45 -146.5 -86t-49.5 -98q0 -40 26 -61t86 -21q50 0 89.5 11.5t52.5 18.5v-62q-22 -12 -66.5 -23t-95.5 -11z" />
    <glyph glyph-name="Idotaccent" unicode="&#x130;" horiz-adv-x="518" 
d="M220 0v1446h78v-1446h-78zM212 1738v120h96v-120h-96z" />
    <glyph glyph-name="dotlessi" unicode="&#x131;" horiz-adv-x="438" 
d="M180 0v1034h78v-1034h-78z" />
    <glyph glyph-name="Jcircumflex" unicode="&#x134;" horiz-adv-x="750" 
d="M330 -20q-85 0 -147 24.5t-73 33.5l20 86q33 -15 76.5 -38.5t119.5 -23.5q95 0 132.5 55t37.5 191v1138h78v-1166q0 -92 -22 -159.5t-75 -104t-147 -36.5zM266 1567l238 190h64l234 -190h-120l-148 120l-156 -120h-112z" />
    <glyph glyph-name="jcircumflex" unicode="&#x135;" horiz-adv-x="467" 
d="M68 -332q-88 0 -108 3t-20 15v52l126 2q76 2 109.5 39.5t33.5 130.5v1124h78v-1134q0 -120 -44 -176t-175 -56zM-21 1155l238 190h64l234 -190h-120l-148 120l-156 -120h-112z" />
    <glyph glyph-name="uni0136" unicode="&#x136;" horiz-adv-x="1295" 
d="M220 0v1446h82v-834l768 834h108l-529 -577l558 -869h-99l-518 812l-288 -315v-497h-82zM579 -320l72 99h-45v121h126v-103l-104 -117h-49z" />
    <glyph glyph-name="uni0137" unicode="&#x137;" horiz-adv-x="1087" 
d="M180 0v1486h77v-1058l592 606h110l-370 -376l408 -658h-100l-368 592l-272 -276v-316h-77zM448 -320l72 99h-45v121h126v-103l-104 -117h-49z" />
    <glyph glyph-name="kgreenlandic" unicode="&#x138;" horiz-adv-x="1087" 
d="M180 0v1034h77v-606l592 606h110l-370 -376l408 -658h-100l-368 592l-272 -276v-316h-77z" />
    <glyph glyph-name="Lacute" unicode="&#x139;" horiz-adv-x="1154" 
d="M220 0l2 1446h84v-1360h738v-86h-824zM213 1567l206 291h120l-251 -291h-75z" />
    <glyph glyph-name="lacute" unicode="&#x13a;" horiz-adv-x="554" 
d="M372 -8q-52 0 -88.5 19t-59.5 53t-33.5 79.5t-10.5 98.5v1244h78v-1244q0 -100 36.5 -142t79.5 -42h63v-58q-17 -4 -35.5 -6t-29.5 -2zM159 1645l206 291h120l-251 -291h-75z" />
    <glyph glyph-name="uni013B" unicode="&#x13b;" horiz-adv-x="1154" 
d="M220 0l2 1446h84v-1360h738v-86h-824zM535 -320l72 99h-45v121h126v-103l-104 -117h-49z" />
    <glyph glyph-name="uni013C" unicode="&#x13c;" horiz-adv-x="554" 
d="M372 -8q-52 0 -88.5 19t-59.5 53t-33.5 79.5t-10.5 98.5v1244h78v-1244q0 -100 36.5 -142t79.5 -42h63v-58q-17 -4 -35.5 -6t-29.5 -2zM175 -318l72 99h-45v121h126v-103l-104 -117h-49z" />
    <glyph glyph-name="Lcaron" unicode="&#x13d;" horiz-adv-x="1154" 
d="M220 0l2 1446h84v-1360h738v-86h-824zM739 1106l71 166l-38 8v166h106v-174l-72 -166h-67z" />
    <glyph glyph-name="lcaron" unicode="&#x13e;" horiz-adv-x="554" 
d="M372 -8q-52 0 -88.5 19t-59.5 53t-33.5 79.5t-10.5 98.5v1244h78v-1244q0 -100 36.5 -142t79.5 -42h63v-58q-17 -4 -35.5 -6t-29.5 -2zM367 1146l71 166l-38 8v166h106v-174l-72 -166h-67z" />
    <glyph glyph-name="Ldot" unicode="&#x13f;" horiz-adv-x="1154" 
d="M220 0l2 1446h84v-1360h738v-86h-824zM766 698v154h160v-154h-160z" />
    <glyph glyph-name="ldot" unicode="&#x140;" horiz-adv-x="554" 
d="M372 -8q-52 0 -88.5 19t-59.5 53t-33.5 79.5t-10.5 98.5v1244h78v-1244q0 -100 36.5 -142t79.5 -42h63v-58q-17 -4 -35.5 -6t-29.5 -2zM416 698v154h160v-154h-160z" />
    <glyph glyph-name="Lslash" unicode="&#x141;" horiz-adv-x="1144" 
d="M30 634v76l574 146v-72zM210 0l2 1446h84v-1360h738v-86h-824z" />
    <glyph glyph-name="lslash" unicode="&#x142;" horiz-adv-x="669" 
d="M70 340v90l462 432v-86zM450 -8q-52 0 -88.5 19t-59.5 53t-33.5 79.5t-10.5 98.5v1244h78v-1244q0 -100 36.5 -142t79.5 -42h63v-58q-17 -4 -35.5 -6t-29.5 -2z" />
    <glyph glyph-name="Nacute" unicode="&#x143;" horiz-adv-x="1452" 
d="M220 0v1446h64l870 -1290v1290h78v-1446h-68l-866 1286v-1286h-78zM673 1567l206 291h120l-251 -291h-75z" />
    <glyph glyph-name="nacute" unicode="&#x144;" horiz-adv-x="1122" 
d="M180 0v1034h72v-154q27 49 76.5 88.5t118.5 62.5t152 23q102 0 184.5 -41t130.5 -126t48 -217v-670h-78v670q0 158 -76.5 233t-208.5 75q-91 0 -169 -28t-125 -85t-47 -145v-720h-78zM539 1155l206 291h120l-251 -291h-75z" />
    <glyph glyph-name="uni0145" unicode="&#x145;" horiz-adv-x="1452" 
d="M220 0v1446h64l870 -1290v1290h78v-1446h-68l-866 1286v-1286h-78zM593 -320l72 99h-45v121h126v-103l-104 -117h-49z" />
    <glyph glyph-name="uni0146" unicode="&#x146;" horiz-adv-x="1122" 
d="M180 0v1034h72v-154q27 49 76.5 88.5t118.5 62.5t152 23q102 0 184.5 -41t130.5 -126t48 -217v-670h-78v670q0 158 -76.5 233t-208.5 75q-91 0 -169 -28t-125 -85t-47 -145v-720h-78zM489 -320l72 99h-45v121h126v-103l-104 -117h-49z" />
    <glyph glyph-name="Ncaron" unicode="&#x147;" horiz-adv-x="1452" 
d="M220 0v1446h64l870 -1290v1290h78v-1446h-68l-866 1286v-1286h-78zM696 1567l-240 190h114l156 -120l148 120h120l-234 -190h-64z" />
    <glyph glyph-name="ncaron" unicode="&#x148;" horiz-adv-x="1122" 
d="M180 0v1034h72v-154q27 49 76.5 88.5t118.5 62.5t152 23q102 0 184.5 -41t130.5 -126t48 -217v-670h-78v670q0 158 -76.5 233t-208.5 75q-91 0 -169 -28t-125 -85t-47 -145v-720h-78zM562 1155l-240 190h114l156 -120l148 120h120l-234 -190h-64z" />
    <glyph glyph-name="Eng" unicode="&#x14a;" horiz-adv-x="1452" 
d="M988 -480q-85 0 -147 24.5t-73 33.5l20 86q33 -15 76.5 -38.5t119.5 -23.5q95 0 133.5 55t38.5 191v164l-858 1274v-1286h-78v1446h64l870 -1290v1290h78v-1626q0 -92 -22 -159.5t-75 -104t-147 -36.5z" />
    <glyph glyph-name="eng" unicode="&#x14b;" horiz-adv-x="1142" 
d="M740 -332q-75 0 -93.5 3t-18.5 15v48l109 2q79 2 113 41.5t34 132.5v814q0 114 -55.5 185t-192.5 71q-93 0 -188 -50t-190 -134v-796h-78v1034h72v-156q88 70 152 108t120.5 53t120.5 15q151 0 234 -80t83 -208v-846q0 -80 -23 -136.5t-72 -86t-127 -29.5z" />
    <glyph glyph-name="Omacron" unicode="&#x14c;" horiz-adv-x="1414" 
d="M710 -20q-182 0 -314.5 84.5t-204 249.5t-71.5 406q0 243 71.5 409t204 251.5t314.5 85.5t313 -85t201 -251t70 -410q0 -241 -70 -405.5t-201 -249.5t-313 -85zM710 62q162 0 272.5 72t167 218.5t56.5 367.5q0 224 -57.5 371t-168 220t-270.5 73t-272 -73.5t-171 -221
t-59 -369.5t59 -368t171 -218t272 -72zM466 1677v74h490v-74h-490z" />
    <glyph glyph-name="omacron" unicode="&#x14d;" horiz-adv-x="1110" 
d="M558 -20q-134 0 -235 58t-157 176.5t-56 299.5q0 162 48.5 283.5t148 189t251.5 67.5q133 0 232 -58.5t154.5 -178t55.5 -303.5q0 -160 -48 -280t-145.5 -187t-248.5 -67zM558 54q109 0 190 50t126 152t45 258q0 139 -39 243.5t-119 162.5t-203 58q-110 0 -192.5 -50
t-128 -153t-45.5 -261q0 -138 39.5 -241.5t121 -161t205.5 -57.5zM310 1265v74h490v-74h-490z" />
    <glyph glyph-name="Obreve" unicode="&#x14e;" horiz-adv-x="1414" 
d="M710 -20q-182 0 -314.5 84.5t-204 249.5t-71.5 406q0 243 71.5 409t204 251.5t314.5 85.5t313 -85t201 -251t70 -410q0 -241 -70 -405.5t-201 -249.5t-313 -85zM710 62q162 0 272.5 72t167 218.5t56.5 367.5q0 224 -57.5 371t-168 220t-270.5 73t-272 -73.5t-171 -221
t-59 -369.5t59 -368t171 -218t272 -72zM709 1563q-63 0 -116 21t-88.5 61t-48.5 96h84q18 -46 62.5 -75.5t106.5 -29.5t109 29.5t66 75.5h83q-13 -53 -47.5 -93t-88 -62.5t-122.5 -22.5z" />
    <glyph glyph-name="obreve" unicode="&#x14f;" horiz-adv-x="1110" 
d="M558 -20q-134 0 -235 58t-157 176.5t-56 299.5q0 162 48.5 283.5t148 189t251.5 67.5q133 0 232 -58.5t154.5 -178t55.5 -303.5q0 -160 -48 -280t-145.5 -187t-248.5 -67zM558 54q109 0 190 50t126 152t45 258q0 139 -39 243.5t-119 162.5t-203 58q-110 0 -192.5 -50
t-128 -153t-45.5 -261q0 -138 39.5 -241.5t121 -161t205.5 -57.5zM553 1151q-63 0 -116 21t-88.5 61t-48.5 96h84q18 -46 62.5 -75.5t106.5 -29.5t109 29.5t66 75.5h83q-13 -53 -47.5 -93t-88 -62.5t-122.5 -22.5z" />
    <glyph glyph-name="Ohungarumlaut" unicode="&#x150;" horiz-adv-x="1414" 
d="M710 -20q-182 0 -314.5 84.5t-204 249.5t-71.5 406q0 243 71.5 409t204 251.5t314.5 85.5t313 -85t201 -251t70 -410q0 -241 -70 -405.5t-201 -249.5t-313 -85zM710 62q162 0 272.5 72t167 218.5t56.5 367.5q0 224 -57.5 371t-168 220t-270.5 73t-272 -73.5t-171 -221
t-59 -369.5t59 -368t171 -218t272 -72zM785 1567l226 291h120l-271 -291h-75zM580 1567l191 291h120l-236 -291h-75z" />
    <glyph glyph-name="ohungarumlaut" unicode="&#x151;" horiz-adv-x="1110" 
d="M558 -20q-134 0 -235 58t-157 176.5t-56 299.5q0 162 48.5 283.5t148 189t251.5 67.5q133 0 232 -58.5t154.5 -178t55.5 -303.5q0 -160 -48 -280t-145.5 -187t-248.5 -67zM558 54q109 0 190 50t126 152t45 258q0 139 -39 243.5t-119 162.5t-203 58q-110 0 -192.5 -50
t-128 -153t-45.5 -261q0 -138 39.5 -241.5t121 -161t205.5 -57.5zM629 1155l226 291h120l-271 -291h-75zM424 1155l191 291h120l-236 -291h-75z" />
    <glyph glyph-name="OE" unicode="&#x152;" horiz-adv-x="2218" 
d="M1303 690v-606l780 -2v-82h-858v318q-69 -166 -200.5 -252t-314.5 -86q-182 0 -314.5 84.5t-204 249.5t-71.5 406q0 243 71.5 409t204 251.5t314.5 85.5q183 0 314.5 -86t200.5 -254v320h830v-80h-752v-594h700v-82h-700zM710 62q162 0 272.5 72t167 218.5t56.5 367.5
q0 224 -57.5 371t-168 220t-270.5 73t-272 -73.5t-171 -221t-59 -369.5t59 -368t171 -218t272 -72z" />
    <glyph glyph-name="oe" unicode="&#x153;" horiz-adv-x="1923" 
d="M1802 554v-56h-787q0 -117 39 -217.5t122 -162.5t214 -62q123 0 210 59t105 161h85q-20 -100 -80 -166t-143.5 -98t-176.5 -32q-151 0 -262 76t-161 218q-43 -137 -144.5 -215.5t-264.5 -78.5q-134 0 -235 58t-157 176.5t-56 299.5q0 162 48.5 283.5t148 189t251.5 67.5
q148 0 254.5 -73t154.5 -222q47 141 152 218t259 77q134 0 228.5 -59t145 -170.5t50.5 -270.5zM558 54q109 0 190 50t126 152t45 258q0 139 -39 243.5t-119 162.5t-203 58q-110 0 -192.5 -50t-128 -153t-45.5 -261q0 -138 39.5 -241.5t121 -161t205.5 -57.5zM1017 574h702
q0 115 -37 206.5t-113 144.5t-193 53q-127 0 -206.5 -60.5t-116.5 -153.5t-36 -190z" />
    <glyph glyph-name="Racute" unicode="&#x154;" horiz-adv-x="1314" 
d="M220 0v1446h510q140 0 239.5 -40t152 -119.5t52.5 -198.5q0 -121 -48 -199t-119 -121.5t-141 -61.5l300 -706h-90l-292 688h-486v-688h-78zM298 770h364q209 0 318.5 70.5t109.5 233.5q0 155 -92.5 223.5t-269.5 68.5h-430v-596zM585 1567l206 291h120l-251 -291h-75z
" />
    <glyph glyph-name="racute" unicode="&#x155;" horiz-adv-x="739" 
d="M180 0v1034h72v-154q27 70 75.5 107.5t104.5 52t105 14.5q31 0 62 -4.5t50 -15.5v-80q-21 10 -55.5 14t-56.5 4q-37 0 -84.5 -10.5t-92 -38t-73.5 -77t-29 -126.5v-720h-78zM344 1155l206 291h120l-251 -291h-75z" />
    <glyph glyph-name="uni0156" unicode="&#x156;" horiz-adv-x="1314" 
d="M220 0v1446h510q140 0 239.5 -40t152 -119.5t52.5 -198.5q0 -121 -48 -199t-119 -121.5t-141 -61.5l300 -706h-90l-292 688h-486v-688h-78zM298 770h364q209 0 318.5 70.5t109.5 233.5q0 155 -92.5 223.5t-269.5 68.5h-430v-596zM567 -320l72 99h-45v121h126v-103
l-104 -117h-49z" />
    <glyph glyph-name="uni0157" unicode="&#x157;" horiz-adv-x="739" 
d="M180 0v1034h72v-154q27 70 75.5 107.5t104.5 52t105 14.5q31 0 62 -4.5t50 -15.5v-80q-21 10 -55.5 14t-56.5 4q-37 0 -84.5 -10.5t-92 -38t-73.5 -77t-29 -126.5v-720h-78zM133 -320l72 99h-45v121h126v-103l-104 -117h-49z" />
    <glyph glyph-name="Rcaron" unicode="&#x158;" horiz-adv-x="1314" 
d="M220 0v1446h510q140 0 239.5 -40t152 -119.5t52.5 -198.5q0 -121 -48 -199t-119 -121.5t-141 -61.5l300 -706h-90l-292 688h-486v-688h-78zM298 770h364q209 0 318.5 70.5t109.5 233.5q0 155 -92.5 223.5t-269.5 68.5h-430v-596zM608 1567l-240 190h114l156 -120l148 120
h120l-234 -190h-64z" />
    <glyph glyph-name="rcaron" unicode="&#x159;" horiz-adv-x="739" 
d="M180 0v1034h72v-154q27 70 75.5 107.5t104.5 52t105 14.5q31 0 62 -4.5t50 -15.5v-80q-21 10 -55.5 14t-56.5 4q-37 0 -84.5 -10.5t-92 -38t-73.5 -77t-29 -126.5v-720h-78zM367 1155l-240 190h114l156 -120l148 120h120l-234 -190h-64z" />
    <glyph glyph-name="Sacute" unicode="&#x15a;" horiz-adv-x="1296" 
d="M657 -20q-102 0 -190 24.5t-158 72t-115.5 117t-61.5 160.5h88q22 -98 86 -164t156 -99t195 -33q116 0 209 38.5t147.5 108.5t54.5 164q0 98 -58.5 166t-199.5 109l-324 94q-87 26 -157 67t-111 108.5t-41 172.5q0 110 60.5 195.5t165.5 134t238 48.5q161 0 268.5 -59.5
t162 -151.5t53.5 -189h-88q-11 122 -70.5 192t-146 100t-182.5 30q-180 0 -278.5 -87t-98.5 -213q0 -112 68.5 -173t189.5 -96l330 -95q117 -33 183 -88.5t93 -123.5t27 -141q0 -109 -59.5 -197.5t-170 -140t-265.5 -51.5zM585 1567l206 291h120l-251 -291h-75z" />
    <glyph glyph-name="sacute" unicode="&#x15b;" horiz-adv-x="970" 
d="M509 -20q-108 0 -193.5 32t-138 98t-64.5 166h83q14 -66 52.5 -115.5t104 -77t156.5 -27.5q125 0 201.5 51.5t76.5 158.5q0 72 -37 115.5t-108 63.5l-246 68q-113 32 -179 90t-66 161q0 87 38.5 152t117 101.5t198.5 36.5q146 0 238.5 -67t99.5 -207h-83
q-10 89 -73.5 143.5t-181.5 54.5q-122 0 -197 -52t-75 -162q0 -70 48.5 -109.5t135.5 -63.5l246 -68q57 -16 96 -42t63.5 -59t35.5 -72t11 -80q0 -87 -39 -152t-118.5 -101.5t-202.5 -36.5zM456 1155l206 291h120l-251 -291h-75z" />
    <glyph glyph-name="Scircumflex" unicode="&#x15c;" horiz-adv-x="1296" 
d="M657 -20q-102 0 -190 24.5t-158 72t-115.5 117t-61.5 160.5h88q22 -98 86 -164t156 -99t195 -33q116 0 209 38.5t147.5 108.5t54.5 164q0 98 -58.5 166t-199.5 109l-324 94q-87 26 -157 67t-111 108.5t-41 172.5q0 110 60.5 195.5t165.5 134t238 48.5q161 0 268.5 -59.5
t162 -151.5t53.5 -189h-88q-11 122 -70.5 192t-146 100t-182.5 30q-180 0 -278.5 -87t-98.5 -213q0 -112 68.5 -173t189.5 -96l330 -95q117 -33 183 -88.5t93 -123.5t27 -141q0 -109 -59.5 -197.5t-170 -140t-265.5 -51.5zM370 1567l238 190h64l234 -190h-120l-148 120
l-156 -120h-112z" />
    <glyph glyph-name="scircumflex" unicode="&#x15d;" horiz-adv-x="970" 
d="M509 -20q-108 0 -193.5 32t-138 98t-64.5 166h83q14 -66 52.5 -115.5t104 -77t156.5 -27.5q125 0 201.5 51.5t76.5 158.5q0 72 -37 115.5t-108 63.5l-246 68q-113 32 -179 90t-66 161q0 87 38.5 152t117 101.5t198.5 36.5q146 0 238.5 -67t99.5 -207h-83
q-10 89 -73.5 143.5t-181.5 54.5q-122 0 -197 -52t-75 -162q0 -70 48.5 -109.5t135.5 -63.5l246 -68q57 -16 96 -42t63.5 -59t35.5 -72t11 -80q0 -87 -39 -152t-118.5 -101.5t-202.5 -36.5zM241 1155l238 190h64l234 -190h-120l-148 120l-156 -120h-112z" />
    <glyph glyph-name="Scedilla" unicode="&#x15e;" horiz-adv-x="1296" 
d="M573 -398q-45 0 -81.5 12t-68.5 34l22 56q21 -19 48 -31.5t72 -12.5q62 0 89 22t27 62q0 47 -36.5 69t-113.5 25q-7 0 -8 2.5t0 5.5l72 164h66l-50 -124q61 -5 95 -26t47.5 -51t13.5 -61q0 -49 -26.5 -81.5t-70.5 -48.5t-97 -16zM657 -20q-102 0 -190 24.5t-158 72
t-115.5 117t-61.5 160.5h88q22 -98 86 -164t156 -99t195 -33q116 0 209 38.5t147.5 108.5t54.5 164q0 98 -58.5 166t-199.5 109l-324 94q-87 26 -157 67t-111 108.5t-41 172.5q0 110 60.5 195.5t165.5 134t238 48.5q161 0 268.5 -59.5t162 -151.5t53.5 -189h-88
q-11 122 -70.5 192t-146 100t-182.5 30q-180 0 -278.5 -87t-98.5 -213q0 -112 68.5 -173t189.5 -96l330 -95q117 -33 183 -88.5t93 -123.5t27 -141q0 -109 -59.5 -197.5t-170 -140t-265.5 -51.5z" />
    <glyph glyph-name="scedilla" unicode="&#x15f;" horiz-adv-x="970" 
d="M431 -398q-45 0 -81.5 12t-68.5 34l22 56q21 -19 48 -31.5t72 -12.5q62 0 89 22t27 62q0 47 -36.5 69t-113.5 25q-7 0 -8 2.5t0 5.5l72 164h66l-50 -124q61 -5 95 -26t47.5 -51t13.5 -61q0 -49 -26.5 -81.5t-70.5 -48.5t-97 -16zM509 -20q-108 0 -193.5 32t-138 98
t-64.5 166h83q14 -66 52.5 -115.5t104 -77t156.5 -27.5q125 0 201.5 51.5t76.5 158.5q0 72 -37 115.5t-108 63.5l-246 68q-113 32 -179 90t-66 161q0 87 38.5 152t117 101.5t198.5 36.5q146 0 238.5 -67t99.5 -207h-83q-10 89 -73.5 143.5t-181.5 54.5q-122 0 -197 -52
t-75 -162q0 -70 48.5 -109.5t135.5 -63.5l246 -68q57 -16 96 -42t63.5 -59t35.5 -72t11 -80q0 -87 -39 -152t-118.5 -101.5t-202.5 -36.5z" />
    <glyph glyph-name="Scaron" unicode="&#x160;" horiz-adv-x="1296" 
d="M657 -20q-102 0 -190 24.5t-158 72t-115.5 117t-61.5 160.5h88q22 -98 86 -164t156 -99t195 -33q116 0 209 38.5t147.5 108.5t54.5 164q0 98 -58.5 166t-199.5 109l-324 94q-87 26 -157 67t-111 108.5t-41 172.5q0 110 60.5 195.5t165.5 134t238 48.5q161 0 268.5 -59.5
t162 -151.5t53.5 -189h-88q-11 122 -70.5 192t-146 100t-182.5 30q-180 0 -278.5 -87t-98.5 -213q0 -112 68.5 -173t189.5 -96l330 -95q117 -33 183 -88.5t93 -123.5t27 -141q0 -109 -59.5 -197.5t-170 -140t-265.5 -51.5zM608 1567l-240 190h114l156 -120l148 120h120
l-234 -190h-64z" />
    <glyph glyph-name="scaron" unicode="&#x161;" horiz-adv-x="970" 
d="M509 -20q-108 0 -193.5 32t-138 98t-64.5 166h83q14 -66 52.5 -115.5t104 -77t156.5 -27.5q125 0 201.5 51.5t76.5 158.5q0 72 -37 115.5t-108 63.5l-246 68q-113 32 -179 90t-66 161q0 87 38.5 152t117 101.5t198.5 36.5q146 0 238.5 -67t99.5 -207h-83
q-10 89 -73.5 143.5t-181.5 54.5q-122 0 -197 -52t-75 -162q0 -70 48.5 -109.5t135.5 -63.5l246 -68q57 -16 96 -42t63.5 -59t35.5 -72t11 -80q0 -87 -39 -152t-118.5 -101.5t-202.5 -36.5zM479 1155l-240 190h114l156 -120l148 120h120l-234 -190h-64z" />
    <glyph glyph-name="uni0162" unicode="&#x162;" horiz-adv-x="1141" 
d="M541 -394q-45 0 -81.5 12t-68.5 34l22 56q21 -19 48 -31.5t72 -12.5q62 0 89 22t27 62q0 47 -36.5 69t-113.5 25q-7 0 -8 2.5t0 5.5l72 164h66l-50 -124q61 -5 95 -26t47.5 -51t13.5 -61q0 -49 -26.5 -81.5t-70.5 -48.5t-97 -16zM551 0v1366h-496v80h1031v-80h-456v-1366
h-79z" />
    <glyph glyph-name="uni0163" unicode="&#x163;" horiz-adv-x="724" 
d="M391 -398q-45 0 -81.5 12t-68.5 34l22 56q21 -19 48 -31.5t72 -12.5q62 0 89 22t27 62q0 47 -36.5 69t-113.5 25q-7 0 -8 2.5t0 5.5l72 164h66l-50 -124q61 -5 95 -26t47.5 -51t13.5 -61q0 -49 -26.5 -81.5t-70.5 -48.5t-97 -16zM493 0q-78 0 -121.5 23.5t-61 74.5
t-17.5 134v734h-168v68h168l16 290h63v-290h237v-68h-237v-734q0 -72 12.5 -104.5t47 -41t99.5 -8.5h88v-68q-19 -6 -53.5 -8t-72.5 -2z" />
    <glyph glyph-name="Tcaron" unicode="&#x164;" horiz-adv-x="1141" 
d="M551 0v1366h-496v80h1031v-80h-456v-1366h-79zM563 1567l-240 190h114l156 -120l148 120h120l-234 -190h-64z" />
    <glyph glyph-name="tcaron" unicode="&#x165;" horiz-adv-x="790" 
d="M493 0q-78 0 -121.5 23.5t-61 74.5t-17.5 134v734h-168v68h168l16 290h63v-290h237v-68h-237v-734q0 -72 12.5 -104.5t47 -41t99.5 -8.5h88v-68q-19 -6 -53.5 -8t-72.5 -2zM470 1146l71 166l-38 8v166h106v-174l-72 -166h-67z" />
    <glyph glyph-name="Tbar" unicode="&#x166;" horiz-adv-x="1141" 
d="M214 702v82h714v-82h-714zM551 0v1366h-496v80h1031v-80h-456v-1366h-79z" />
    <glyph glyph-name="tbar" unicode="&#x167;" horiz-adv-x="724" 
d="M125 586v68h483v-68h-483zM493 0q-78 0 -121.5 23.5t-61 74.5t-17.5 134v734h-168v68h168l16 290h63v-290h237v-68h-237v-734q0 -72 12.5 -104.5t47 -41t99.5 -8.5h88v-68q-19 -6 -53.5 -8t-72.5 -2z" />
    <glyph glyph-name="Utilde" unicode="&#x168;" horiz-adv-x="1354" 
d="M698 -20q-164 0 -270 53.5t-157 164t-51 280.5v968h86v-1002q0 -189 96.5 -288.5t295.5 -99.5q134 0 223.5 43.5t134 130t44.5 214.5v1002h78v-998q0 -157 -53 -261t-159.5 -155.5t-267.5 -51.5zM470 1660l-24 66q30 24 62 41t78 17q43 0 79.5 -12.5l73 -25t79.5 -12.5
q38 0 62 11t52 31l28 -70q-21 -13 -53 -29.5t-91 -16.5q-51 0 -85.5 12t-65.5 24t-71 12q-48 0 -74.5 -17t-49.5 -31z" />
    <glyph glyph-name="utilde" unicode="&#x169;" horiz-adv-x="1132" 
d="M560 -20q-90 1 -163.5 24t-126.5 68t-81.5 113.5t-28.5 160.5v688h78v-688q0 -130 77.5 -210t239.5 -80q143 0 231 75t88 231v672h78v-1034h-72l-6 190q-18 -64 -59.5 -111.5t-105 -73.5t-149.5 -25zM328 1248l-24 66q30 24 62 41t78 17q43 0 79.5 -12.5l73 -25
t79.5 -12.5q38 0 62 11t52 31l28 -70q-21 -13 -53 -29.5t-91 -16.5q-51 0 -85.5 12t-65.5 24t-71 12q-48 0 -74.5 -17t-49.5 -31z" />
    <glyph glyph-name="Umacron" unicode="&#x16a;" horiz-adv-x="1354" 
d="M698 -20q-164 0 -270 53.5t-157 164t-51 280.5v968h86v-1002q0 -189 96.5 -288.5t295.5 -99.5q134 0 223.5 43.5t134 130t44.5 214.5v1002h78v-998q0 -157 -53 -261t-159.5 -155.5t-267.5 -51.5zM456 1677v74h490v-74h-490z" />
    <glyph glyph-name="umacron" unicode="&#x16b;" horiz-adv-x="1132" 
d="M560 -20q-90 1 -163.5 24t-126.5 68t-81.5 113.5t-28.5 160.5v688h78v-688q0 -130 77.5 -210t239.5 -80q143 0 231 75t88 231v672h78v-1034h-72l-6 190q-18 -64 -59.5 -111.5t-105 -73.5t-149.5 -25zM314 1265v74h490v-74h-490z" />
    <glyph glyph-name="Ubreve" unicode="&#x16c;" horiz-adv-x="1354" 
d="M698 -20q-164 0 -270 53.5t-157 164t-51 280.5v968h86v-1002q0 -189 96.5 -288.5t295.5 -99.5q134 0 223.5 43.5t134 130t44.5 214.5v1002h78v-998q0 -157 -53 -261t-159.5 -155.5t-267.5 -51.5zM699 1563q-63 0 -116 21t-88.5 61t-48.5 96h84q18 -46 62.5 -75.5
t106.5 -29.5t109 29.5t66 75.5h83q-13 -53 -47.5 -93t-88 -62.5t-122.5 -22.5z" />
    <glyph glyph-name="ubreve" unicode="&#x16d;" horiz-adv-x="1132" 
d="M560 -20q-90 1 -163.5 24t-126.5 68t-81.5 113.5t-28.5 160.5v688h78v-688q0 -130 77.5 -210t239.5 -80q143 0 231 75t88 231v672h78v-1034h-72l-6 190q-18 -64 -59.5 -111.5t-105 -73.5t-149.5 -25zM557 1151q-63 0 -116 21t-88.5 61t-48.5 96h84q18 -46 62.5 -75.5
t106.5 -29.5t109 29.5t66 75.5h83q-13 -53 -47.5 -93t-88 -62.5t-122.5 -22.5z" />
    <glyph glyph-name="Uring" unicode="&#x16e;" horiz-adv-x="1354" 
d="M698 -20q-164 0 -270 53.5t-157 164t-51 280.5v968h86v-1002q0 -189 96.5 -288.5t295.5 -99.5q134 0 223.5 43.5t134 130t44.5 214.5v1002h78v-998q0 -157 -53 -261t-159.5 -155.5t-267.5 -51.5zM702 1584q-81 0 -137.5 57t-56.5 141q0 78 57.5 133t136.5 55
q55 0 99.5 -25.5t70.5 -69t26 -97.5q0 -82 -56.5 -138t-139.5 -56zM700 1662q48 0 81 35t33 81q0 51 -33 82.5t-81 31.5q-45 0 -79.5 -31.5t-34.5 -82.5q0 -46 34.5 -81t79.5 -35z" />
    <glyph glyph-name="uring" unicode="&#x16f;" horiz-adv-x="1132" 
d="M560 -20q-90 1 -163.5 24t-126.5 68t-81.5 113.5t-28.5 160.5v688h78v-688q0 -130 77.5 -210t239.5 -80q143 0 231 75t88 231v672h78v-1034h-72l-6 190q-18 -64 -59.5 -111.5t-105 -73.5t-149.5 -25zM560 1172q-81 0 -137.5 57t-56.5 141q0 78 57.5 133t136.5 55
q55 0 99.5 -25.5t70.5 -69t26 -97.5q0 -82 -56.5 -138t-139.5 -56zM558 1250q48 0 81 35t33 81q0 51 -33 82.5t-81 31.5q-45 0 -79.5 -31.5t-34.5 -82.5q0 -46 34.5 -81t79.5 -35z" />
    <glyph glyph-name="Uhungarumlaut" unicode="&#x170;" horiz-adv-x="1354" 
d="M698 -20q-164 0 -270 53.5t-157 164t-51 280.5v968h86v-1002q0 -189 96.5 -288.5t295.5 -99.5q134 0 223.5 43.5t134 130t44.5 214.5v1002h78v-998q0 -157 -53 -261t-159.5 -155.5t-267.5 -51.5zM775 1567l226 291h120l-271 -291h-75zM570 1567l191 291h120l-236 -291
h-75z" />
    <glyph glyph-name="uhungarumlaut" unicode="&#x171;" horiz-adv-x="1132" 
d="M560 -20q-90 1 -163.5 24t-126.5 68t-81.5 113.5t-28.5 160.5v688h78v-688q0 -130 77.5 -210t239.5 -80q143 0 231 75t88 231v672h78v-1034h-72l-6 190q-18 -64 -59.5 -111.5t-105 -73.5t-149.5 -25zM633 1155l226 291h120l-271 -291h-75zM428 1155l191 291h120
l-236 -291h-75z" />
    <glyph glyph-name="Uogonek" unicode="&#x172;" horiz-adv-x="1354" 
d="M744 -334q-93 0 -135.5 43t-42.5 109q0 65 46.5 113.5t169.5 84.5l66 -18q-97 -45 -146.5 -86t-49.5 -98q0 -40 26 -61t86 -21q50 0 89.5 11.5t52.5 18.5v-62q-22 -12 -66.5 -23t-95.5 -11zM698 -20q-164 0 -270 53.5t-157 164t-51 280.5v968h86v-1002
q0 -189 96.5 -288.5t295.5 -99.5q134 0 223.5 43.5t134 130t44.5 214.5v1002h78v-998q0 -157 -53 -261t-159.5 -155.5t-267.5 -51.5z" />
    <glyph glyph-name="uogonek" unicode="&#x173;" horiz-adv-x="1132" 
d="M560 -20q-90 1 -163.5 24t-126.5 68t-81.5 113.5t-28.5 160.5v688h78v-688q0 -130 77.5 -210t239.5 -80q143 0 231 75t88 231v672h78v-1034h-72l-6 190q-18 -64 -59.5 -111.5t-105 -73.5t-149.5 -25zM840 -330q-93 0 -135.5 43t-42.5 109q0 65 46.5 113.5t169.5 84.5
l66 -18q-97 -45 -146.5 -86t-49.5 -98q0 -40 26 -61t86 -21q50 0 89.5 11.5t52.5 18.5v-62q-22 -12 -66.5 -23t-95.5 -11z" />
    <glyph glyph-name="Wcircumflex" unicode="&#x174;" horiz-adv-x="1877" 
d="M461 0l-406 1446h87l371 -1348l383 1348h79l377 -1348l384 1348h86l-416 -1446h-109l-363 1296l-370 -1296h-103zM668 1567l238 190h64l234 -190h-120l-148 120l-156 -120h-112z" />
    <glyph glyph-name="wcircumflex" unicode="&#x175;" horiz-adv-x="1542" 
d="M379 0l-304 1034h84l276 -948h24l276 948h71l292 -944h25l262 944h82l-287 -1034h-131l-278 900l-257 -900h-135zM511 1155l238 190h64l234 -190h-120l-148 120l-156 -120h-112z" />
    <glyph glyph-name="Ycircumflex" unicode="&#x176;" horiz-adv-x="1094" 
d="M513 0v624l-485 822h88l436 -744l428 744h86l-476 -824v-622h-77zM280 1571l238 190h64l234 -190h-120l-148 120l-156 -120h-112z" />
    <glyph glyph-name="ycircumflex" unicode="&#x177;" horiz-adv-x="1014" 
d="M225 -330q-76 0 -100 8l-24 8v54h109q48 0 83 10t59.5 27t40.5 40.5t27 50.5l53 138l-405 1028h84l363 -922l355 922h76l-452 -1184q-26 -65 -65 -104.5t-90.5 -57.5t-113.5 -18zM247 1155l238 190h64l234 -190h-120l-148 120l-156 -120h-112z" />
    <glyph glyph-name="Ydieresis" unicode="&#x178;" horiz-adv-x="1094" 
d="M513 0v624l-485 822h88l436 -744l428 744h86l-476 -824v-622h-77zM660 1742v120h88v-120h-88zM348 1742v120h88v-120h-88z" />
    <glyph glyph-name="Zacute" unicode="&#x179;" horiz-adv-x="1208" 
d="M147 0v62l850 1306h-832v78h933v-60l-853 -1308h853v-78h-951zM580 1567l206 291h120l-251 -291h-75z" />
    <glyph glyph-name="zacute" unicode="&#x17a;" horiz-adv-x="930" 
d="M90 0v68l657 898h-633v68h719v-68l-655 -898h662v-68h-750zM426 1155l206 291h120l-251 -291h-75z" />
    <glyph glyph-name="Zdotaccent" unicode="&#x17b;" horiz-adv-x="1208" 
d="M147 0v62l850 1306h-832v78h933v-60l-853 -1308h853v-78h-951zM585 1738v120h96v-120h-96z" />
    <glyph glyph-name="zdotaccent" unicode="&#x17c;" horiz-adv-x="930" 
d="M90 0v68l657 898h-633v68h719v-68l-655 -898h662v-68h-750zM431 1326v120h96v-120h-96z" />
    <glyph glyph-name="Zcaron" unicode="&#x17d;" horiz-adv-x="1208" 
d="M147 0v62l850 1306h-832v78h933v-60l-853 -1308h853v-78h-951zM603 1567l-240 190h114l156 -120l148 120h120l-234 -190h-64z" />
    <glyph glyph-name="zcaron" unicode="&#x17e;" horiz-adv-x="930" 
d="M90 0v68l657 898h-633v68h719v-68l-655 -898h662v-68h-750zM449 1155l-240 190h114l156 -120l148 120h120l-234 -190h-64z" />
    <glyph glyph-name="uni018F" unicode="&#x18f;" horiz-adv-x="1413" 
d="M711 -20q-182 0 -314 85.5t-203 255t-71 421.5h1082q0 303 -125 471.5t-369 168.5q-122 0 -214.5 -38.5t-155 -100.5t-94 -133.5t-31.5 -137.5h-96q0 80 41 166t118 160.5t186 121t246 46.5q183 0 313 -89.5t199.5 -256.5t69.5 -400q0 -240 -69.5 -405t-199.5 -250
t-313 -85zM711 64q163 0 271.5 78.5t164 213.5t58.5 304h-988q0 -170 56 -305t166 -213t272 -78z" />
    <glyph glyph-name="florin" unicode="&#x192;" horiz-adv-x="786" 
d="M-220 -332l10 66l112 2q78 2 118 41.5t56 132.5l184 1056h-166l12 68h166l30 172q21 120 88 180t176 60h150l-10 -68h-160q-63 0 -106.5 -44.5t-57.5 -119.5l-32 -180h286l-12 -68h-286l-182 -1046q-21 -120 -85 -186t-181 -66h-110z" />
    <glyph glyph-name="Ohorn" unicode="&#x1a0;" horiz-adv-x="1472" 
d="M710 -20q-182 0 -314.5 84.5t-204 249.5t-71.5 406q0 243 71.5 409t204 251.5t314.5 85.5q135 0 242 -46.5t182 -138.5q34 2 57.5 13.5t38 33.5t22 57t8.5 85h102q0 -79 -20 -134.5t-59.5 -86.5t-99.5 -38q54 -91 82.5 -214t28.5 -277q0 -241 -70 -405.5t-201 -249.5
t-313 -85zM710 62q162 0 272.5 72t167 218.5t56.5 367.5q0 224 -57.5 371t-168 220t-270.5 73t-272 -73.5t-171 -221t-59 -369.5t59 -368t171 -218t272 -72z" />
    <glyph glyph-name="ohorn" unicode="&#x1a1;" horiz-adv-x="1124" 
d="M558 -20q-134 0 -235 58t-157 176.5t-56 299.5q0 162 48.5 283.5t148 189t251.5 67.5q98 0 178 -31.5t138 -95.5q39 6 62 26t34 59.5t12 101.5h102q0 -75 -17.5 -129t-53.5 -85.5t-90 -41.5q77 -131 77 -344q0 -160 -48 -280t-145.5 -187t-248.5 -67zM558 54
q109 0 190 50t126 152t45 258q0 139 -39 243.5t-119 162.5t-203 58q-110 0 -192.5 -50t-128 -153t-45.5 -261q0 -138 39.5 -241.5t121 -161t205.5 -57.5z" />
    <glyph glyph-name="Uhorn" unicode="&#x1af;" horiz-adv-x="1520" 
d="M698 -20q-164 0 -270 53.5t-157 164t-51 280.5v968h86v-1002q0 -189 96.5 -288.5t295.5 -99.5q134 0 223.5 43.5t134 130t44.5 214.5v1002h78v-165q45 4 71 23t38.5 59.5t14.5 106.5h102q0 -89 -25 -148t-75 -86.5t-126 -25.5v-762q0 -157 -53 -261t-159.5 -155.5
t-267.5 -51.5z" />
    <glyph glyph-name="uhorn" unicode="&#x1b0;" horiz-adv-x="1188" 
d="M560 -20q-90 1 -163.5 24t-126.5 68t-81.5 113.5t-28.5 160.5v688h78v-688q0 -130 77.5 -210t239.5 -80q143 0 231 75t88 231v672h78v-110q49 2 77.5 21t41.5 60t15 109h102q0 -91 -26 -150.5t-78 -86.5t-132 -23v-854h-72l-6 190q-18 -64 -59.5 -111.5t-105 -73.5
t-149.5 -25z" />
    <glyph glyph-name="uni01D4" unicode="&#x1d4;" horiz-adv-x="1132" 
d="M560 -20q-90 1 -163.5 24t-126.5 68t-81.5 113.5t-28.5 160.5v688h78v-688q0 -130 77.5 -210t239.5 -80q143 0 231 75t88 231v672h78v-1034h-72l-6 190q-18 -64 -59.5 -111.5t-105 -73.5t-149.5 -25zM530 1155l-240 190h114l156 -120l148 120h120l-234 -190h-64z" />
    <glyph glyph-name="uni01EA" unicode="&#x1ea;" horiz-adv-x="1414" 
d="M754 -334q-93 0 -135.5 43t-42.5 109q0 65 46.5 113.5t169.5 84.5l66 -18q-97 -45 -146.5 -86t-49.5 -98q0 -40 26 -61t86 -21q50 0 89.5 11.5t52.5 18.5v-62q-22 -12 -66.5 -23t-95.5 -11zM710 -20q-182 0 -314.5 84.5t-204 249.5t-71.5 406q0 243 71.5 409t204 251.5
t314.5 85.5t313 -85t201 -251t70 -410q0 -241 -70 -405.5t-201 -249.5t-313 -85zM710 62q162 0 272.5 72t167 218.5t56.5 367.5q0 224 -57.5 371t-168 220t-270.5 73t-272 -73.5t-171 -221t-59 -369.5t59 -368t171 -218t272 -72z" />
    <glyph glyph-name="uni01EB" unicode="&#x1eb;" horiz-adv-x="1110" 
d="M617 -326q-93 0 -135.5 43t-42.5 109q0 65 46.5 113.5t169.5 84.5l66 -18q-97 -45 -146.5 -86t-49.5 -98q0 -40 26 -61t86 -21q50 0 89.5 11.5t52.5 18.5v-62q-22 -12 -66.5 -23t-95.5 -11zM558 -20q-134 0 -235 58t-157 176.5t-56 299.5q0 162 48.5 283.5t148 189
t251.5 67.5q133 0 232 -58.5t154.5 -178t55.5 -303.5q0 -160 -48 -280t-145.5 -187t-248.5 -67zM558 54q109 0 190 50t126 152t45 258q0 139 -39 243.5t-119 162.5t-203 58q-110 0 -192.5 -50t-128 -153t-45.5 -261q0 -138 39.5 -241.5t121 -161t205.5 -57.5z" />
    <glyph glyph-name="Aringacute" unicode="&#x1fa;" horiz-adv-x="1388" 
d="M810 1880l-57 -133q59 -19 97 -68.5t38 -114.5q0 -84 -56.5 -140t-139.5 -56q-82 0 -138 57.5t-56 142.5q0 74 51 127t125 60l30 125h106zM690 1446q48 0 81 35.5t33 80.5q0 51 -33 83.5t-81 32.5q-45 0 -79.5 -32.5t-34.5 -83.5q0 -45 34.5 -80.5t79.5 -35.5zM110 0
l529 1446h111l528 -1446h-86l-167 456h-664l-167 -456h-84zM392 542h602l-301 823z" />
    <glyph glyph-name="aringacute" unicode="&#x1fb;" 
d="M660 1492l-57 -133q59 -19 97 -68.5t38 -114.5q0 -84 -56.5 -140t-139.5 -56q-82 0 -138 57.5t-56 142.5q0 74 51 127t125 60l30 125h106zM540 1058q48 0 81 35.5t33 80.5q0 51 -33 83.5t-81 32.5q-45 0 -79.5 -32.5t-34.5 -83.5q0 -45 34.5 -80.5t79.5 -35.5zM453 -20
q-102 0 -176.5 34.5t-115 98t-40.5 151.5q0 174 112.5 253.5t369.5 88.5l239 8v100q0 119 -72.5 191.5t-223.5 72.5q-115 0 -193 -53.5t-95 -166.5h-84q6 89 48.5 155.5t124.5 103.5t203 37q111 0 194 -36.5t129 -111.5t46 -190v-716h-72l-3 210q-67 -129 -172 -179.5
t-219 -50.5zM466 54q65 0 131 23.5t121.5 64t89.5 90.5t34 102v202l-201 -4q-165 -3 -260.5 -31t-136.5 -84.5t-41 -146.5q0 -102 72 -159t191 -57z" />
    <glyph glyph-name="AEacute" unicode="&#x1fc;" horiz-adv-x="1817" 
d="M0 0l826 1446h828v-78h-694v-598h642v-78h-642v-614h722v-78h-810v464h-522l-266 -464h-84zM388 542h484v828zM1181 1567l206 291h120l-251 -291h-75z" />
    <glyph glyph-name="aeacute" unicode="&#x1fd;" horiz-adv-x="1829" 
d="M453 -20q-102 0 -176.5 34.5t-115 98t-40.5 151.5q0 174 112.5 254t369.5 88l239 8v100q0 125 -82.5 194.5t-213.5 69.5q-113 0 -192.5 -56.5t-95.5 -163.5h-84q5 73 48 141t125.5 111.5t202.5 43.5q132 0 225 -59t127 -165q55 108 152 166t230 58q134 0 228.5 -59
t145 -170.5t50.5 -270.5v-56h-787q0 -117 39 -217.5t122 -162.5t214 -62q123 0 210 59t105 161h85q-20 -100 -80 -166t-143.5 -98t-176.5 -32q-144 0 -252.5 69.5t-161.5 200.5q-21 -82 -88 -142.5t-157 -94t-184 -33.5zM466 54q115 0 198 53t128 129.5t45 146.5l-1 153
l-195 -4q-165 -3 -260.5 -31t-136.5 -84.5t-41 -146.5q0 -102 72 -159t191 -57zM923 574h702q0 115 -37 206.5t-113 144.5t-193 53q-127 0 -206.5 -60.5t-116.5 -153.5t-36 -190zM850 1155l206 291h120l-251 -291h-75z" />
    <glyph glyph-name="Oslashacute" unicode="&#x1fe;" horiz-adv-x="1450" 
d="M140 -26l-70 64l174 202q-52 89 -79 208.5t-27 267.5q0 244 71 411t202.5 253t314.5 86q134 0 240 -45.5t182 -134.5l160 184l72 -62l-176 -204q53 -91 80.5 -212.5t27.5 -271.5q0 -241 -70.5 -406t-202.5 -249.5t-315 -84.5q-135 0 -241.5 45t-180.5 133zM728 64
q242 0 363 161.5t121 494.5q0 128 -18 230.5t-54 181.5l-780 -904q125 -164 368 -164zM308 314l780 904q-61 83 -151.5 123.5t-210.5 40.5q-241 0 -365.5 -164.5t-124.5 -497.5q0 -126 18 -227t54 -179zM673 1567l206 291h120l-251 -291h-75z" />
    <glyph glyph-name="oslashacute" unicode="&#x1ff;" horiz-adv-x="1120" 
d="M84 -8l-54 56l1006 990l54 -56zM548 -20q-134 0 -235 58t-157 176.5t-56 299.5q0 162 48.5 283.5t148 189t251.5 67.5q133 0 232 -58.5t154.5 -178t55.5 -303.5q0 -160 -48 -280t-145.5 -187t-248.5 -67zM548 54q109 0 190 50t126 152t45 258q0 139 -39 243.5t-119 162.5
t-203 58q-110 0 -192.5 -50t-128 -153t-45.5 -261q0 -138 39.5 -241.5t121 -161t205.5 -57.5zM509 1155l206 291h120l-251 -291h-75z" />
    <glyph glyph-name="uni0200" unicode="&#x200;" horiz-adv-x="1388" 
d="M110 0l529 1446h111l528 -1446h-86l-167 456h-664l-167 -456h-84zM392 542h602l-301 823zM554 1567l-271 291h120l226 -291h-75zM759 1567l-236 291h120l191 -291h-75z" />
    <glyph glyph-name="uni0201" unicode="&#x201;" 
d="M453 -20q-102 0 -176.5 34.5t-115 98t-40.5 151.5q0 174 112.5 253.5t369.5 88.5l239 8v100q0 119 -72.5 191.5t-223.5 72.5q-115 0 -193 -53.5t-95 -166.5h-84q6 89 48.5 155.5t124.5 103.5t203 37q111 0 194 -36.5t129 -111.5t46 -190v-716h-72l-3 210
q-67 -129 -172 -179.5t-219 -50.5zM466 54q65 0 131 23.5t121.5 64t89.5 90.5t34 102v202l-201 -4q-165 -3 -260.5 -31t-136.5 -84.5t-41 -146.5q0 -102 72 -159t191 -57zM409 1155l-271 291h120l226 -291h-75zM614 1155l-236 291h120l191 -291h-75z" />
    <glyph glyph-name="uni0202" unicode="&#x202;" horiz-adv-x="1388" 
d="M110 0l529 1446h111l528 -1446h-86l-167 456h-664l-167 -456h-84zM392 542h602l-301 823zM432 1647q13 57 48.5 96.5t88.5 60.5t116 21q69 0 122.5 -22.5t88.5 -62.5t47 -93h-83q-19 46 -66 75.5t-109 29.5t-106.5 -29.5t-62.5 -75.5h-84z" />
    <glyph glyph-name="uni0203" unicode="&#x203;" 
d="M453 -20q-102 0 -176.5 34.5t-115 98t-40.5 151.5q0 174 112.5 253.5t369.5 88.5l239 8v100q0 119 -72.5 191.5t-223.5 72.5q-115 0 -193 -53.5t-95 -166.5h-84q6 89 48.5 155.5t124.5 103.5t203 37q111 0 194 -36.5t129 -111.5t46 -190v-716h-72l-3 210
q-67 -129 -172 -179.5t-219 -50.5zM466 54q65 0 131 23.5t121.5 64t89.5 90.5t34 102v202l-201 -4q-165 -3 -260.5 -31t-136.5 -84.5t-41 -146.5q0 -102 72 -159t191 -57zM287 1235q13 57 48.5 96.5t88.5 60.5t116 21q69 0 122.5 -22.5t88.5 -62.5t47 -93h-83
q-19 46 -66 75.5t-109 29.5t-106.5 -29.5t-62.5 -75.5h-84z" />
    <glyph glyph-name="uni0204" unicode="&#x204;" horiz-adv-x="1213" 
d="M220 0v1446h830v-80h-752v-594h700v-82h-700v-606l780 -2v-82h-858zM500 1567l-271 291h120l226 -291h-75zM705 1567l-236 291h120l191 -291h-75z" />
    <glyph glyph-name="uni0205" unicode="&#x205;" horiz-adv-x="1114" 
d="M581 -20q-136 0 -239.5 61.5t-162 179.5t-58.5 287q0 171 52.5 293.5t153 187.5t242.5 65q134 0 228.5 -59t145 -170.5t50.5 -270.5v-56h-787q0 -117 39 -217.5t122 -162.5t214 -62q123 0 210 59t105 161h85q-20 -100 -80 -166t-143.5 -98t-176.5 -32zM208 574h702
q0 115 -37 206.5t-113 144.5t-193 53q-127 0 -206.5 -60.5t-116.5 -153.5t-36 -190zM429 1155l-271 291h120l226 -291h-75zM634 1155l-236 291h120l191 -291h-75z" />
    <glyph glyph-name="uni0206" unicode="&#x206;" horiz-adv-x="1213" 
d="M220 0v1446h830v-80h-752v-594h700v-82h-700v-606l780 -2v-82h-858zM378 1647q13 57 48.5 96.5t88.5 60.5t116 21q69 0 122.5 -22.5t88.5 -62.5t47 -93h-83q-19 46 -66 75.5t-109 29.5t-106.5 -29.5t-62.5 -75.5h-84z" />
    <glyph glyph-name="uni0207" unicode="&#x207;" horiz-adv-x="1114" 
d="M581 -20q-136 0 -239.5 61.5t-162 179.5t-58.5 287q0 171 52.5 293.5t153 187.5t242.5 65q134 0 228.5 -59t145 -170.5t50.5 -270.5v-56h-787q0 -117 39 -217.5t122 -162.5t214 -62q123 0 210 59t105 161h85q-20 -100 -80 -166t-143.5 -98t-176.5 -32zM208 574h702
q0 115 -37 206.5t-113 144.5t-193 53q-127 0 -206.5 -60.5t-116.5 -153.5t-36 -190zM307 1235q13 57 48.5 96.5t88.5 60.5t116 21q69 0 122.5 -22.5t88.5 -62.5t47 -93h-83q-19 46 -66 75.5t-109 29.5t-106.5 -29.5t-62.5 -75.5h-84z" />
    <glyph glyph-name="uni0208" unicode="&#x208;" horiz-adv-x="518" 
d="M220 0v1446h78v-1446h-78zM120 1567l-271 291h120l226 -291h-75zM325 1567l-236 291h120l191 -291h-75z" />
    <glyph glyph-name="uni0209" unicode="&#x209;" horiz-adv-x="438" 
d="M180 0v1034h78v-1034h-78zM78 1155l-271 291h120l226 -291h-75zM283 1155l-236 291h120l191 -291h-75z" />
    <glyph glyph-name="uni020A" unicode="&#x20a;" horiz-adv-x="518" 
d="M220 0v1446h78v-1446h-78zM-2 1647q13 57 48.5 96.5t88.5 60.5t116 21q69 0 122.5 -22.5t88.5 -62.5t47 -93h-83q-19 46 -66 75.5t-109 29.5t-106.5 -29.5t-62.5 -75.5h-84z" />
    <glyph glyph-name="uni020B" unicode="&#x20b;" horiz-adv-x="438" 
d="M180 0v1034h78v-1034h-78zM-44 1235q13 57 48.5 96.5t88.5 60.5t116 21q69 0 122.5 -22.5t88.5 -62.5t47 -93h-83q-19 46 -66 75.5t-109 29.5t-106.5 -29.5t-62.5 -75.5h-84z" />
    <glyph glyph-name="uni020C" unicode="&#x20c;" horiz-adv-x="1414" 
d="M710 -20q-182 0 -314.5 84.5t-204 249.5t-71.5 406q0 243 71.5 409t204 251.5t314.5 85.5t313 -85t201 -251t70 -410q0 -241 -70 -405.5t-201 -249.5t-313 -85zM710 62q162 0 272.5 72t167 218.5t56.5 367.5q0 224 -57.5 371t-168 220t-270.5 73t-272 -73.5t-171 -221
t-59 -369.5t59 -368t171 -218t272 -72zM572 1567l-271 291h120l226 -291h-75zM777 1567l-236 291h120l191 -291h-75z" />
    <glyph glyph-name="uni020D" unicode="&#x20d;" horiz-adv-x="1110" 
d="M558 -20q-134 0 -235 58t-157 176.5t-56 299.5q0 162 48.5 283.5t148 189t251.5 67.5q133 0 232 -58.5t154.5 -178t55.5 -303.5q0 -160 -48 -280t-145.5 -187t-248.5 -67zM558 54q109 0 190 50t126 152t45 258q0 139 -39 243.5t-119 162.5t-203 58q-110 0 -192.5 -50
t-128 -153t-45.5 -261q0 -138 39.5 -241.5t121 -161t205.5 -57.5zM416 1155l-271 291h120l226 -291h-75zM621 1155l-236 291h120l191 -291h-75z" />
    <glyph glyph-name="uni020E" unicode="&#x20e;" horiz-adv-x="1414" 
d="M710 -20q-182 0 -314.5 84.5t-204 249.5t-71.5 406q0 243 71.5 409t204 251.5t314.5 85.5t313 -85t201 -251t70 -410q0 -241 -70 -405.5t-201 -249.5t-313 -85zM710 62q162 0 272.5 72t167 218.5t56.5 367.5q0 224 -57.5 371t-168 220t-270.5 73t-272 -73.5t-171 -221
t-59 -369.5t59 -368t171 -218t272 -72zM450 1647q13 57 48.5 96.5t88.5 60.5t116 21q69 0 122.5 -22.5t88.5 -62.5t47 -93h-83q-19 46 -66 75.5t-109 29.5t-106.5 -29.5t-62.5 -75.5h-84z" />
    <glyph glyph-name="uni020F" unicode="&#x20f;" horiz-adv-x="1110" 
d="M558 -20q-134 0 -235 58t-157 176.5t-56 299.5q0 162 48.5 283.5t148 189t251.5 67.5q133 0 232 -58.5t154.5 -178t55.5 -303.5q0 -160 -48 -280t-145.5 -187t-248.5 -67zM558 54q109 0 190 50t126 152t45 258q0 139 -39 243.5t-119 162.5t-203 58q-110 0 -192.5 -50
t-128 -153t-45.5 -261q0 -138 39.5 -241.5t121 -161t205.5 -57.5zM294 1235q13 57 48.5 96.5t88.5 60.5t116 21q69 0 122.5 -22.5t88.5 -62.5t47 -93h-83q-19 46 -66 75.5t-109 29.5t-106.5 -29.5t-62.5 -75.5h-84z" />
    <glyph glyph-name="uni0210" unicode="&#x210;" horiz-adv-x="1314" 
d="M220 0v1446h510q140 0 239.5 -40t152 -119.5t52.5 -198.5q0 -121 -48 -199t-119 -121.5t-141 -61.5l300 -706h-90l-292 688h-486v-688h-78zM298 770h364q209 0 318.5 70.5t109.5 233.5q0 155 -92.5 223.5t-269.5 68.5h-430v-596zM498 1567l-271 291h120l226 -291h-75z
M703 1567l-236 291h120l191 -291h-75z" />
    <glyph glyph-name="uni0211" unicode="&#x211;" horiz-adv-x="739" 
d="M180 0v1034h72v-154q27 70 75.5 107.5t104.5 52t105 14.5q31 0 62 -4.5t50 -15.5v-80q-21 10 -55.5 14t-56.5 4q-37 0 -84.5 -10.5t-92 -38t-73.5 -77t-29 -126.5v-720h-78zM257 1155l-271 291h120l226 -291h-75zM462 1155l-236 291h120l191 -291h-75z" />
    <glyph glyph-name="uni0212" unicode="&#x212;" horiz-adv-x="1314" 
d="M220 0v1446h510q140 0 239.5 -40t152 -119.5t52.5 -198.5q0 -121 -48 -199t-119 -121.5t-141 -61.5l300 -706h-90l-292 688h-486v-688h-78zM298 770h364q209 0 318.5 70.5t109.5 233.5q0 155 -92.5 223.5t-269.5 68.5h-430v-596zM376 1647q13 57 48.5 96.5t88.5 60.5
t116 21q69 0 122.5 -22.5t88.5 -62.5t47 -93h-83q-19 46 -66 75.5t-109 29.5t-106.5 -29.5t-62.5 -75.5h-84z" />
    <glyph glyph-name="uni0213" unicode="&#x213;" horiz-adv-x="739" 
d="M180 0v1034h72v-154q27 70 75.5 107.5t104.5 52t105 14.5q31 0 62 -4.5t50 -15.5v-80q-21 10 -55.5 14t-56.5 4q-37 0 -84.5 -10.5t-92 -38t-73.5 -77t-29 -126.5v-720h-78zM135 1235q13 57 48.5 96.5t88.5 60.5t116 21q69 0 122.5 -22.5t88.5 -62.5t47 -93h-83
q-19 46 -66 75.5t-109 29.5t-106.5 -29.5t-62.5 -75.5h-84z" />
    <glyph glyph-name="uni0214" unicode="&#x214;" horiz-adv-x="1354" 
d="M698 -20q-164 0 -270 53.5t-157 164t-51 280.5v968h86v-1002q0 -189 96.5 -288.5t295.5 -99.5q134 0 223.5 43.5t134 130t44.5 214.5v1002h78v-998q0 -157 -53 -261t-159.5 -155.5t-267.5 -51.5zM562 1567l-271 291h120l226 -291h-75zM767 1567l-236 291h120l191 -291
h-75z" />
    <glyph glyph-name="uni0215" unicode="&#x215;" horiz-adv-x="1132" 
d="M560 -20q-90 1 -163.5 24t-126.5 68t-81.5 113.5t-28.5 160.5v688h78v-688q0 -130 77.5 -210t239.5 -80q143 0 231 75t88 231v672h78v-1034h-72l-6 190q-18 -64 -59.5 -111.5t-105 -73.5t-149.5 -25zM420 1155l-271 291h120l226 -291h-75zM625 1155l-236 291h120
l191 -291h-75z" />
    <glyph glyph-name="uni0216" unicode="&#x216;" horiz-adv-x="1354" 
d="M698 -20q-164 0 -270 53.5t-157 164t-51 280.5v968h86v-1002q0 -189 96.5 -288.5t295.5 -99.5q134 0 223.5 43.5t134 130t44.5 214.5v1002h78v-998q0 -157 -53 -261t-159.5 -155.5t-267.5 -51.5zM440 1647q13 57 48.5 96.5t88.5 60.5t116 21q69 0 122.5 -22.5t88.5 -62.5
t47 -93h-83q-19 46 -66 75.5t-109 29.5t-106.5 -29.5t-62.5 -75.5h-84z" />
    <glyph glyph-name="uni0217" unicode="&#x217;" horiz-adv-x="1132" 
d="M560 -20q-90 1 -163.5 24t-126.5 68t-81.5 113.5t-28.5 160.5v688h78v-688q0 -130 77.5 -210t239.5 -80q143 0 231 75t88 231v672h78v-1034h-72l-6 190q-18 -64 -59.5 -111.5t-105 -73.5t-149.5 -25zM298 1235q13 57 48.5 96.5t88.5 60.5t116 21q69 0 122.5 -22.5
t88.5 -62.5t47 -93h-83q-19 46 -66 75.5t-109 29.5t-106.5 -29.5t-62.5 -75.5h-84z" />
    <glyph glyph-name="uni0218" unicode="&#x218;" horiz-adv-x="1296" 
d="M657 -20q-102 0 -190 24.5t-158 72t-115.5 117t-61.5 160.5h88q22 -98 86 -164t156 -99t195 -33q116 0 209 38.5t147.5 108.5t54.5 164q0 98 -58.5 166t-199.5 109l-324 94q-87 26 -157 67t-111 108.5t-41 172.5q0 110 60.5 195.5t165.5 134t238 48.5q161 0 268.5 -59.5
t162 -151.5t53.5 -189h-88q-11 122 -70.5 192t-146 100t-182.5 30q-180 0 -278.5 -87t-98.5 -213q0 -112 68.5 -173t189.5 -96l330 -95q117 -33 183 -88.5t93 -123.5t27 -141q0 -109 -59.5 -197.5t-170 -140t-265.5 -51.5zM540 -320l72 99h-45v121h126v-103l-104 -117h-49z
" />
    <glyph glyph-name="uni0219" unicode="&#x219;" horiz-adv-x="970" 
d="M509 -20q-108 0 -193.5 32t-138 98t-64.5 166h83q14 -66 52.5 -115.5t104 -77t156.5 -27.5q125 0 201.5 51.5t76.5 158.5q0 72 -37 115.5t-108 63.5l-246 68q-113 32 -179 90t-66 161q0 87 38.5 152t117 101.5t198.5 36.5q146 0 238.5 -67t99.5 -207h-83
q-10 89 -73.5 143.5t-181.5 54.5q-122 0 -197 -52t-75 -162q0 -70 48.5 -109.5t135.5 -63.5l246 -68q57 -16 96 -42t63.5 -59t35.5 -72t11 -80q0 -87 -39 -152t-118.5 -101.5t-202.5 -36.5zM398 -320l72 99h-45v121h126v-103l-104 -117h-49z" />
    <glyph glyph-name="uni021A" unicode="&#x21a;" horiz-adv-x="1141" 
d="M551 0v1366h-496v80h1031v-80h-456v-1366h-79zM508 -316l72 99h-45v121h126v-103l-104 -117h-49z" />
    <glyph glyph-name="uni021B" unicode="&#x21b;" horiz-adv-x="724" 
d="M493 0q-78 0 -121.5 23.5t-61 74.5t-17.5 134v734h-168v68h168l16 290h63v-290h237v-68h-237v-734q0 -72 12.5 -104.5t47 -41t99.5 -8.5h88v-68q-19 -6 -53.5 -8t-72.5 -2zM358 -320l72 99h-45v121h126v-103l-104 -117h-49z" />
    <glyph glyph-name="uni0237" unicode="&#x237;" horiz-adv-x="467" 
d="M68 -332q-88 0 -108 3t-20 15v52l126 2q76 2 109.5 39.5t33.5 130.5v1124h78v-1134q0 -120 -44 -176t-175 -56z" />
    <glyph glyph-name="uni0259" unicode="&#x259;" horiz-adv-x="1114" 
d="M545 -20q-133 0 -228 59t-145.5 170.5t-50.5 270.5v56h787q0 117 -39 218t-122 162.5t-214 61.5q-123 0 -210 -59t-105 -161h-85q21 101 80.5 166.5t143 97.5t176.5 32q136 0 239.5 -61.5t162 -179.5t58.5 -287q0 -171 -52.5 -293.5t-152.5 -187.5t-243 -65zM547 56
q127 0 206.5 60.5t116.5 153.5t36 190h-702q0 -115 37 -206.5t113 -144.5t193 -53z" />
    <glyph glyph-name="uni02BB" unicode="&#x2bb;" horiz-adv-x="366" 
d="M100 1068v138q0 66 27.5 116.5t66 76t72.5 17.5v-54h-10q-34 0 -59 -42.5t-25 -87.5v-8h94v-156h-166z" />
    <glyph glyph-name="uni02BC" unicode="&#x2bc;" horiz-adv-x="366" 
d="M100 1070v54h10q35 0 59.5 42.5t24.5 87.5v8h-94v156h166v-138q0 -66 -27.5 -116.5t-66 -76t-72.5 -17.5z" />
    <glyph glyph-name="circumflex" unicode="&#x2c6;" horiz-adv-x="540" 
d="M2 1155l238 190h64l234 -190h-120l-148 120l-156 -120h-112z" />
    <glyph glyph-name="caron" unicode="&#x2c7;" horiz-adv-x="542" 
d="M240 1155l-240 190h114l156 -120l148 120h120l-234 -190h-64z" />
    <glyph glyph-name="breve" unicode="&#x2d8;" horiz-adv-x="530" 
d="M263 1155q-63 0 -116 21t-88.5 61t-48.5 96h84q18 -46 62.5 -75.5t106.5 -29.5t109 29.5t66 75.5h83q-13 -53 -47.5 -93t-88 -62.5t-122.5 -22.5z" />
    <glyph glyph-name="dotaccent" unicode="&#x2d9;" horiz-adv-x="116" 
d="M10 1326v120h96v-120h-96z" />
    <glyph glyph-name="ring" unicode="&#x2da;" horiz-adv-x="424" 
d="M212 1172q-81 0 -137.5 57t-56.5 141q0 78 57.5 133t136.5 55q55 0 99.5 -25.5t70.5 -69t26 -97.5q0 -82 -56.5 -138t-139.5 -56zM210 1250q48 0 81 35t33 81q0 51 -33 82.5t-81 31.5q-45 0 -79.5 -31.5t-34.5 -82.5q0 -46 34.5 -81t79.5 -35z" />
    <glyph glyph-name="ogonek" unicode="&#x2db;" horiz-adv-x="376" 
d="M196 -328q-93 0 -135.5 43t-42.5 109q0 65 46.5 113.5t169.5 84.5l66 -18q-97 -45 -146.5 -86t-49.5 -98q0 -40 26 -61t86 -21q50 0 89.5 11.5t52.5 18.5v-62q-22 -12 -66.5 -23t-95.5 -11z" />
    <glyph glyph-name="tilde" unicode="&#x2dc;" horiz-adv-x="546" 
d="M40 1248l-24 66q30 24 62 41t78 17q43 0 79.5 -12.5l73 -25t79.5 -12.5q38 0 62 11t52 31l28 -70q-21 -13 -53 -29.5t-91 -16.5q-51 0 -85.5 12t-65.5 24t-71 12q-48 0 -74.5 -17t-49.5 -31z" />
    <glyph glyph-name="hungarumlaut" unicode="&#x2dd;" horiz-adv-x="572" 
d="M216 1155l226 291h120l-271 -291h-75zM11 1155l191 291h120l-236 -291h-75z" />
    <glyph glyph-name="gravecomb" unicode="&#x300;" horiz-adv-x="0" 
d="M261 1155l-251 291h120l206 -291h-75z" />
    <glyph glyph-name="acutecomb" unicode="&#x301;" horiz-adv-x="0" 
d="M10 1155l206 291h120l-251 -291h-75z" />
    <glyph glyph-name="uni0302" unicode="&#x302;" horiz-adv-x="0" 
d="M2 1155l238 190h64l234 -190h-120l-148 120l-156 -120h-112z" />
    <glyph glyph-name="tildecomb" unicode="&#x303;" horiz-adv-x="0" 
d="M40 1248l-24 66q30 24 62 41t78 17q43 0 79.5 -12.5l73 -25t79.5 -12.5q38 0 62 11t52 31l28 -70q-21 -13 -53 -29.5t-91 -16.5q-51 0 -85.5 12t-65.5 24t-71 12q-48 0 -74.5 -17t-49.5 -31z" />
    <glyph glyph-name="uni0304" unicode="&#x304;" horiz-adv-x="0" 
d="M18 1265v74h490v-74h-490z" />
    <glyph glyph-name="uni0306" unicode="&#x306;" horiz-adv-x="0" 
d="M263 1155q-63 0 -116 21t-88.5 61t-48.5 96h84q18 -46 62.5 -75.5t106.5 -29.5t109 29.5t66 75.5h83q-13 -53 -47.5 -93t-88 -62.5t-122.5 -22.5z" />
    <glyph glyph-name="uni0307" unicode="&#x307;" horiz-adv-x="0" 
d="M10 1326v120h96v-120h-96z" />
    <glyph glyph-name="uni0308" unicode="&#x308;" horiz-adv-x="0" 
d="M322 1326v120h88v-120h-88zM10 1326v120h88v-120h-88z" />
    <glyph glyph-name="hookabovecomb" unicode="&#x309;" horiz-adv-x="0" 
d="M662 1176l-40 60q47 30 68 69.5t0 72.5q-22 36 -67.5 33t-90.5 -33l-40 62q78 50 149.5 43t108.5 -63q45 -66 17 -131t-105 -113z" />
    <glyph glyph-name="uni030A" unicode="&#x30a;" horiz-adv-x="0" 
d="M212 1172q-81 0 -137.5 57t-56.5 141q0 78 57.5 133t136.5 55q55 0 99.5 -25.5t70.5 -69t26 -97.5q0 -82 -56.5 -138t-139.5 -56zM210 1250q48 0 81 35t33 81q0 51 -33 82.5t-81 31.5q-45 0 -79.5 -31.5t-34.5 -82.5q0 -46 34.5 -81t79.5 -35z" />
    <glyph glyph-name="uni030B" unicode="&#x30b;" horiz-adv-x="0" 
d="M216 1155l226 291h120l-271 -291h-75zM11 1155l191 291h120l-236 -291h-75z" />
    <glyph glyph-name="uni030C" unicode="&#x30c;" horiz-adv-x="0" 
d="M240 1155l-240 190h114l156 -120l148 120h120l-234 -190h-64z" />
    <glyph glyph-name="uni030F" unicode="&#x30f;" horiz-adv-x="0" 
d="M281 1155l-271 291h120l226 -291h-75zM486 1155l-236 291h120l191 -291h-75z" />
    <glyph glyph-name="uni0311" unicode="&#x311;" horiz-adv-x="0" 
d="M-2 1235q13 57 48.5 96.5t88.5 60.5t116 21q69 0 122.5 -22.5t88.5 -62.5t47 -93h-83q-19 46 -66 75.5t-109 29.5t-106.5 -29.5t-62.5 -75.5h-84z" />
    <glyph glyph-name="uni0312" unicode="&#x312;" horiz-adv-x="0" 
d="M130 1155v170l68 130h62l-64 -138h46v-162h-112z" />
    <glyph glyph-name="uni031B" unicode="&#x31b;" horiz-adv-x="0" 
d="M0 980v82q42 -1 71 6t46.5 26.5t26.5 54t10 89.5h102q0 -95 -28 -155.5t-85 -86t-143 -16.5z" />
    <glyph glyph-name="dotbelowcomb" unicode="&#x323;" horiz-adv-x="0" 
d="M10 -320v120h96v-120h-96z" />
    <glyph glyph-name="uni0326" unicode="&#x326;" horiz-adv-x="0" 
d="M-5 -320l72 99h-45v121h126v-103l-104 -117h-49z" />
    <glyph glyph-name="uni0327" unicode="&#x327;" horiz-adv-x="0" 
d="M166 -398q-45 0 -81.5 12t-68.5 34l22 56q21 -19 48 -31.5t72 -12.5q62 0 89 22t27 62q0 47 -36.5 69t-113.5 25q-7 0 -8 2.5t0 5.5l72 164h66l-50 -124q61 -5 95 -26t47.5 -51t13.5 -61q0 -49 -26.5 -81.5t-70.5 -48.5t-97 -16z" />
    <glyph glyph-name="uni0328" unicode="&#x328;" horiz-adv-x="0" 
d="M196 -328q-93 0 -135.5 43t-42.5 109q0 65 46.5 113.5t169.5 84.5l66 -18q-97 -45 -146.5 -86t-49.5 -98q0 -40 26 -61t86 -21q50 0 89.5 11.5t52.5 18.5v-62q-22 -12 -66.5 -23t-95.5 -11z" />
    <glyph glyph-name="pi" unicode="&#x3c0;" horiz-adv-x="1286" 
d="M166 0q22 83 42 187t36 226t25 256.5t9 276.5q0 20 -16 20h-202v68h1166v-68h-262v-966h-78l-2 966h-534q0 -149 -9.5 -291.5t-25.5 -269.5t-37.5 -230.5t-45.5 -174.5h-66z" />
    <glyph glyph-name="uni1E0C" unicode="&#x1e0c;" horiz-adv-x="1334" 
d="M220 0v1446q2 0 22.5 -0.5t54 -0.5t76 -0.5t87.5 -0.5q268 -1 434 -78t243 -234t77 -398q0 -255 -84.5 -417t-258 -239.5t-439.5 -77.5h-212zM306 82h120q234 0 390.5 62.5t235 204t78.5 377.5q0 249 -81 387.5t-235.5 194.5t-375.5 56h-132v-1282zM666 -320v120h96v-120
h-96z" />
    <glyph glyph-name="uni1E0D" unicode="&#x1e0d;" horiz-adv-x="1170" 
d="M543 -20q-195 0 -314 132.5t-119 407.5q0 160 47 280t143 187t243 67q93 0 159.5 -25t110 -61t67 -70t30.5 -52v640h80v-1486h-72l-6 212q-6 -18 -25 -55.5t-59.5 -78.5t-110 -69.5t-174.5 -28.5zM545 54q203 0 284 114.5t81 364.5q-2 136 -36.5 236t-112 154.5
t-210.5 54.5q-160 0 -257.5 -109t-97.5 -336q0 -215 85.5 -347t263.5 -132zM497 -320v120h96v-120h-96z" />
    <glyph glyph-name="uni1E24" unicode="&#x1e24;" horiz-adv-x="1524" 
d="M220 0v1446h78v-652h928v652h78v-1446h-78v712h-928v-712h-78zM737 -320v120h96v-120h-96z" />
    <glyph glyph-name="uni1E25" unicode="&#x1e25;" horiz-adv-x="1122" 
d="M180 0v1486h72v-606q27 49 77 88.5t119 62.5t153 23q103 0 184.5 -36.5t129 -101.5t47.5 -150v-766h-78v736q0 114 -76.5 178t-208.5 64q-91 0 -169 -28t-125 -85t-47 -145v-720h-78zM544 -320v120h96v-120h-96z" />
    <glyph glyph-name="uni1E44" unicode="&#x1e44;" horiz-adv-x="1452" 
d="M220 0v1446h64l870 -1290v1290h78v-1446h-68l-866 1286v-1286h-78zM678 1738v120h96v-120h-96z" />
    <glyph glyph-name="uni1E45" unicode="&#x1e45;" horiz-adv-x="1122" 
d="M180 0v1034h72v-154q27 49 76.5 88.5t118.5 62.5t152 23q102 0 184.5 -41t130.5 -126t48 -217v-670h-78v670q0 158 -76.5 233t-208.5 75q-91 0 -169 -28t-125 -85t-47 -145v-720h-78zM544 1326v120h96v-120h-96z" />
    <glyph glyph-name="uni1E5A" unicode="&#x1e5a;" horiz-adv-x="1314" 
d="M220 0v1446h510q140 0 239.5 -40t152 -119.5t52.5 -198.5q0 -121 -48 -199t-119 -121.5t-141 -61.5l300 -706h-90l-292 688h-486v-688h-78zM298 770h364q209 0 318.5 70.5t109.5 233.5q0 155 -92.5 223.5t-269.5 68.5h-430v-596zM604 -320v120h96v-120h-96z" />
    <glyph glyph-name="uni1E5B" unicode="&#x1e5b;" horiz-adv-x="739" 
d="M180 0v1034h72v-154q27 70 75.5 107.5t104.5 52t105 14.5q31 0 62 -4.5t50 -15.5v-80q-21 10 -55.5 14t-56.5 4q-37 0 -84.5 -10.5t-92 -38t-73.5 -77t-29 -126.5v-720h-78zM170 -320v120h96v-120h-96z" />
    <glyph glyph-name="uni1E62" unicode="&#x1e62;" horiz-adv-x="1296" 
d="M657 -20q-102 0 -190 24.5t-158 72t-115.5 117t-61.5 160.5h88q22 -98 86 -164t156 -99t195 -33q116 0 209 38.5t147.5 108.5t54.5 164q0 98 -58.5 166t-199.5 109l-324 94q-87 26 -157 67t-111 108.5t-41 172.5q0 110 60.5 195.5t165.5 134t238 48.5q161 0 268.5 -59.5
t162 -151.5t53.5 -189h-88q-11 122 -70.5 192t-146 100t-182.5 30q-180 0 -278.5 -87t-98.5 -213q0 -112 68.5 -173t189.5 -96l330 -95q117 -33 183 -88.5t93 -123.5t27 -141q0 -109 -59.5 -197.5t-170 -140t-265.5 -51.5zM577 -320v120h96v-120h-96z" />
    <glyph glyph-name="uni1E63" unicode="&#x1e63;" horiz-adv-x="970" 
d="M509 -20q-108 0 -193.5 32t-138 98t-64.5 166h83q14 -66 52.5 -115.5t104 -77t156.5 -27.5q125 0 201.5 51.5t76.5 158.5q0 72 -37 115.5t-108 63.5l-246 68q-113 32 -179 90t-66 161q0 87 38.5 152t117 101.5t198.5 36.5q146 0 238.5 -67t99.5 -207h-83
q-10 89 -73.5 143.5t-181.5 54.5q-122 0 -197 -52t-75 -162q0 -70 48.5 -109.5t135.5 -63.5l246 -68q57 -16 96 -42t63.5 -59t35.5 -72t11 -80q0 -87 -39 -152t-118.5 -101.5t-202.5 -36.5zM435 -320v120h96v-120h-96z" />
    <glyph glyph-name="uni1E6C" unicode="&#x1e6c;" horiz-adv-x="1141" 
d="M551 0v1366h-496v80h1031v-80h-456v-1366h-79zM545 -316v120h96v-120h-96z" />
    <glyph glyph-name="uni1E6D" unicode="&#x1e6d;" horiz-adv-x="724" 
d="M493 0q-78 0 -121.5 23.5t-61 74.5t-17.5 134v734h-168v68h168l16 290h63v-290h237v-68h-237v-734q0 -72 12.5 -104.5t47 -41t99.5 -8.5h88v-68q-19 -6 -53.5 -8t-72.5 -2zM395 -320v120h96v-120h-96z" />
    <glyph glyph-name="Wgrave" unicode="&#x1e80;" horiz-adv-x="1877" 
d="M461 0l-406 1446h87l371 -1348l383 1348h79l377 -1348l384 1348h86l-416 -1446h-109l-363 1296l-370 -1296h-103zM911 1567l-251 291h120l206 -291h-75z" />
    <glyph glyph-name="wgrave" unicode="&#x1e81;" horiz-adv-x="1542" 
d="M379 0l-304 1034h84l276 -948h24l276 948h71l292 -944h25l262 944h82l-287 -1034h-131l-278 900l-257 -900h-135zM754 1155l-251 291h120l206 -291h-75z" />
    <glyph glyph-name="Wacute" unicode="&#x1e82;" horiz-adv-x="1877" 
d="M461 0l-406 1446h87l371 -1348l383 1348h79l377 -1348l384 1348h86l-416 -1446h-109l-363 1296l-370 -1296h-103zM883 1567l206 291h120l-251 -291h-75z" />
    <glyph glyph-name="wacute" unicode="&#x1e83;" horiz-adv-x="1542" 
d="M379 0l-304 1034h84l276 -948h24l276 948h71l292 -944h25l262 944h82l-287 -1034h-131l-278 900l-257 -900h-135zM726 1155l206 291h120l-251 -291h-75z" />
    <glyph glyph-name="Wdieresis" unicode="&#x1e84;" horiz-adv-x="1877" 
d="M461 0l-406 1446h87l371 -1348l383 1348h79l377 -1348l384 1348h86l-416 -1446h-109l-363 1296l-370 -1296h-103zM1048 1738v120h88v-120h-88zM736 1738v120h88v-120h-88z" />
    <glyph glyph-name="wdieresis" unicode="&#x1e85;" horiz-adv-x="1542" 
d="M379 0l-304 1034h84l276 -948h24l276 948h71l292 -944h25l262 944h82l-287 -1034h-131l-278 900l-257 -900h-135zM891 1326v120h88v-120h-88zM579 1326v120h88v-120h-88z" />
    <glyph glyph-name="uni1E92" unicode="&#x1e92;" horiz-adv-x="1208" 
d="M147 0v62l850 1306h-832v78h933v-60l-853 -1308h853v-78h-951zM599 -320v120h96v-120h-96z" />
    <glyph glyph-name="uni1E93" unicode="&#x1e93;" horiz-adv-x="930" 
d="M90 0v68l657 898h-633v68h719v-68l-655 -898h662v-68h-750zM431 -320v120h96v-120h-96z" />
    <glyph glyph-name="uni1EA0" unicode="&#x1ea0;" horiz-adv-x="1388" 
d="M110 0l529 1446h111l528 -1446h-86l-167 456h-664l-167 -456h-84zM392 542h602l-301 823zM646 -320v120h96v-120h-96z" />
    <glyph glyph-name="uni1EA1" unicode="&#x1ea1;" 
d="M453 -20q-102 0 -176.5 34.5t-115 98t-40.5 151.5q0 174 112.5 253.5t369.5 88.5l239 8v100q0 119 -72.5 191.5t-223.5 72.5q-115 0 -193 -53.5t-95 -166.5h-84q6 89 48.5 155.5t124.5 103.5t203 37q111 0 194 -36.5t129 -111.5t46 -190v-716h-72l-3 210
q-67 -129 -172 -179.5t-219 -50.5zM466 54q65 0 131 23.5t121.5 64t89.5 90.5t34 102v202l-201 -4q-165 -3 -260.5 -31t-136.5 -84.5t-41 -146.5q0 -102 72 -159t191 -57zM500 -320v120h96v-120h-96z" />
    <glyph glyph-name="uni1EA2" unicode="&#x1ea2;" horiz-adv-x="1388" 
d="M110 0l529 1446h111l528 -1446h-86l-167 456h-664l-167 -456h-84zM392 542h602l-301 823zM730 1562l-40 60q47 30 68 69.5t0 72.5q-22 36 -67.5 33t-90.5 -33l-40 62q78 50 149.5 43t108.5 -63q45 -66 17 -131t-105 -113z" />
    <glyph glyph-name="uni1EA3" unicode="&#x1ea3;" 
d="M453 -20q-102 0 -176.5 34.5t-115 98t-40.5 151.5q0 174 112.5 253.5t369.5 88.5l239 8v100q0 119 -72.5 191.5t-223.5 72.5q-115 0 -193 -53.5t-95 -166.5h-84q6 89 48.5 155.5t124.5 103.5t203 37q111 0 194 -36.5t129 -111.5t46 -190v-716h-72l-3 210
q-67 -129 -172 -179.5t-219 -50.5zM466 54q65 0 131 23.5t121.5 64t89.5 90.5t34 102v202l-201 -4q-165 -3 -260.5 -31t-136.5 -84.5t-41 -146.5q0 -102 72 -159t191 -57zM585 1150l-40 60q47 30 68 69.5t0 72.5q-22 36 -67.5 33t-90.5 -33l-40 62q78 50 149.5 43t108.5 -63
q45 -66 17 -131t-105 -113z" />
    <glyph glyph-name="uni1EA4" unicode="&#x1ea4;" horiz-adv-x="1388" 
d="M110 0l529 1446h111l528 -1446h-86l-167 456h-664l-167 -456h-84zM392 542h602l-301 823zM426 1567l238 190h64l234 -190h-120l-148 120l-156 -120h-112zM834 1765l140 224h121l-176 -224h-85z" />
    <glyph glyph-name="uni1EA5" unicode="&#x1ea5;" 
d="M453 -20q-102 0 -176.5 34.5t-115 98t-40.5 151.5q0 174 112.5 253.5t369.5 88.5l239 8v100q0 119 -72.5 191.5t-223.5 72.5q-115 0 -193 -53.5t-95 -166.5h-84q6 89 48.5 155.5t124.5 103.5t203 37q111 0 194 -36.5t129 -111.5t46 -190v-716h-72l-3 210
q-67 -129 -172 -179.5t-219 -50.5zM466 54q65 0 131 23.5t121.5 64t89.5 90.5t34 102v202l-201 -4q-165 -3 -260.5 -31t-136.5 -84.5t-41 -146.5q0 -102 72 -159t191 -57zM281 1155l238 190h64l234 -190h-120l-148 120l-156 -120h-112zM689 1353l140 224h121l-176 -224h-85z
" />
    <glyph glyph-name="uni1EA6" unicode="&#x1ea6;" horiz-adv-x="1388" 
d="M110 0l529 1446h111l528 -1446h-86l-167 456h-664l-167 -456h-84zM392 542h602l-301 823zM426 1567l238 190h64l234 -190h-120l-148 120l-156 -120h-112zM943 1767l-195 224h120l160 -224h-85z" />
    <glyph glyph-name="uni1EA7" unicode="&#x1ea7;" 
d="M453 -20q-102 0 -176.5 34.5t-115 98t-40.5 151.5q0 174 112.5 253.5t369.5 88.5l239 8v100q0 119 -72.5 191.5t-223.5 72.5q-115 0 -193 -53.5t-95 -166.5h-84q6 89 48.5 155.5t124.5 103.5t203 37q111 0 194 -36.5t129 -111.5t46 -190v-716h-72l-3 210
q-67 -129 -172 -179.5t-219 -50.5zM466 54q65 0 131 23.5t121.5 64t89.5 90.5t34 102v202l-201 -4q-165 -3 -260.5 -31t-136.5 -84.5t-41 -146.5q0 -102 72 -159t191 -57zM281 1155l238 190h64l234 -190h-120l-148 120l-156 -120h-112zM798 1355l-195 224h120l160 -224h-85z
" />
    <glyph glyph-name="uni1EA8" unicode="&#x1ea8;" horiz-adv-x="1388" 
d="M110 0l529 1446h111l528 -1446h-86l-167 456h-664l-167 -456h-84zM392 542h602l-301 823zM428 1567l238 190h64l234 -190h-120l-148 120l-156 -120h-112zM868 1718l-40 60q47 30 68 69.5t0 72.5q-22 36 -67.5 33t-90.5 -33l-40 62q78 50 149.5 43t108.5 -63
q45 -66 17 -131t-105 -113z" />
    <glyph glyph-name="uni1EA9" unicode="&#x1ea9;" 
d="M453 -20q-102 0 -176.5 34.5t-115 98t-40.5 151.5q0 174 112.5 253.5t369.5 88.5l239 8v100q0 119 -72.5 191.5t-223.5 72.5q-115 0 -193 -53.5t-95 -166.5h-84q6 89 48.5 155.5t124.5 103.5t203 37q111 0 194 -36.5t129 -111.5t46 -190v-716h-72l-3 210
q-67 -129 -172 -179.5t-219 -50.5zM466 54q65 0 131 23.5t121.5 64t89.5 90.5t34 102v202l-201 -4q-165 -3 -260.5 -31t-136.5 -84.5t-41 -146.5q0 -102 72 -159t191 -57zM283 1155l238 190h64l234 -190h-120l-148 120l-156 -120h-112zM723 1306l-40 60q47 30 68 69.5
t0 72.5q-22 36 -67.5 33t-90.5 -33l-40 62q78 50 149.5 43t108.5 -63q45 -66 17 -131t-105 -113z" />
    <glyph glyph-name="uni1EAA" unicode="&#x1eaa;" horiz-adv-x="1388" 
d="M110 0l529 1446h111l528 -1446h-86l-167 456h-664l-167 -456h-84zM392 542h602l-301 823zM426 1567l238 190h64l234 -190h-120l-148 120l-156 -120h-112zM464 1882l-24 66q30 24 62 41t78 17q43 0 79.5 -12.5l73 -25t79.5 -12.5q38 0 62 11t52 31l28 -70
q-21 -13 -53 -29.5t-91 -16.5q-51 0 -85.5 12t-65.5 24t-71 12q-48 0 -74.5 -17t-49.5 -31z" />
    <glyph glyph-name="uni1EAB" unicode="&#x1eab;" 
d="M453 -20q-102 0 -176.5 34.5t-115 98t-40.5 151.5q0 174 112.5 253.5t369.5 88.5l239 8v100q0 119 -72.5 191.5t-223.5 72.5q-115 0 -193 -53.5t-95 -166.5h-84q6 89 48.5 155.5t124.5 103.5t203 37q111 0 194 -36.5t129 -111.5t46 -190v-716h-72l-3 210
q-67 -129 -172 -179.5t-219 -50.5zM466 54q65 0 131 23.5t121.5 64t89.5 90.5t34 102v202l-201 -4q-165 -3 -260.5 -31t-136.5 -84.5t-41 -146.5q0 -102 72 -159t191 -57zM281 1155l238 190h64l234 -190h-120l-148 120l-156 -120h-112zM319 1470l-24 66q30 24 62 41t78 17
q43 0 79.5 -12.5l73 -25t79.5 -12.5q38 0 62 11t52 31l28 -70q-21 -13 -53 -29.5t-91 -16.5q-51 0 -85.5 12t-65.5 24t-71 12q-48 0 -74.5 -17t-49.5 -31z" />
    <glyph glyph-name="uni1EAC" unicode="&#x1eac;" horiz-adv-x="1388" 
d="M110 0l529 1446h111l528 -1446h-86l-167 456h-664l-167 -456h-84zM392 542h602l-301 823zM646 -320v120h96v-120h-96zM426 1567l238 190h64l234 -190h-120l-148 120l-156 -120h-112z" />
    <glyph glyph-name="uni1EAD" unicode="&#x1ead;" 
d="M453 -20q-102 0 -176.5 34.5t-115 98t-40.5 151.5q0 174 112.5 253.5t369.5 88.5l239 8v100q0 119 -72.5 191.5t-223.5 72.5q-115 0 -193 -53.5t-95 -166.5h-84q6 89 48.5 155.5t124.5 103.5t203 37q111 0 194 -36.5t129 -111.5t46 -190v-716h-72l-3 210
q-67 -129 -172 -179.5t-219 -50.5zM466 54q65 0 131 23.5t121.5 64t89.5 90.5t34 102v202l-201 -4q-165 -3 -260.5 -31t-136.5 -84.5t-41 -146.5q0 -102 72 -159t191 -57zM500 -320v120h96v-120h-96zM281 1155l238 190h64l234 -190h-120l-148 120l-156 -120h-112z" />
    <glyph glyph-name="uni1EAE" unicode="&#x1eae;" horiz-adv-x="1388" 
d="M110 0l529 1446h111l528 -1446h-86l-167 456h-664l-167 -456h-84zM392 542h602l-301 823zM697 1563q-63 0 -116 21t-88.5 61t-48.5 96h84q18 -46 62.5 -75.5t106.5 -29.5t109 29.5t66 75.5h83q-13 -53 -47.5 -93t-88 -62.5t-122.5 -22.5zM653 1741l140 224h121l-176 -224
h-85z" />
    <glyph glyph-name="uni1EAF" unicode="&#x1eaf;" 
d="M453 -20q-102 0 -176.5 34.5t-115 98t-40.5 151.5q0 174 112.5 253.5t369.5 88.5l239 8v100q0 119 -72.5 191.5t-223.5 72.5q-115 0 -193 -53.5t-95 -166.5h-84q6 89 48.5 155.5t124.5 103.5t203 37q111 0 194 -36.5t129 -111.5t46 -190v-716h-72l-3 210
q-67 -129 -172 -179.5t-219 -50.5zM466 54q65 0 131 23.5t121.5 64t89.5 90.5t34 102v202l-201 -4q-165 -3 -260.5 -31t-136.5 -84.5t-41 -146.5q0 -102 72 -159t191 -57zM552 1151q-63 0 -116 21t-88.5 61t-48.5 96h84q18 -46 62.5 -75.5t106.5 -29.5t109 29.5t66 75.5h83
q-13 -53 -47.5 -93t-88 -62.5t-122.5 -22.5zM508 1329l140 224h121l-176 -224h-85z" />
    <glyph glyph-name="uni1EB0" unicode="&#x1eb0;" horiz-adv-x="1388" 
d="M110 0l529 1446h111l528 -1446h-86l-167 456h-664l-167 -456h-84zM392 542h602l-301 823zM697 1563q-63 0 -116 21t-88.5 61t-48.5 96h84q18 -46 62.5 -75.5t106.5 -29.5t109 29.5t66 75.5h83q-13 -53 -47.5 -93t-88 -62.5t-122.5 -22.5zM670 1739l-195 224h120l160 -224
h-85z" />
    <glyph glyph-name="uni1EB1" unicode="&#x1eb1;" 
d="M453 -20q-102 0 -176.5 34.5t-115 98t-40.5 151.5q0 174 112.5 253.5t369.5 88.5l239 8v100q0 119 -72.5 191.5t-223.5 72.5q-115 0 -193 -53.5t-95 -166.5h-84q6 89 48.5 155.5t124.5 103.5t203 37q111 0 194 -36.5t129 -111.5t46 -190v-716h-72l-3 210
q-67 -129 -172 -179.5t-219 -50.5zM466 54q65 0 131 23.5t121.5 64t89.5 90.5t34 102v202l-201 -4q-165 -3 -260.5 -31t-136.5 -84.5t-41 -146.5q0 -102 72 -159t191 -57zM552 1151q-63 0 -116 21t-88.5 61t-48.5 96h84q18 -46 62.5 -75.5t106.5 -29.5t109 29.5t66 75.5h83
q-13 -53 -47.5 -93t-88 -62.5t-122.5 -22.5zM525 1327l-195 224h120l160 -224h-85z" />
    <glyph glyph-name="uni1EB2" unicode="&#x1eb2;" horiz-adv-x="1388" 
d="M110 0l529 1446h111l528 -1446h-86l-167 456h-664l-167 -456h-84zM392 542h602l-301 823zM697 1563q-63 0 -116 21t-88.5 61t-48.5 96h84q18 -46 62.5 -75.5t106.5 -29.5t109 29.5t66 75.5h83q-13 -53 -47.5 -93t-88 -62.5t-122.5 -22.5zM708 1743l-40 60q47 30 68 69.5
t0 72.5q-22 36 -67.5 33t-90.5 -33l-40 62q68 43 134 43q81 0 124 -63q45 -66 17 -131t-105 -113z" />
    <glyph glyph-name="uni1EB3" unicode="&#x1eb3;" 
d="M453 -20q-102 0 -176.5 34.5t-115 98t-40.5 151.5q0 174 112.5 253.5t369.5 88.5l239 8v100q0 119 -72.5 191.5t-223.5 72.5q-115 0 -193 -53.5t-95 -166.5h-84q6 89 48.5 155.5t124.5 103.5t203 37q111 0 194 -36.5t129 -111.5t46 -190v-716h-72l-3 210
q-67 -129 -172 -179.5t-219 -50.5zM466 54q65 0 131 23.5t121.5 64t89.5 90.5t34 102v202l-201 -4q-165 -3 -260.5 -31t-136.5 -84.5t-41 -146.5q0 -102 72 -159t191 -57zM552 1151q-63 0 -116 21t-88.5 61t-48.5 96h84q18 -46 62.5 -75.5t106.5 -29.5t109 29.5t66 75.5h83
q-13 -53 -47.5 -93t-88 -62.5t-122.5 -22.5zM563 1331l-40 60q47 30 68 69.5t0 72.5q-22 36 -67.5 33t-90.5 -33l-40 62q68 43 134 43q81 0 124 -63q45 -66 17 -131t-105 -113z" />
    <glyph glyph-name="uni1EB4" unicode="&#x1eb4;" horiz-adv-x="1388" 
d="M110 0l529 1446h111l528 -1446h-86l-167 456h-664l-167 -456h-84zM392 542h602l-301 823zM697 1563q-63 0 -116 21t-88.5 61t-48.5 96h84q18 -46 62.5 -75.5t106.5 -29.5t109 29.5t66 75.5h83q-13 -53 -47.5 -93t-88 -62.5t-122.5 -22.5zM474 1878l-24 66q30 24 62 41
t78 17q43 0 79.5 -12.5l73 -25t79.5 -12.5q38 0 62 11t52 31l28 -70q-21 -13 -53 -29.5t-91 -16.5q-51 0 -85.5 12t-65.5 24t-71 12q-48 0 -74.5 -17t-49.5 -31z" />
    <glyph glyph-name="uni1EB5" unicode="&#x1eb5;" 
d="M453 -20q-102 0 -176.5 34.5t-115 98t-40.5 151.5q0 174 112.5 253.5t369.5 88.5l239 8v100q0 119 -72.5 191.5t-223.5 72.5q-115 0 -193 -53.5t-95 -166.5h-84q6 89 48.5 155.5t124.5 103.5t203 37q111 0 194 -36.5t129 -111.5t46 -190v-716h-72l-3 210
q-67 -129 -172 -179.5t-219 -50.5zM466 54q65 0 131 23.5t121.5 64t89.5 90.5t34 102v202l-201 -4q-165 -3 -260.5 -31t-136.5 -84.5t-41 -146.5q0 -102 72 -159t191 -57zM552 1151q-63 0 -116 21t-88.5 61t-48.5 96h84q18 -46 62.5 -75.5t106.5 -29.5t109 29.5t66 75.5h83
q-13 -53 -47.5 -93t-88 -62.5t-122.5 -22.5zM329 1466l-24 66q30 24 62 41t78 17q43 0 79.5 -12.5l73 -25t79.5 -12.5q38 0 62 11t52 31l28 -70q-21 -13 -53 -29.5t-91 -16.5q-51 0 -85.5 12t-65.5 24t-71 12q-48 0 -74.5 -17t-49.5 -31z" />
    <glyph glyph-name="uni1EB6" unicode="&#x1eb6;" horiz-adv-x="1388" 
d="M110 0l529 1446h111l528 -1446h-86l-167 456h-664l-167 -456h-84zM392 542h602l-301 823zM646 -320v120h96v-120h-96zM691 1563q-63 0 -116 21t-88.5 61t-48.5 96h84q18 -46 62.5 -75.5t106.5 -29.5t109 29.5t66 75.5h83q-13 -53 -47.5 -93t-88 -62.5t-122.5 -22.5z" />
    <glyph glyph-name="uni1EB7" unicode="&#x1eb7;" 
d="M453 -20q-102 0 -176.5 34.5t-115 98t-40.5 151.5q0 174 112.5 253.5t369.5 88.5l239 8v100q0 119 -72.5 191.5t-223.5 72.5q-115 0 -193 -53.5t-95 -166.5h-84q6 89 48.5 155.5t124.5 103.5t203 37q111 0 194 -36.5t129 -111.5t46 -190v-716h-72l-3 210
q-67 -129 -172 -179.5t-219 -50.5zM466 54q65 0 131 23.5t121.5 64t89.5 90.5t34 102v202l-201 -4q-165 -3 -260.5 -31t-136.5 -84.5t-41 -146.5q0 -102 72 -159t191 -57zM500 -320v120h96v-120h-96zM546 1151q-63 0 -116 21t-88.5 61t-48.5 96h84q18 -46 62.5 -75.5
t106.5 -29.5t109 29.5t66 75.5h83q-13 -53 -47.5 -93t-88 -62.5t-122.5 -22.5z" />
    <glyph glyph-name="uni1EB8" unicode="&#x1eb8;" horiz-adv-x="1213" 
d="M220 0v1446h830v-80h-752v-594h700v-82h-700v-606l780 -2v-82h-858zM646 -320v120h96v-120h-96z" />
    <glyph glyph-name="uni1EB9" unicode="&#x1eb9;" horiz-adv-x="1114" 
d="M581 -20q-136 0 -239.5 61.5t-162 179.5t-58.5 287q0 171 52.5 293.5t153 187.5t242.5 65q134 0 228.5 -59t145 -170.5t50.5 -270.5v-56h-787q0 -117 39 -217.5t122 -162.5t214 -62q123 0 210 59t105 161h85q-20 -100 -80 -166t-143.5 -98t-176.5 -32zM208 574h702
q0 115 -37 206.5t-113 144.5t-193 53q-127 0 -206.5 -60.5t-116.5 -153.5t-36 -190zM519 -320v120h96v-120h-96z" />
    <glyph glyph-name="uni1EBA" unicode="&#x1eba;" horiz-adv-x="1213" 
d="M220 0v1446h830v-80h-752v-594h700v-82h-700v-606l780 -2v-82h-858zM676 1562l-40 60q47 30 68 69.5t0 72.5q-22 36 -67.5 33t-90.5 -33l-40 62q78 50 149.5 43t108.5 -63q45 -66 17 -131t-105 -113z" />
    <glyph glyph-name="uni1EBB" unicode="&#x1ebb;" horiz-adv-x="1114" 
d="M581 -20q-136 0 -239.5 61.5t-162 179.5t-58.5 287q0 171 52.5 293.5t153 187.5t242.5 65q134 0 228.5 -59t145 -170.5t50.5 -270.5v-56h-787q0 -117 39 -217.5t122 -162.5t214 -62q123 0 210 59t105 161h85q-20 -100 -80 -166t-143.5 -98t-176.5 -32zM208 574h702
q0 115 -37 206.5t-113 144.5t-193 53q-127 0 -206.5 -60.5t-116.5 -153.5t-36 -190zM605 1150l-40 60q47 30 68 69.5t0 72.5q-22 36 -67.5 33t-90.5 -33l-40 62q78 50 149.5 43t108.5 -63q45 -66 17 -131t-105 -113z" />
    <glyph glyph-name="uni1EBC" unicode="&#x1ebc;" horiz-adv-x="1213" 
d="M220 0v1446h830v-80h-752v-594h700v-82h-700v-606l780 -2v-82h-858zM408 1660l-24 66q30 24 62 41t78 17q43 0 79.5 -12.5l73 -25t79.5 -12.5q38 0 62 11t52 31l28 -70q-21 -13 -53 -29.5t-91 -16.5q-51 0 -85.5 12t-65.5 24t-71 12q-48 0 -74.5 -17t-49.5 -31z" />
    <glyph glyph-name="uni1EBD" unicode="&#x1ebd;" horiz-adv-x="1114" 
d="M581 -20q-136 0 -239.5 61.5t-162 179.5t-58.5 287q0 171 52.5 293.5t153 187.5t242.5 65q134 0 228.5 -59t145 -170.5t50.5 -270.5v-56h-787q0 -117 39 -217.5t122 -162.5t214 -62q123 0 210 59t105 161h85q-20 -100 -80 -166t-143.5 -98t-176.5 -32zM208 574h702
q0 115 -37 206.5t-113 144.5t-193 53q-127 0 -206.5 -60.5t-116.5 -153.5t-36 -190zM337 1248l-24 66q30 24 62 41t78 17q43 0 79.5 -12.5l73 -25t79.5 -12.5q38 0 62 11t52 31l28 -70q-21 -13 -53 -29.5t-91 -16.5q-51 0 -85.5 12t-65.5 24t-71 12q-48 0 -74.5 -17
t-49.5 -31z" />
    <glyph glyph-name="uni1EBE" unicode="&#x1ebe;" horiz-adv-x="1213" 
d="M220 0v1446h830v-80h-752v-594h700v-82h-700v-606l780 -2v-82h-858zM372 1567l238 190h64l234 -190h-120l-148 120l-156 -120h-112zM780 1765l140 224h121l-176 -224h-85z" />
    <glyph glyph-name="uni1EBF" unicode="&#x1ebf;" horiz-adv-x="1114" 
d="M581 -20q-136 0 -239.5 61.5t-162 179.5t-58.5 287q0 171 52.5 293.5t153 187.5t242.5 65q134 0 228.5 -59t145 -170.5t50.5 -270.5v-56h-787q0 -117 39 -217.5t122 -162.5t214 -62q123 0 210 59t105 161h85q-20 -100 -80 -166t-143.5 -98t-176.5 -32zM208 574h702
q0 115 -37 206.5t-113 144.5t-193 53q-127 0 -206.5 -60.5t-116.5 -153.5t-36 -190zM301 1155l238 190h64l234 -190h-120l-148 120l-156 -120h-112zM709 1353l140 224h121l-176 -224h-85z" />
    <glyph glyph-name="uni1EC0" unicode="&#x1ec0;" horiz-adv-x="1213" 
d="M220 0v1446h830v-80h-752v-594h700v-82h-700v-606l780 -2v-82h-858zM372 1567l238 190h64l234 -190h-120l-148 120l-156 -120h-112zM889 1767l-195 224h120l160 -224h-85z" />
    <glyph glyph-name="uni1EC1" unicode="&#x1ec1;" horiz-adv-x="1114" 
d="M581 -20q-136 0 -239.5 61.5t-162 179.5t-58.5 287q0 171 52.5 293.5t153 187.5t242.5 65q134 0 228.5 -59t145 -170.5t50.5 -270.5v-56h-787q0 -117 39 -217.5t122 -162.5t214 -62q123 0 210 59t105 161h85q-20 -100 -80 -166t-143.5 -98t-176.5 -32zM208 574h702
q0 115 -37 206.5t-113 144.5t-193 53q-127 0 -206.5 -60.5t-116.5 -153.5t-36 -190zM301 1155l238 190h64l234 -190h-120l-148 120l-156 -120h-112zM818 1355l-195 224h120l160 -224h-85z" />
    <glyph glyph-name="uni1EC2" unicode="&#x1ec2;" horiz-adv-x="1213" 
d="M220 0v1446h830v-80h-752v-594h700v-82h-700v-606l780 -2v-82h-858zM374 1567l238 190h64l234 -190h-120l-148 120l-156 -120h-112zM814 1718l-40 60q47 30 68 69.5t0 72.5q-22 36 -67.5 33t-90.5 -33l-40 62q78 50 149.5 43t108.5 -63q45 -66 17 -131t-105 -113z" />
    <glyph glyph-name="uni1EC3" unicode="&#x1ec3;" horiz-adv-x="1114" 
d="M581 -20q-136 0 -239.5 61.5t-162 179.5t-58.5 287q0 171 52.5 293.5t153 187.5t242.5 65q134 0 228.5 -59t145 -170.5t50.5 -270.5v-56h-787q0 -117 39 -217.5t122 -162.5t214 -62q123 0 210 59t105 161h85q-20 -100 -80 -166t-143.5 -98t-176.5 -32zM208 574h702
q0 115 -37 206.5t-113 144.5t-193 53q-127 0 -206.5 -60.5t-116.5 -153.5t-36 -190zM303 1155l238 190h64l234 -190h-120l-148 120l-156 -120h-112zM743 1306l-40 60q47 30 68 69.5t0 72.5q-22 36 -67.5 33t-90.5 -33l-40 62q78 50 149.5 43t108.5 -63q45 -66 17 -131
t-105 -113z" />
    <glyph glyph-name="uni1EC4" unicode="&#x1ec4;" horiz-adv-x="1213" 
d="M220 0v1446h830v-80h-752v-594h700v-82h-700v-606l780 -2v-82h-858zM372 1567l238 190h64l234 -190h-120l-148 120l-156 -120h-112zM410 1882l-24 66q30 24 62 41t78 17q43 0 79.5 -12.5l73 -25t79.5 -12.5q38 0 62 11t52 31l28 -70q-21 -13 -53 -29.5t-91 -16.5
q-51 0 -85.5 12t-65.5 24t-71 12q-48 0 -74.5 -17t-49.5 -31z" />
    <glyph glyph-name="uni1EC5" unicode="&#x1ec5;" horiz-adv-x="1114" 
d="M581 -20q-136 0 -239.5 61.5t-162 179.5t-58.5 287q0 171 52.5 293.5t153 187.5t242.5 65q134 0 228.5 -59t145 -170.5t50.5 -270.5v-56h-787q0 -117 39 -217.5t122 -162.5t214 -62q123 0 210 59t105 161h85q-20 -100 -80 -166t-143.5 -98t-176.5 -32zM208 574h702
q0 115 -37 206.5t-113 144.5t-193 53q-127 0 -206.5 -60.5t-116.5 -153.5t-36 -190zM301 1155l238 190h64l234 -190h-120l-148 120l-156 -120h-112zM339 1470l-24 66q30 24 62 41t78 17q43 0 79.5 -12.5l73 -25t79.5 -12.5q38 0 62 11t52 31l28 -70q-21 -13 -53 -29.5
t-91 -16.5q-51 0 -85.5 12t-65.5 24t-71 12q-48 0 -74.5 -17t-49.5 -31z" />
    <glyph glyph-name="uni1EC6" unicode="&#x1ec6;" horiz-adv-x="1213" 
d="M220 0v1446h830v-80h-752v-594h700v-82h-700v-606l780 -2v-82h-858zM646 -320v120h96v-120h-96zM372 1567l238 190h64l234 -190h-120l-148 120l-156 -120h-112z" />
    <glyph glyph-name="uni1EC7" unicode="&#x1ec7;" horiz-adv-x="1114" 
d="M581 -20q-136 0 -239.5 61.5t-162 179.5t-58.5 287q0 171 52.5 293.5t153 187.5t242.5 65q134 0 228.5 -59t145 -170.5t50.5 -270.5v-56h-787q0 -117 39 -217.5t122 -162.5t214 -62q123 0 210 59t105 161h85q-20 -100 -80 -166t-143.5 -98t-176.5 -32zM208 574h702
q0 115 -37 206.5t-113 144.5t-193 53q-127 0 -206.5 -60.5t-116.5 -153.5t-36 -190zM519 -320v120h96v-120h-96zM301 1155l238 190h64l234 -190h-120l-148 120l-156 -120h-112z" />
    <glyph glyph-name="uni1EC8" unicode="&#x1ec8;" horiz-adv-x="518" 
d="M220 0v1446h78v-1446h-78zM296 1562l-40 60q47 30 68 69.5t0 72.5q-22 36 -67.5 33t-90.5 -33l-40 62q78 50 149.5 43t108.5 -63q45 -66 17 -131t-105 -113z" />
    <glyph glyph-name="uni1EC9" unicode="&#x1ec9;" horiz-adv-x="438" 
d="M180 0v1034h78v-1034h-78zM254 1150l-40 60q47 30 68 69.5t0 72.5q-22 36 -67.5 33t-90.5 -33l-40 62q78 50 149.5 43t108.5 -63q45 -66 17 -131t-105 -113z" />
    <glyph glyph-name="uni1ECA" unicode="&#x1eca;" horiz-adv-x="518" 
d="M220 0v1446h78v-1446h-78zM214 -320v120h96v-120h-96z" />
    <glyph glyph-name="uni1ECB" unicode="&#x1ecb;" horiz-adv-x="455" 
d="M189 0v1034h79v-1034h-79zM180 1324v120h95v-120h-95zM180 -320v120h96v-120h-96z" />
    <glyph glyph-name="uni1ECC" unicode="&#x1ecc;" horiz-adv-x="1414" 
d="M710 -20q-182 0 -314.5 84.5t-204 249.5t-71.5 406q0 243 71.5 409t204 251.5t314.5 85.5t313 -85t201 -251t70 -410q0 -241 -70 -405.5t-201 -249.5t-313 -85zM710 62q162 0 272.5 72t167 218.5t56.5 367.5q0 224 -57.5 371t-168 220t-270.5 73t-272 -73.5t-171 -221
t-59 -369.5t59 -368t171 -218t272 -72zM664 -320v120h96v-120h-96z" />
    <glyph glyph-name="uni1ECD" unicode="&#x1ecd;" horiz-adv-x="1110" 
d="M558 -20q-134 0 -235 58t-157 176.5t-56 299.5q0 162 48.5 283.5t148 189t251.5 67.5q133 0 232 -58.5t154.5 -178t55.5 -303.5q0 -160 -48 -280t-145.5 -187t-248.5 -67zM558 54q109 0 190 50t126 152t45 258q0 139 -39 243.5t-119 162.5t-203 58q-110 0 -192.5 -50
t-128 -153t-45.5 -261q0 -138 39.5 -241.5t121 -161t205.5 -57.5zM512 -320v120h96v-120h-96z" />
    <glyph glyph-name="uni1ECE" unicode="&#x1ece;" horiz-adv-x="1414" 
d="M710 -20q-182 0 -314.5 84.5t-204 249.5t-71.5 406q0 243 71.5 409t204 251.5t314.5 85.5t313 -85t201 -251t70 -410q0 -241 -70 -405.5t-201 -249.5t-313 -85zM710 62q162 0 272.5 72t167 218.5t56.5 367.5q0 224 -57.5 371t-168 220t-270.5 73t-272 -73.5t-171 -221
t-59 -369.5t59 -368t171 -218t272 -72zM748 1562l-40 60q47 30 68 69.5t0 72.5q-22 36 -67.5 33t-90.5 -33l-40 62q78 50 149.5 43t108.5 -63q45 -66 17 -131t-105 -113z" />
    <glyph glyph-name="uni1ECF" unicode="&#x1ecf;" horiz-adv-x="1110" 
d="M558 -20q-134 0 -235 58t-157 176.5t-56 299.5q0 162 48.5 283.5t148 189t251.5 67.5q133 0 232 -58.5t154.5 -178t55.5 -303.5q0 -160 -48 -280t-145.5 -187t-248.5 -67zM558 54q109 0 190 50t126 152t45 258q0 139 -39 243.5t-119 162.5t-203 58q-110 0 -192.5 -50
t-128 -153t-45.5 -261q0 -138 39.5 -241.5t121 -161t205.5 -57.5zM592 1150l-40 60q47 30 68 69.5t0 72.5q-22 36 -67.5 33t-90.5 -33l-40 62q78 50 149.5 43t108.5 -63q45 -66 17 -131t-105 -113z" />
    <glyph glyph-name="uni1ED0" unicode="&#x1ed0;" horiz-adv-x="1414" 
d="M710 -20q-182 0 -314.5 84.5t-204 249.5t-71.5 406q0 243 71.5 409t204 251.5t314.5 85.5t313 -85t201 -251t70 -410q0 -241 -70 -405.5t-201 -249.5t-313 -85zM710 62q162 0 272.5 72t167 218.5t56.5 367.5q0 224 -57.5 371t-168 220t-270.5 73t-272 -73.5t-171 -221
t-59 -369.5t59 -368t171 -218t272 -72zM444 1567l238 190h64l234 -190h-120l-148 120l-156 -120h-112zM852 1765l140 224h121l-176 -224h-85z" />
    <glyph glyph-name="uni1ED1" unicode="&#x1ed1;" horiz-adv-x="1110" 
d="M558 -20q-134 0 -235 58t-157 176.5t-56 299.5q0 162 48.5 283.5t148 189t251.5 67.5q133 0 232 -58.5t154.5 -178t55.5 -303.5q0 -160 -48 -280t-145.5 -187t-248.5 -67zM558 54q109 0 190 50t126 152t45 258q0 139 -39 243.5t-119 162.5t-203 58q-110 0 -192.5 -50
t-128 -153t-45.5 -261q0 -138 39.5 -241.5t121 -161t205.5 -57.5zM288 1155l238 190h64l234 -190h-120l-148 120l-156 -120h-112zM696 1353l140 224h121l-176 -224h-85z" />
    <glyph glyph-name="uni1ED2" unicode="&#x1ed2;" horiz-adv-x="1414" 
d="M710 -20q-182 0 -314.5 84.5t-204 249.5t-71.5 406q0 243 71.5 409t204 251.5t314.5 85.5t313 -85t201 -251t70 -410q0 -241 -70 -405.5t-201 -249.5t-313 -85zM710 62q162 0 272.5 72t167 218.5t56.5 367.5q0 224 -57.5 371t-168 220t-270.5 73t-272 -73.5t-171 -221
t-59 -369.5t59 -368t171 -218t272 -72zM444 1567l238 190h64l234 -190h-120l-148 120l-156 -120h-112zM961 1767l-195 224h120l160 -224h-85z" />
    <glyph glyph-name="uni1ED3" unicode="&#x1ed3;" horiz-adv-x="1110" 
d="M558 -20q-134 0 -235 58t-157 176.5t-56 299.5q0 162 48.5 283.5t148 189t251.5 67.5q133 0 232 -58.5t154.5 -178t55.5 -303.5q0 -160 -48 -280t-145.5 -187t-248.5 -67zM558 54q109 0 190 50t126 152t45 258q0 139 -39 243.5t-119 162.5t-203 58q-110 0 -192.5 -50
t-128 -153t-45.5 -261q0 -138 39.5 -241.5t121 -161t205.5 -57.5zM288 1155l238 190h64l234 -190h-120l-148 120l-156 -120h-112zM805 1355l-195 224h120l160 -224h-85z" />
    <glyph glyph-name="uni1ED4" unicode="&#x1ed4;" horiz-adv-x="1414" 
d="M710 -20q-182 0 -314.5 84.5t-204 249.5t-71.5 406q0 243 71.5 409t204 251.5t314.5 85.5t313 -85t201 -251t70 -410q0 -241 -70 -405.5t-201 -249.5t-313 -85zM710 62q162 0 272.5 72t167 218.5t56.5 367.5q0 224 -57.5 371t-168 220t-270.5 73t-272 -73.5t-171 -221
t-59 -369.5t59 -368t171 -218t272 -72zM446 1567l238 190h64l234 -190h-120l-148 120l-156 -120h-112zM886 1718l-40 60q47 30 68 69.5t0 72.5q-22 36 -67.5 33t-90.5 -33l-40 62q78 50 149.5 43t108.5 -63q45 -66 17 -131t-105 -113z" />
    <glyph glyph-name="uni1ED5" unicode="&#x1ed5;" horiz-adv-x="1110" 
d="M558 -20q-134 0 -235 58t-157 176.5t-56 299.5q0 162 48.5 283.5t148 189t251.5 67.5q133 0 232 -58.5t154.5 -178t55.5 -303.5q0 -160 -48 -280t-145.5 -187t-248.5 -67zM558 54q109 0 190 50t126 152t45 258q0 139 -39 243.5t-119 162.5t-203 58q-110 0 -192.5 -50
t-128 -153t-45.5 -261q0 -138 39.5 -241.5t121 -161t205.5 -57.5zM290 1155l238 190h64l234 -190h-120l-148 120l-156 -120h-112zM730 1306l-40 60q47 30 68 69.5t0 72.5q-22 36 -67.5 33t-90.5 -33l-40 62q78 50 149.5 43t108.5 -63q45 -66 17 -131t-105 -113z" />
    <glyph glyph-name="uni1ED6" unicode="&#x1ed6;" horiz-adv-x="1414" 
d="M710 -20q-182 0 -314.5 84.5t-204 249.5t-71.5 406q0 243 71.5 409t204 251.5t314.5 85.5t313 -85t201 -251t70 -410q0 -241 -70 -405.5t-201 -249.5t-313 -85zM710 62q162 0 272.5 72t167 218.5t56.5 367.5q0 224 -57.5 371t-168 220t-270.5 73t-272 -73.5t-171 -221
t-59 -369.5t59 -368t171 -218t272 -72zM444 1567l238 190h64l234 -190h-120l-148 120l-156 -120h-112zM482 1882l-24 66q30 24 62 41t78 17q43 0 79.5 -12.5l73 -25t79.5 -12.5q38 0 62 11t52 31l28 -70q-21 -13 -53 -29.5t-91 -16.5q-51 0 -85.5 12t-65.5 24t-71 12
q-48 0 -74.5 -17t-49.5 -31z" />
    <glyph glyph-name="uni1ED7" unicode="&#x1ed7;" horiz-adv-x="1110" 
d="M558 -20q-134 0 -235 58t-157 176.5t-56 299.5q0 162 48.5 283.5t148 189t251.5 67.5q133 0 232 -58.5t154.5 -178t55.5 -303.5q0 -160 -48 -280t-145.5 -187t-248.5 -67zM558 54q109 0 190 50t126 152t45 258q0 139 -39 243.5t-119 162.5t-203 58q-110 0 -192.5 -50
t-128 -153t-45.5 -261q0 -138 39.5 -241.5t121 -161t205.5 -57.5zM288 1155l238 190h64l234 -190h-120l-148 120l-156 -120h-112zM326 1470l-24 66q30 24 62 41t78 17q43 0 79.5 -12.5l73 -25t79.5 -12.5q38 0 62 11t52 31l28 -70q-21 -13 -53 -29.5t-91 -16.5
q-51 0 -85.5 12t-65.5 24t-71 12q-48 0 -74.5 -17t-49.5 -31z" />
    <glyph glyph-name="uni1ED8" unicode="&#x1ed8;" horiz-adv-x="1414" 
d="M710 -20q-182 0 -314.5 84.5t-204 249.5t-71.5 406q0 243 71.5 409t204 251.5t314.5 85.5t313 -85t201 -251t70 -410q0 -241 -70 -405.5t-201 -249.5t-313 -85zM710 62q162 0 272.5 72t167 218.5t56.5 367.5q0 224 -57.5 371t-168 220t-270.5 73t-272 -73.5t-171 -221
t-59 -369.5t59 -368t171 -218t272 -72zM664 -320v120h96v-120h-96zM444 1567l238 190h64l234 -190h-120l-148 120l-156 -120h-112z" />
    <glyph glyph-name="uni1ED9" unicode="&#x1ed9;" horiz-adv-x="1110" 
d="M558 -20q-134 0 -235 58t-157 176.5t-56 299.5q0 162 48.5 283.5t148 189t251.5 67.5q133 0 232 -58.5t154.5 -178t55.5 -303.5q0 -160 -48 -280t-145.5 -187t-248.5 -67zM558 54q109 0 190 50t126 152t45 258q0 139 -39 243.5t-119 162.5t-203 58q-110 0 -192.5 -50
t-128 -153t-45.5 -261q0 -138 39.5 -241.5t121 -161t205.5 -57.5zM512 -320v120h96v-120h-96zM288 1155l238 190h64l234 -190h-120l-148 120l-156 -120h-112z" />
    <glyph glyph-name="uni1EDA" unicode="&#x1eda;" horiz-adv-x="1472" 
d="M710 -20q-182 0 -314.5 84.5t-204 249.5t-71.5 406q0 243 71.5 409t204 251.5t314.5 85.5q135 0 242 -46.5t182 -138.5q34 2 57.5 13.5t38 33.5t22 57t8.5 85h102q0 -79 -20 -134.5t-59.5 -86.5t-99.5 -38q54 -91 82.5 -214t28.5 -277q0 -241 -70 -405.5t-201 -249.5
t-313 -85zM710 62q162 0 272.5 72t167 218.5t56.5 367.5q0 224 -57.5 371t-168 220t-270.5 73t-272 -73.5t-171 -221t-59 -369.5t59 -368t171 -218t272 -72zM659 1567l206 291h120l-251 -291h-75z" />
    <glyph glyph-name="uni1EDB" unicode="&#x1edb;" horiz-adv-x="1124" 
d="M522 1155l206 291h120l-251 -291h-75zM558 -20q-134 0 -235 58t-157 176.5t-56 299.5q0 162 48.5 283.5t148 189t251.5 67.5q98 0 178 -31.5t138 -95.5q39 6 62 26t34 59.5t12 101.5h102q0 -75 -17.5 -129t-53.5 -85.5t-90 -41.5q77 -131 77 -344q0 -160 -48 -280
t-145.5 -187t-248.5 -67zM558 54q109 0 190 50t126 152t45 258q0 139 -39 243.5t-119 162.5t-203 58q-110 0 -192.5 -50t-128 -153t-45.5 -261q0 -138 39.5 -241.5t121 -161t205.5 -57.5z" />
    <glyph glyph-name="uni1EDC" unicode="&#x1edc;" horiz-adv-x="1472" 
d="M710 -20q-182 0 -314.5 84.5t-204 249.5t-71.5 406q0 243 71.5 409t204 251.5t314.5 85.5q135 0 242 -46.5t182 -138.5q34 2 57.5 13.5t38 33.5t22 57t8.5 85h102q0 -79 -20 -134.5t-59.5 -86.5t-99.5 -38q54 -91 82.5 -214t28.5 -277q0 -241 -70 -405.5t-201 -249.5
t-313 -85zM710 62q162 0 272.5 72t167 218.5t56.5 367.5q0 224 -57.5 371t-168 220t-270.5 73t-272 -73.5t-171 -221t-59 -369.5t59 -368t171 -218t272 -72zM687 1567l-251 291h120l206 -291h-75z" />
    <glyph glyph-name="uni1EDD" unicode="&#x1edd;" horiz-adv-x="1124" 
d="M521 1155l-251 291h120l206 -291h-75zM558 -20q-134 0 -235 58t-157 176.5t-56 299.5q0 162 48.5 283.5t148 189t251.5 67.5q98 0 178 -31.5t138 -95.5q39 6 62 26t34 59.5t12 101.5h102q0 -75 -17.5 -129t-53.5 -85.5t-90 -41.5q77 -131 77 -344q0 -160 -48 -280
t-145.5 -187t-248.5 -67zM558 54q109 0 190 50t126 152t45 258q0 139 -39 243.5t-119 162.5t-203 58q-110 0 -192.5 -50t-128 -153t-45.5 -261q0 -138 39.5 -241.5t121 -161t205.5 -57.5z" />
    <glyph glyph-name="uni1EDE" unicode="&#x1ede;" horiz-adv-x="1472" 
d="M710 -20q-182 0 -314.5 84.5t-204 249.5t-71.5 406q0 243 71.5 409t204 251.5t314.5 85.5q135 0 242 -46.5t182 -138.5q34 2 57.5 13.5t38 33.5t22 57t8.5 85h102q0 -79 -20 -134.5t-59.5 -86.5t-99.5 -38q54 -91 82.5 -214t28.5 -277q0 -241 -70 -405.5t-201 -249.5
t-313 -85zM710 62q162 0 272.5 72t167 218.5t56.5 367.5q0 224 -57.5 371t-168 220t-270.5 73t-272 -73.5t-171 -221t-59 -369.5t59 -368t171 -218t272 -72zM748 1562l-40 60q47 30 68 69.5t0 72.5q-22 36 -67.5 33t-90.5 -33l-40 62q78 50 149.5 43t108.5 -63
q45 -66 17 -131t-105 -113z" />
    <glyph glyph-name="uni1EDF" unicode="&#x1edf;" horiz-adv-x="1124" 
d="M596 1150l-40 60q47 30 68 69.5t0 72.5q-22 36 -67.5 33t-90.5 -33l-40 62q78 50 149.5 43t108.5 -63q45 -66 17 -131t-105 -113zM558 -20q-134 0 -235 58t-157 176.5t-56 299.5q0 162 48.5 283.5t148 189t251.5 67.5q98 0 178 -31.5t138 -95.5q39 6 62 26t34 59.5
t12 101.5h102q0 -75 -17.5 -129t-53.5 -85.5t-90 -41.5q77 -131 77 -344q0 -160 -48 -280t-145.5 -187t-248.5 -67zM558 54q109 0 190 50t126 152t45 258q0 139 -39 243.5t-119 162.5t-203 58q-110 0 -192.5 -50t-128 -153t-45.5 -261q0 -138 39.5 -241.5t121 -161
t205.5 -57.5z" />
    <glyph glyph-name="uni1EE0" unicode="&#x1ee0;" horiz-adv-x="1472" 
d="M710 -20q-182 0 -314.5 84.5t-204 249.5t-71.5 406q0 243 71.5 409t204 251.5t314.5 85.5q135 0 242 -46.5t182 -138.5q34 2 57.5 13.5t38 33.5t22 57t8.5 85h102q0 -79 -20 -134.5t-59.5 -86.5t-99.5 -38q54 -91 82.5 -214t28.5 -277q0 -241 -70 -405.5t-201 -249.5
t-313 -85zM710 62q162 0 272.5 72t167 218.5t56.5 367.5q0 224 -57.5 371t-168 220t-270.5 73t-272 -73.5t-171 -221t-59 -369.5t59 -368t171 -218t272 -72zM480 1660l-24 66q30 24 62 41t78 17q43 0 79.5 -12.5l73 -25t79.5 -12.5q38 0 62 11t52 31l28 -70
q-21 -13 -53 -29.5t-91 -16.5q-51 0 -85.5 12t-65.5 24t-71 12q-48 0 -74.5 -17t-49.5 -31z" />
    <glyph glyph-name="uni1EE1" unicode="&#x1ee1;" horiz-adv-x="1124" 
d="M328 1248l-24 66q30 24 62 41t78 17q43 0 79.5 -12.5l73 -25t79.5 -12.5q38 0 62 11t52 31l28 -70q-21 -13 -53 -29.5t-91 -16.5q-51 0 -85.5 12t-65.5 24t-71 12q-48 0 -74.5 -17t-49.5 -31zM558 -20q-134 0 -235 58t-157 176.5t-56 299.5q0 162 48.5 283.5t148 189
t251.5 67.5q98 0 178 -31.5t138 -95.5q39 6 62 26t34 59.5t12 101.5h102q0 -75 -17.5 -129t-53.5 -85.5t-90 -41.5q77 -131 77 -344q0 -160 -48 -280t-145.5 -187t-248.5 -67zM558 54q109 0 190 50t126 152t45 258q0 139 -39 243.5t-119 162.5t-203 58q-110 0 -192.5 -50
t-128 -153t-45.5 -261q0 -138 39.5 -241.5t121 -161t205.5 -57.5z" />
    <glyph glyph-name="uni1EE2" unicode="&#x1ee2;" horiz-adv-x="1472" 
d="M710 -20q-182 0 -314.5 84.5t-204 249.5t-71.5 406q0 243 71.5 409t204 251.5t314.5 85.5q135 0 242 -46.5t182 -138.5q34 2 57.5 13.5t38 33.5t22 57t8.5 85h102q0 -79 -20 -134.5t-59.5 -86.5t-99.5 -38q54 -91 82.5 -214t28.5 -277q0 -241 -70 -405.5t-201 -249.5
t-313 -85zM710 62q162 0 272.5 72t167 218.5t56.5 367.5q0 224 -57.5 371t-168 220t-270.5 73t-272 -73.5t-171 -221t-59 -369.5t59 -368t171 -218t272 -72zM664 -320v120h96v-120h-96z" />
    <glyph glyph-name="uni1EE3" unicode="&#x1ee3;" horiz-adv-x="1124" 
d="M502 -320v120h96v-120h-96zM558 -20q-134 0 -235 58t-157 176.5t-56 299.5q0 162 48.5 283.5t148 189t251.5 67.5q98 0 178 -31.5t138 -95.5q39 6 62 26t34 59.5t12 101.5h102q0 -75 -17.5 -129t-53.5 -85.5t-90 -41.5q77 -131 77 -344q0 -160 -48 -280t-145.5 -187
t-248.5 -67zM558 54q109 0 190 50t126 152t45 258q0 139 -39 243.5t-119 162.5t-203 58q-110 0 -192.5 -50t-128 -153t-45.5 -261q0 -138 39.5 -241.5t121 -161t205.5 -57.5z" />
    <glyph glyph-name="uni1EE4" unicode="&#x1ee4;" horiz-adv-x="1354" 
d="M698 -20q-164 0 -270 53.5t-157 164t-51 280.5v968h86v-1002q0 -189 96.5 -288.5t295.5 -99.5q134 0 223.5 43.5t134 130t44.5 214.5v1002h78v-998q0 -157 -53 -261t-159.5 -155.5t-267.5 -51.5zM648 -316v120h96v-120h-96z" />
    <glyph glyph-name="uni1EE5" unicode="&#x1ee5;" horiz-adv-x="1132" 
d="M560 -20q-90 1 -163.5 24t-126.5 68t-81.5 113.5t-28.5 160.5v688h78v-688q0 -130 77.5 -210t239.5 -80q143 0 231 75t88 231v672h78v-1034h-72l-6 190q-18 -64 -59.5 -111.5t-105 -73.5t-149.5 -25zM510 -320v120h96v-120h-96z" />
    <glyph glyph-name="uni1EE6" unicode="&#x1ee6;" horiz-adv-x="1354" 
d="M698 -20q-164 0 -270 53.5t-157 164t-51 280.5v968h86v-1002q0 -189 96.5 -288.5t295.5 -99.5q134 0 223.5 43.5t134 130t44.5 214.5v1002h78v-998q0 -157 -53 -261t-159.5 -155.5t-267.5 -51.5zM738 1562l-40 60q47 30 68 69.5t0 72.5q-22 36 -67.5 33t-90.5 -33l-40 62
q78 50 149.5 43t108.5 -63q45 -66 17 -131t-105 -113z" />
    <glyph glyph-name="uni1EE7" unicode="&#x1ee7;" horiz-adv-x="1132" 
d="M560 -20q-90 1 -163.5 24t-126.5 68t-81.5 113.5t-28.5 160.5v688h78v-688q0 -130 77.5 -210t239.5 -80q143 0 231 75t88 231v672h78v-1034h-72l-6 190q-18 -64 -59.5 -111.5t-105 -73.5t-149.5 -25zM596 1150l-40 60q47 30 68 69.5t0 72.5q-22 36 -67.5 33t-90.5 -33
l-40 62q78 50 149.5 43t108.5 -63q45 -66 17 -131t-105 -113z" />
    <glyph glyph-name="uni1EE8" unicode="&#x1ee8;" horiz-adv-x="1520" 
d="M698 -20q-164 0 -270 53.5t-157 164t-51 280.5v968h86v-1002q0 -189 96.5 -288.5t295.5 -99.5q134 0 223.5 43.5t134 130t44.5 214.5v1002h78v-165q45 4 71 23t38.5 59.5t14.5 106.5h102q0 -89 -25 -148t-75 -86.5t-126 -25.5v-762q0 -157 -53 -261t-159.5 -155.5
t-267.5 -51.5zM649 1567l206 291h120l-251 -291h-75z" />
    <glyph glyph-name="uni1EE9" unicode="&#x1ee9;" horiz-adv-x="1188" 
d="M532 1155l206 291h120l-251 -291h-75zM560 -20q-90 1 -163.5 24t-126.5 68t-81.5 113.5t-28.5 160.5v688h78v-688q0 -130 77.5 -210t239.5 -80q143 0 231 75t88 231v672h78v-110q49 2 77.5 21t41.5 60t15 109h102q0 -91 -26 -150.5t-78 -86.5t-132 -23v-854h-72l-6 190
q-18 -64 -59.5 -111.5t-105 -73.5t-149.5 -25z" />
    <glyph glyph-name="uni1EEA" unicode="&#x1eea;" horiz-adv-x="1520" 
d="M698 -20q-164 0 -270 53.5t-157 164t-51 280.5v968h86v-1002q0 -189 96.5 -288.5t295.5 -99.5q134 0 223.5 43.5t134 130t44.5 214.5v1002h78v-165q45 4 71 23t38.5 59.5t14.5 106.5h102q0 -89 -25 -148t-75 -86.5t-126 -25.5v-762q0 -157 -53 -261t-159.5 -155.5
t-267.5 -51.5zM677 1567l-251 291h120l206 -291h-75z" />
    <glyph glyph-name="uni1EEB" unicode="&#x1eeb;" horiz-adv-x="1188" 
d="M531 1155l-251 291h120l206 -291h-75zM560 -20q-90 1 -163.5 24t-126.5 68t-81.5 113.5t-28.5 160.5v688h78v-688q0 -130 77.5 -210t239.5 -80q143 0 231 75t88 231v672h78v-110q49 2 77.5 21t41.5 60t15 109h102q0 -91 -26 -150.5t-78 -86.5t-132 -23v-854h-72l-6 190
q-18 -64 -59.5 -111.5t-105 -73.5t-149.5 -25z" />
    <glyph glyph-name="uni1EEC" unicode="&#x1eec;" horiz-adv-x="1520" 
d="M698 -20q-164 0 -270 53.5t-157 164t-51 280.5v968h86v-1002q0 -189 96.5 -288.5t295.5 -99.5q134 0 223.5 43.5t134 130t44.5 214.5v1002h78v-165q45 4 71 23t38.5 59.5t14.5 106.5h102q0 -89 -25 -148t-75 -86.5t-126 -25.5v-762q0 -157 -53 -261t-159.5 -155.5
t-267.5 -51.5zM738 1562l-40 60q47 30 68 69.5t0 72.5q-22 36 -67.5 33t-90.5 -33l-40 62q78 50 149.5 43t108.5 -63q45 -66 17 -131t-105 -113z" />
    <glyph glyph-name="uni1EED" unicode="&#x1eed;" horiz-adv-x="1188" 
d="M606 1150l-40 60q47 30 68 69.5t0 72.5q-22 36 -67.5 33t-90.5 -33l-40 62q78 50 149.5 43t108.5 -63q45 -66 17 -131t-105 -113zM560 -20q-90 1 -163.5 24t-126.5 68t-81.5 113.5t-28.5 160.5v688h78v-688q0 -130 77.5 -210t239.5 -80q143 0 231 75t88 231v672h78v-110
q49 2 77.5 21t41.5 60t15 109h102q0 -91 -26 -150.5t-78 -86.5t-132 -23v-854h-72l-6 190q-18 -64 -59.5 -111.5t-105 -73.5t-149.5 -25z" />
    <glyph glyph-name="uni1EEE" unicode="&#x1eee;" horiz-adv-x="1520" 
d="M698 -20q-164 0 -270 53.5t-157 164t-51 280.5v968h86v-1002q0 -189 96.5 -288.5t295.5 -99.5q134 0 223.5 43.5t134 130t44.5 214.5v1002h78v-165q45 4 71 23t38.5 59.5t14.5 106.5h102q0 -89 -25 -148t-75 -86.5t-126 -25.5v-762q0 -157 -53 -261t-159.5 -155.5
t-267.5 -51.5zM470 1660l-24 66q30 24 62 41t78 17q43 0 79.5 -12.5l73 -25t79.5 -12.5q38 0 62 11t52 31l28 -70q-21 -13 -53 -29.5t-91 -16.5q-51 0 -85.5 12t-65.5 24t-71 12q-48 0 -74.5 -17t-49.5 -31z" />
    <glyph glyph-name="uni1EEF" unicode="&#x1eef;" horiz-adv-x="1188" 
d="M338 1248l-24 66q30 24 62 41t78 17q43 0 79.5 -12.5l73 -25t79.5 -12.5q38 0 62 11t52 31l28 -70q-21 -13 -53 -29.5t-91 -16.5q-51 0 -85.5 12t-65.5 24t-71 12q-48 0 -74.5 -17t-49.5 -31zM560 -20q-90 1 -163.5 24t-126.5 68t-81.5 113.5t-28.5 160.5v688h78v-688
q0 -130 77.5 -210t239.5 -80q143 0 231 75t88 231v672h78v-110q49 2 77.5 21t41.5 60t15 109h102q0 -91 -26 -150.5t-78 -86.5t-132 -23v-854h-72l-6 190q-18 -64 -59.5 -111.5t-105 -73.5t-149.5 -25z" />
    <glyph glyph-name="uni1EF0" unicode="&#x1ef0;" horiz-adv-x="1520" 
d="M698 -20q-164 0 -270 53.5t-157 164t-51 280.5v968h86v-1002q0 -189 96.5 -288.5t295.5 -99.5q134 0 223.5 43.5t134 130t44.5 214.5v1002h78v-165q45 4 71 23t38.5 59.5t14.5 106.5h102q0 -89 -25 -148t-75 -86.5t-126 -25.5v-762q0 -157 -53 -261t-159.5 -155.5
t-267.5 -51.5zM648 -316v120h96v-120h-96z" />
    <glyph glyph-name="uni1EF1" unicode="&#x1ef1;" horiz-adv-x="1188" 
d="M510 -320v120h96v-120h-96zM560 -20q-90 1 -163.5 24t-126.5 68t-81.5 113.5t-28.5 160.5v688h78v-688q0 -130 77.5 -210t239.5 -80q143 0 231 75t88 231v672h78v-110q49 2 77.5 21t41.5 60t15 109h102q0 -91 -26 -150.5t-78 -86.5t-132 -23v-854h-72l-6 190
q-18 -64 -59.5 -111.5t-105 -73.5t-149.5 -25z" />
    <glyph glyph-name="Ygrave" unicode="&#x1ef2;" horiz-adv-x="1094" 
d="M513 0v624l-485 822h88l436 -744l428 744h86l-476 -824v-622h-77zM523 1571l-251 291h120l206 -291h-75z" />
    <glyph glyph-name="ygrave" unicode="&#x1ef3;" horiz-adv-x="1014" 
d="M225 -330q-76 0 -100 8l-24 8v54h109q48 0 83 10t59.5 27t40.5 40.5t27 50.5l53 138l-405 1028h84l363 -922l355 922h76l-452 -1184q-26 -65 -65 -104.5t-90.5 -57.5t-113.5 -18zM490 1155l-251 291h120l206 -291h-75z" />
    <glyph glyph-name="uni1EF4" unicode="&#x1ef4;" horiz-adv-x="1094" 
d="M513 0v624l-485 822h88l436 -744l428 744h86l-476 -824v-622h-77zM504 -320v120h96v-120h-96z" />
    <glyph glyph-name="uni1EF5" unicode="&#x1ef5;" horiz-adv-x="1014" 
d="M225 -330q-76 0 -100 8l-24 8v54h109q48 0 83 10t59.5 27t40.5 40.5t27 50.5l53 138l-405 1028h84l363 -922l355 922h76l-452 -1184q-26 -65 -65 -104.5t-90.5 -57.5t-113.5 -18zM675 -336v120h96v-120h-96z" />
    <glyph glyph-name="uni1EF6" unicode="&#x1ef6;" horiz-adv-x="1094" 
d="M513 0v624l-485 822h88l436 -744l428 744h86l-476 -824v-622h-77zM584 1566l-40 60q47 30 68 69.5t0 72.5q-22 36 -67.5 33t-90.5 -33l-40 62q78 50 149.5 43t108.5 -63q45 -66 17 -131t-105 -113z" />
    <glyph glyph-name="uni1EF7" unicode="&#x1ef7;" horiz-adv-x="1014" 
d="M225 -330q-76 0 -100 8l-24 8v54h109q48 0 83 10t59.5 27t40.5 40.5t27 50.5l53 138l-405 1028h84l363 -922l355 922h76l-452 -1184q-26 -65 -65 -104.5t-90.5 -57.5t-113.5 -18zM551 1150l-40 60q47 30 68 69.5t0 72.5q-22 36 -67.5 33t-90.5 -33l-40 62q78 50 149.5 43
t108.5 -63q45 -66 17 -131t-105 -113z" />
    <glyph glyph-name="uni1EF8" unicode="&#x1ef8;" horiz-adv-x="1094" 
d="M513 0v624l-485 822h88l436 -744l428 744h86l-476 -824v-622h-77zM316 1664l-24 66q30 24 62 41t78 17q43 0 79.5 -12.5l73 -25t79.5 -12.5q38 0 62 11t52 31l28 -70q-21 -13 -53 -29.5t-91 -16.5q-51 0 -85.5 12t-65.5 24t-71 12q-48 0 -74.5 -17t-49.5 -31z" />
    <glyph glyph-name="uni1EF9" unicode="&#x1ef9;" horiz-adv-x="1014" 
d="M225 -330q-76 0 -100 8l-24 8v54h109q48 0 83 10t59.5 27t40.5 40.5t27 50.5l53 138l-405 1028h84l363 -922l355 922h76l-452 -1184q-26 -65 -65 -104.5t-90.5 -57.5t-113.5 -18zM283 1248l-24 66q30 24 62 41t78 17q43 0 79.5 -12.5l73 -25t79.5 -12.5q38 0 62 11t52 31
l28 -70q-21 -13 -53 -29.5t-91 -16.5q-51 0 -85.5 12t-65.5 24t-71 12q-48 0 -74.5 -17t-49.5 -31z" />
    <glyph glyph-name="endash" unicode="&#x2013;" horiz-adv-x="1036" 
d="M127 466v78l782 2v-78z" />
    <glyph glyph-name="emdash" unicode="&#x2014;" horiz-adv-x="2170" 
d="M381 466v78l1408 2v-78z" />
    <glyph glyph-name="quoteleft" unicode="&#x2018;" horiz-adv-x="432" 
d="M135 1130v136l138 246h64l-106 -224h70v-158h-166z" />
    <glyph glyph-name="quoteright" unicode="&#x2019;" horiz-adv-x="402" 
d="M100 1064l106 224h-70v158h166v-136l-138 -246h-64z" />
    <glyph glyph-name="quotesinglbase" unicode="&#x201a;" horiz-adv-x="412" 
d="M80 -222l106 222h-70v160h166v-136l-138 -246h-64z" />
    <glyph glyph-name="quotedblleft" unicode="&#x201c;" horiz-adv-x="718" 
d="M135 1064v138l140 244h64l-108 -222h70v-160h-166zM421 1064v138l138 244h64l-108 -222h72v-160h-166z" />
    <glyph glyph-name="quotedblright" unicode="&#x201d;" horiz-adv-x="686" 
d="M384 1064l108 224h-70v158h164v-136l-138 -246h-64zM100 1064l106 224h-70v158h166v-136l-138 -246h-64z" />
    <glyph glyph-name="quotedblbase" unicode="&#x201e;" horiz-adv-x="704" 
d="M372 -222l106 222h-70v160h166v-136l-138 -246h-64zM80 -222l106 222h-70v160h166v-136l-138 -246h-64z" />
    <glyph glyph-name="dagger" unicode="&#x2020;" horiz-adv-x="788" 
d="M344 -322l18 1150l-362 -12v92l356 -10l-12 548h104l-14 -548l354 10v-92l-360 12l20 -1150h-104z" />
    <glyph glyph-name="daggerdbl" unicode="&#x2021;" horiz-adv-x="788" 
d="M344 -322l12 548l-356 -10v94l362 -14v532l-362 -12v92l356 -10l-12 548h104l-14 -548l354 10v-92l-360 12v-532l360 14v-94l-354 10l14 -548h-104z" />
    <glyph glyph-name="bullet" unicode="&#x2022;" horiz-adv-x="560" 
d="M280 594q-39 0 -70.5 19t-50.5 51.5t-19 71.5t19 71t50.5 50.5t70.5 18.5t71 -18.5t50.5 -50.5t18.5 -71t-18.5 -71.5t-50.5 -51.5t-71 -19z" />
    <glyph glyph-name="ellipsis" unicode="&#x2026;" horiz-adv-x="1281" 
d="M1040 0v154h121v-154h-121zM120 0v154h121v-154h-121zM580 0v154h121v-154h-121z" />
    <glyph glyph-name="perthousand" unicode="&#x2030;" horiz-adv-x="2513" 
d="M334 -8l977 1470h73l-972 -1470h-78zM440 638q-93 0 -165 49t-113.5 142t-41.5 225q0 133 41.5 225t113.5 140.5t165 48.5t164.5 -48.5t111.5 -140.5t40 -225q0 -132 -40 -225t-111.5 -142t-164.5 -49zM438 696q115 0 183.5 92t68.5 266t-68.5 265t-183.5 91
t-183.5 -91.5t-68.5 -264.5q0 -172 68.5 -265t183.5 -93zM1302 -20q-93 0 -165.5 47t-113.5 140t-41 231q0 135 41 227t113.5 139.5t165.5 47.5t164.5 -47.5t111.5 -139.5t40 -227q0 -138 -40 -231t-111.5 -140t-164.5 -47zM1300 38q115 0 183.5 92t68.5 266t-68.5 265
t-183.5 91t-183.5 -91.5t-68.5 -264.5q0 -172 68.5 -265t183.5 -93zM2077 -20q-93 0 -165.5 47t-113.5 140t-41 231q0 135 41 227t113.5 139.5t165.5 47.5t164.5 -47.5t111.5 -139.5t40 -227q0 -138 -40 -231t-111.5 -140t-164.5 -47zM2075 38q115 0 183.5 92t68.5 266
t-68.5 265t-183.5 91t-183.5 -91.5t-68.5 -264.5q0 -172 68.5 -265t183.5 -93z" />
    <glyph glyph-name="guilsinglleft" unicode="&#x2039;" horiz-adv-x="494" 
d="M346 152l-286 350l288 366h56l-240 -366l236 -350h-54z" />
    <glyph glyph-name="guilsinglright" unicode="&#x203a;" horiz-adv-x="492" 
d="M94 152l236 350l-240 366h54l288 -366l-286 -350h-52z" />
    <glyph glyph-name="fraction" unicode="&#x2044;" horiz-adv-x="454" 
d="M-215 -8h-78l977 1470h73z" />
    <glyph glyph-name="uni2070" unicode="&#x2070;" horiz-adv-x="713" 
d="M355 731q-143 0 -220 120t-77 342q0 226 78 349.5t220 123.5q144 0 221.5 -123t77.5 -347q0 -222 -77.5 -343.5t-222.5 -121.5zM358 792q116 0 173 101t57 303q0 205 -58 307t-174 102q-115 0 -174 -103t-59 -306q0 -200 59 -302t176 -102z" />
    <glyph glyph-name="uni2074" unicode="&#x2074;" horiz-adv-x="750" 
d="M481 744v260h-432v67l430 583h63v-590h159v-60h-159v-260h-61zM115 1064h362v487z" />
    <glyph glyph-name="uni2075" unicode="&#x2075;" horiz-adv-x="749" 
d="M383 731q-120 0 -209.5 71t-115.5 188h66q29 -94 99 -147.5t163 -53.5q112 0 177 68t65 186q0 113 -70 175.5t-160 62.5q-70 0 -125 -20t-111 -100v2.5v0.5h-66l41 490h506v-59h-446l-26 -345q38 45 95 67.5t132 22.5q73 0 140 -33t110 -99t43 -164q0 -141 -84.5 -227
t-223.5 -86z" />
    <glyph glyph-name="uni2076" unicode="&#x2076;" horiz-adv-x="722" 
d="M375 733q-148 0 -232.5 122t-84.5 335q0 228 86 353t244 125q69 0 125.5 -27t95 -75.5t51.5 -115.5h-60q-19 74 -76 116.5t-136 42.5q-139 0 -207 -112t-64 -335q27 82 96.5 132t156.5 50q137 0 215.5 -80t78.5 -219q0 -95 -35 -165.5t-99.5 -108.5t-154.5 -38zM379 794
q99 0 159 68.5t60 180.5q0 116 -57 178t-164 62q-63 0 -115.5 -29.5t-83.5 -78.5t-32 -108q-2 -119 63.5 -196t169.5 -77z" />
    <glyph glyph-name="uni2077" unicode="&#x2077;" horiz-adv-x="679" 
d="M209 746q20 91 68 231.5t123 302.5t173 317h-524v59h601v-56q-67 -99 -129.5 -220t-113.5 -243t-86 -225t-48 -166h-64z" />
    <glyph glyph-name="uni2078" unicode="&#x2078;" horiz-adv-x="798" 
d="M398 733q-149 0 -239.5 71t-90.5 187q0 51 25.5 100t67 85.5t89.5 49.5q-71 30 -106.5 79t-35.5 119q0 110 80.5 177t209.5 67q130 0 210 -67t80 -177q0 -70 -34.5 -119t-105.5 -79q49 -13 90 -49.5t66.5 -85.5t25.5 -100q0 -116 -91 -187t-241 -71zM398 792
q121 0 193.5 53.5t72.5 141.5q0 90 -74 147t-192 57q-117 0 -190.5 -57t-73.5 -147q0 -88 72 -141.5t192 -53.5zM398 1257q107 0 165.5 44.5t58.5 125.5q0 83 -60.5 132t-163.5 49q-102 0 -163 -49.5t-61 -131.5q0 -81 59 -125.5t165 -44.5z" />
    <glyph glyph-name="uni2079" unicode="&#x2079;" horiz-adv-x="729" 
d="M335 733q-70 0 -128 27t-97 75.5t-52 113.5h60q20 -70 79 -113.5t138 -43.5q140 0 210 113.5t67 333.5q-27 -82 -95.5 -132t-157.5 -50q-135 0 -213.5 80.5t-78.5 218.5q0 96 35 166t99.5 108t152.5 38q148 0 232.5 -123t84.5 -335q0 -225 -88 -351t-248 -126zM353 1117
q63 0 115 29.5t83.5 79.5t32.5 109q2 118 -63.5 195t-169.5 77q-98 0 -158.5 -68t-60.5 -181q0 -118 57 -179.5t164 -61.5z" />
    <glyph glyph-name="colonmonetary" unicode="&#x20a1;" horiz-adv-x="1318" 
d="M694 -20q-187 0 -315 83.5t-193.5 248t-65.5 408.5t65.5 410t193.5 251t315 85q143 0 252 -61.5t174.5 -160.5t77.5 -210h-88q-19 94 -71.5 173.5t-138.5 128t-206 48.5q-162 0 -270 -73.5t-162 -221t-54 -369.5q0 -333 121 -495.5t365 -162.5q120 0 206 48t138.5 127.5
t71.5 173.5h88q-9 -82 -49 -159.5t-105.5 -138.5t-154 -97t-195.5 -36zM404 -122l320 1682h74l-320 -1682h-74zM608 -122l320 1682h74l-320 -1682h-74z" />
    <glyph glyph-name="franc" unicode="&#x20a3;" horiz-adv-x="1184" 
d="M204 0v1446h860v-78h-770v-624h712v-78h-712v-666h-90zM10 294v74l638 2v-74z" />
    <glyph glyph-name="lira" unicode="&#x20a4;" horiz-adv-x="1156" 
d="M20 0v76h82q77 -1 133.5 82t56.5 260q0 17 -1 37t-3 47q-2 10 -16 10h-218v74h222l-38 220h-184v74h170l-8 42q-34 205 9 324t139 169.5t220 50.5q82 0 154.5 -28t124.5 -71t71 -89l-74 -38q-36 68 -100 105t-172 37q-85 0 -155.5 -32.5t-112.5 -94t-42 -149.5
q0 -30 8 -85.5t20 -124.5q3 -16 20 -16l360 2v-74l-366 -2l38 -220l328 2v-74h-316q7 -71 -1.5 -151.5t-35 -155.5t-73.5 -129h426q108 0 180 36.5t108 129.5l72 -30q-45 -108 -137 -161t-223 -53h-666z" />
    <glyph glyph-name="uni20A6" unicode="&#x20a6;" horiz-adv-x="1378" 
d="M218 0v1446h64l870 -1290v1290h78v-1446h-68l-866 1286v-1286h-78zM10 554v74l1358 2v-74zM10 866v74l1358 2v-74z" />
    <glyph glyph-name="uni20A9" unicode="&#x20a9;" horiz-adv-x="1878" 
d="M455 0l-406 1446h87l371 -1348l383 1348h79l377 -1348l384 1348h86l-416 -1446h-109l-363 1296l-370 -1296h-103zM30 554v74l1818 2v-74zM30 866v74l1818 2v-74z" />
    <glyph glyph-name="dong" unicode="&#x20ab;" horiz-adv-x="962" 
d="M458 246q-101 0 -184.5 47t-133.5 141t-50 234q0 136 48 238.5t135 160t203 57.5q95 0 147 -31t89 -63q15 -12 18.5 -8.5t3.5 18.5v404h74v-1182h-70v128q-14 -17 -45.5 -51.5t-88.5 -63.5t-146 -29zM128 0v68h690v-68h-690zM474 322q75 0 132.5 33.5t89.5 82t32 94.5
v400q-54 54 -114 83t-132 29q-132 0 -217 -97t-85 -273q0 -121 41 -199t108 -115.5t145 -37.5zM430 1238v68h502v-68h-502z" />
    <glyph glyph-name="Euro" unicode="&#x20ac;" horiz-adv-x="1094" 
d="M722 -20q-142 0 -252 49t-186 143.5t-115 232t-39 313.5q0 236 69 403.5t198.5 256t312.5 88.5q80 0 158.5 -25.5t145.5 -72.5l-56 -76q-52 41 -112.5 65.5t-131.5 24.5q-159 0 -268 -75.5t-164.5 -223.5t-55.5 -365q0 -210 55.5 -356t167.5 -222t281 -76q71 0 133 20
t113 54l48 -68q-64 -42 -141 -66t-161 -24zM-40 534v74l736 2v-74zM-40 846v74l736 2v-74z" />
    <glyph glyph-name="uni20B9" unicode="&#x20b9;" horiz-adv-x="1052" 
d="M722 0l-262 712h-460v78h348q210 0 314 70.5t104 239.5q0 134 -86.5 201t-263.5 67h-416v78h418q210 0 327 -86.5t117 -257.5q0 -119 -46 -193.5t-114.5 -115.5t-135.5 -61q-12 -3 -8 -14l262 -718h-98zM4 1060v74l1018 2v-74zM4 1372v74l1018 2v-74z" />
    <glyph glyph-name="uni20BA" unicode="&#x20ba;" horiz-adv-x="958" 
d="M202 0v1446h90v-1368h122q153 0 260 84.5t180 283.5l84 -22q-33 -106 -85 -185.5t-119.5 -132.5t-148 -79.5t-169.5 -26.5h-214zM58 400l-28 84l560 204l32 -84zM58 726l-28 84l560 204l32 -84z" />
    <glyph glyph-name="uni2113" unicode="&#x2113;" horiz-adv-x="882" 
d="M472 -12q-130 0 -197.5 97.5t-75.5 294.5l-107 -74l-42 66l152 108v558q0 148 41 242.5t108.5 140t146.5 45.5q77 0 131 -37.5t82.5 -104t28.5 -152.5q0 -109 -42.5 -210t-111.5 -194t-149.5 -176t-156.5 -156q0 -208 49.5 -293t142.5 -85q71 0 124.5 31.5t115.5 132.5
l50 -29q-29 -55 -60.5 -94t-67 -63.5t-75.5 -36t-87 -11.5zM280 538q53 46 119 114t126.5 153.5t99.5 184t39 204.5q0 93 -43.5 141.5t-124.5 48.5q-69 0 -117 -38.5t-73.5 -128t-25.5 -243.5v-436z" />
    <glyph glyph-name="uni2116" unicode="&#x2116;" horiz-adv-x="2270" 
d="M220 0v1446h64l870 -1290v1290h78v-1446h-68l-866 1286v-1286h-78zM1860 794q-96 0 -162.5 42.5t-101 117.5t-34.5 172q0 101 36 177t103 118.5t159 42.5q94 0 161 -42.5t103 -118.5t36 -177q0 -97 -34.5 -172t-101.5 -117.5t-164 -42.5zM1860 858q109 0 165 75t56 199
q0 117 -56 190.5t-165 73.5q-108 0 -163 -73.5t-55 -190.5q0 -124 55 -199t163 -75z" />
    <glyph glyph-name="uni2117" unicode="&#x2117;" horiz-adv-x="1606" 
d="M804 -20q-154 0 -289 57.5t-237.5 159.5t-160 237t-57.5 290q0 153 57.5 287.5t160 236.5t237.5 160t289 58q153 0 287.5 -58t236.5 -160t160 -236.5t58 -287.5q0 -155 -58 -290t-160 -237t-236.5 -159.5t-287.5 -57.5zM804 66q129 0 246.5 46.5t209.5 132.5t145 207.5
t53 271.5q0 148 -53 269t-145 208t-209.5 134t-246.5 47q-133 0 -251.5 -47t-209.5 -134t-143 -208t-52 -269q0 -150 52 -271.5t143 -207.5t209.5 -132.5t251.5 -46.5zM558 328v780h272q82 0 145 -21t99 -65t36 -114q0 -124 -77.5 -185t-196.5 -61h-200v-334h-78zM636 732
h200q80 0 137 37.5t57 118.5q0 89 -58 119.5t-144 30.5h-192v-306z" />
    <glyph glyph-name="uni2120" unicode="&#x2120;" horiz-adv-x="1908" 
d="M982 0v904h55l338 -849l344 849h54v-904h-54v770l-307 -770h-73l-304 760v-760h-53zM403 -13q-85 0 -154.5 27t-115 79.5t-58.5 127.5h55q20 -91 98 -138t175 -47q109 0 183 53.5t74 141.5q0 62 -36.5 104t-125.5 68l-202 58q-82 24 -137.5 72t-55.5 146q0 69 37.5 122
t103.5 83.5t149 30.5q100 0 167.5 -37.5t101.5 -94.5t33 -118h-55q-7 76 -44 120t-91 62.5t-114 18.5q-112 0 -174 -54t-62 -133q0 -70 42.5 -108t118.5 -60l207 -60q109 -31 149 -91.5t40 -128.5t-37 -123.5t-106 -88t-166 -32.5z" />
    <glyph glyph-name="trademark" unicode="&#x2122;" horiz-adv-x="1744" 
d="M818 0v904h55l338 -849l344 849h54v-904h-54v770l-307 -770h-73l-304 760v-760h-53zM336 0v854h-310v50h645v-50h-285v-854h-50z" />
    <glyph glyph-name="uni2126" unicode="&#x2126;" horiz-adv-x="1528" 
d="M214 0v84h350q-14 11 -61 45t-108 92.5t-119.5 143t-97 197t-38.5 254.5q0 135 40.5 258.5t120 220.5t196 153t267.5 56q152 0 268 -56.5t195.5 -153t120 -219.5t40.5 -257q0 -116 -22.5 -209.5t-73 -176.5t-132 -166.5t-200.5 -181.5h354v-84h-468v90q56 40 131.5 101
t147 147.5t118.5 202.5t47 265q0 113 -31.5 221.5t-96 197t-163.5 141t-235 52.5t-235 -52.5t-163.5 -141t-96 -197t-31.5 -221.5q0 -147 46.5 -266.5t144.5 -228t253 -221.5v-90h-468z" />
    <glyph glyph-name="uni2153" unicode="&#x2153;" horiz-adv-x="1666" 
d="M236 536v758h-187v59q122 -1 160 17.5t37 75.5h54v-910h-64zM271 -8h-78l977 1470h73zM1274 -14q-124 2 -208 75.5t-88 184.5h65q11 -91 75 -145t162 -54q114 0 183.5 53t69.5 140q0 95 -74.5 150.5t-200.5 55.5h-79v60h79q67 0 123 26t90.5 68t34.5 91q0 62 -55.5 114
t-168.5 52q-53 0 -104.5 -23t-85 -69t-32.5 -116h-64q-1 77 36 137.5t101.5 96t145.5 35.5q88 0 153 -28.5t101 -79.5t36 -119t-44 -123t-124 -87q95 -29 146 -90t51 -147q0 -78 -41 -136.5t-113.5 -90.5t-169.5 -31z" />
    <glyph glyph-name="uni2154" unicode="&#x2154;" horiz-adv-x="1953" 
d="M71 536v56v27q0 83 35 140t89.5 98.5t116.5 76.5t116.5 72.5t89.5 87.5t35 121q0 82 -58 131.5t-155 49.5q-101 0 -163 -56.5t-65 -151.5h-63q1 72 35.5 133.5t100.5 99t160 37.5q122 0 195.5 -67t73.5 -177q0 -83 -34.5 -140t-89 -98.5t-116 -76t-116 -72t-89 -87
t-34.5 -121.5v-22h490v-61h-554zM558 -8h-78l977 1470h73zM1561 -14q-124 2 -208 75.5t-88 184.5h65q11 -91 75 -145t162 -54q114 0 183.5 53t69.5 140q0 95 -74.5 150.5t-200.5 55.5h-79v60h79q67 0 123 26t90.5 68t34.5 91q0 62 -55.5 114t-168.5 52q-53 0 -104.5 -23
t-85 -69t-32.5 -116h-64q-1 77 36 137.5t101.5 96t145.5 35.5q88 0 153 -28.5t101 -79.5t36 -119t-44 -123t-124 -87q95 -29 146 -90t51 -147q0 -78 -41 -136.5t-113.5 -90.5t-169.5 -31z" />
    <glyph glyph-name="oneeighth" unicode="&#x215b;" horiz-adv-x="1708" 
d="M236 536v758h-187v59q122 -1 160 17.5t37 75.5h54v-910h-64zM271 -8h-78l977 1470h73zM1308 -12q-149 0 -239.5 71t-90.5 187q0 51 25.5 100t67 85.5t89.5 49.5q-71 30 -106.5 79t-35.5 119q0 110 80.5 177t209.5 67q130 0 210 -67t80 -177q0 -70 -34.5 -119t-105.5 -79
q49 -13 90 -49.5t66.5 -85.5t25.5 -100q0 -116 -91 -187t-241 -71zM1308 47q121 0 193.5 53.5t72.5 141.5q0 90 -74 147t-192 57q-117 0 -190.5 -57t-73.5 -147q0 -88 72 -141.5t192 -53.5zM1308 512q107 0 165.5 44.5t58.5 125.5q0 83 -60.5 132t-163.5 49
q-102 0 -163 -49.5t-61 -131.5q0 -81 59 -125.5t165 -44.5z" />
    <glyph glyph-name="threeeighths" unicode="&#x215c;" horiz-adv-x="1958" 
d="M364 526q-124 2 -208 75.5t-88 184.5h65q11 -91 75 -145t162 -54q114 0 183.5 53t69.5 140q0 95 -74.5 150.5t-200.5 55.5h-79v60h79q67 0 123 26t90.5 68t34.5 91q0 62 -55.5 114t-168.5 52q-53 0 -104.5 -23t-85 -69t-32.5 -116h-64q-1 77 36 137.5t101.5 96
t145.5 35.5q88 0 153 -28.5t101 -79.5t36 -119t-44 -123t-124 -87q95 -29 146 -90t51 -147q0 -78 -41 -136.5t-113.5 -90.5t-169.5 -31zM521 -8h-78l977 1470h73zM1558 -12q-149 0 -239.5 71t-90.5 187q0 51 25.5 100t67 85.5t89.5 49.5q-71 30 -106.5 79t-35.5 119
q0 110 80.5 177t209.5 67q130 0 210 -67t80 -177q0 -70 -34.5 -119t-105.5 -79q49 -13 90 -49.5t66.5 -85.5t25.5 -100q0 -116 -91 -187t-241 -71zM1558 47q121 0 193.5 53.5t72.5 141.5q0 90 -74 147t-192 57q-117 0 -190.5 -57t-73.5 -147q0 -88 72 -141.5t192 -53.5z
M1558 512q107 0 165.5 44.5t58.5 125.5q0 83 -60.5 132t-163.5 49q-102 0 -163 -49.5t-61 -131.5q0 -81 59 -125.5t165 -44.5z" />
    <glyph glyph-name="fiveeighths" unicode="&#x215d;" horiz-adv-x="1951" 
d="M383 523q-120 0 -209.5 71t-115.5 188h66q29 -94 99 -147.5t163 -53.5q112 0 177 68t65 186q0 113 -70 175.5t-160 62.5q-70 0 -125 -20t-111 -100v2.5v0.5h-66l41 490h506v-59h-446l-26 -345q38 45 95 67.5t132 22.5q73 0 140 -33t110 -99t43 -164q0 -141 -84.5 -227
t-223.5 -86zM514 -8h-78l977 1470h73zM1551 -12q-149 0 -239.5 71t-90.5 187q0 51 25.5 100t67 85.5t89.5 49.5q-71 30 -106.5 79t-35.5 119q0 110 80.5 177t209.5 67q130 0 210 -67t80 -177q0 -70 -34.5 -119t-105.5 -79q49 -13 90 -49.5t66.5 -85.5t25.5 -100
q0 -116 -91 -187t-241 -71zM1551 47q121 0 193.5 53.5t72.5 141.5q0 90 -74 147t-192 57q-117 0 -190.5 -57t-73.5 -147q0 -88 72 -141.5t192 -53.5zM1551 512q107 0 165.5 44.5t58.5 125.5q0 83 -60.5 132t-163.5 49q-102 0 -163 -49.5t-61 -131.5q0 -81 59 -125.5
t165 -44.5z" />
    <glyph glyph-name="seveneighths" unicode="&#x215e;" horiz-adv-x="1766" 
d="M209 536q20 91 68 231.5t123 302.5t173 317h-524v59h601v-56q-67 -99 -129.5 -220t-113.5 -243t-86 -225t-48 -166h-64zM329 -8h-78l977 1470h73zM1366 -12q-149 0 -239.5 71t-90.5 187q0 51 25.5 100t67 85.5t89.5 49.5q-71 30 -106.5 79t-35.5 119q0 110 80.5 177
t209.5 67q130 0 210 -67t80 -177q0 -70 -34.5 -119t-105.5 -79q49 -13 90 -49.5t66.5 -85.5t25.5 -100q0 -116 -91 -187t-241 -71zM1366 47q121 0 193.5 53.5t72.5 141.5q0 90 -74 147t-192 57q-117 0 -190.5 -57t-73.5 -147q0 -88 72 -141.5t192 -53.5zM1366 512
q107 0 165.5 44.5t58.5 125.5q0 83 -60.5 132t-163.5 49q-102 0 -163 -49.5t-61 -131.5q0 -81 59 -125.5t165 -44.5z" />
    <glyph glyph-name="partialdiff" unicode="&#x2202;" horiz-adv-x="1150" 
d="M556 -20q-130 0 -230.5 60t-158 162.5t-57.5 231.5q0 128 57.5 221.5t166 144t260.5 50.5q73 0 125.5 -11.5t98 -34t98.5 -54.5q15 -7 19.5 -5.5t4.5 7.5q0 161 -29 279.5t-84 196t-135 115t-182 37.5q-100 0 -165 -30.5t-125 -71.5l-34 58q36 41 95 70t128.5 44.5
t136.5 15.5q155 0 265.5 -81.5t169.5 -244t59 -406.5q0 -242 -57.5 -410.5t-166 -256t-260.5 -87.5zM538 64h2q102 0 188 61.5t143 172t71 258.5q3 32 1 46t-13 24q-34 39 -93.5 71t-130.5 50.5t-140 18.5q-106 0 -187.5 -43.5t-128 -120t-46.5 -174.5q0 -99 45 -181.5
t121 -132.5t168 -50z" />
    <glyph glyph-name="emptyset" unicode="&#x2205;" horiz-adv-x="1122" 
d="M184 314l-54 54l812 744l50 -54zM562 340q-107 0 -194.5 52.5t-139.5 140.5t-52 195q0 106 52 193.5t139.5 140t194.5 52.5q106 0 194 -52.5t141 -140t53 -193.5q0 -107 -53 -195t-141 -140.5t-194 -52.5zM562 410q88 0 160 43t115 115t43 160q0 86 -43 158t-115 115
t-160 43t-159.5 -43t-114 -115t-42.5 -158q0 -88 42.5 -160t114 -115t159.5 -43z" />
    <glyph glyph-name="uni2206" unicode="&#x2206;" horiz-adv-x="1272" 
d="M40 0l594 1446l598 -1446h-1192zM162 84h944l-472 1126z" />
    <glyph glyph-name="product" unicode="&#x220f;" horiz-adv-x="1228" 
d="M246 0v1366h-216v80h1168v-80h-218v-1366h-88v1366h-556v-1366h-90z" />
    <glyph glyph-name="summation" unicode="&#x2211;" horiz-adv-x="970" 
d="M50 0v66l442 658l-412 652v70h814v-78h-702l402 -642l-432 -648h768v-78h-880z" />
    <glyph glyph-name="minus" unicode="&#x2212;" horiz-adv-x="1042" 
d="M130 688v74l782 2v-74z" />
    <glyph glyph-name="uni2215" unicode="&#x2215;" horiz-adv-x="1160" 
d="M183 -8h-78l877 1470h73z" />
    <glyph glyph-name="uni2219" unicode="&#x2219;" horiz-adv-x="564" 
d="M282 642q-39 0 -65.5 27.5t-26.5 66.5t26.5 65.5t65.5 26.5t65.5 -26.5t26.5 -65.5t-26.5 -66.5t-65.5 -27.5z" />
    <glyph glyph-name="radical" unicode="&#x221a;" horiz-adv-x="1160" 
d="M558 -322l-358 966l-144 -58l-26 72l234 90l336 -958l490 1860h80l-516 -1972h-96z" />
    <glyph glyph-name="infinity" unicode="&#x221e;" horiz-adv-x="1346" 
d="M378 242q-75 0 -138.5 36.5t-101.5 102.5t-38 155t38 155t105.5 102.5t154.5 36.5q64 0 109 -19.5t81 -53t74 -75.5q15 -13 22.5 -13t19.5 13q29 32 66 66.5t86.5 58t117.5 23.5q78 0 139.5 -34.5t97 -98t35.5 -151.5v-2q0 -96 -39.5 -163.5t-105 -103t-143.5 -35.5
q-64 0 -110.5 22t-84 59t-75.5 81q-9 11 -14 12.5t-16 -12.5q-11 -12 -34 -38t-57.5 -55t-81.5 -49t-107 -20zM380 330h6q50 0 95.5 25.5t82 61.5t60.5 69q21 29 20 43t-24 47q-52 80 -109.5 126t-132.5 46q-85 0 -139.5 -57t-54.5 -149q0 -94 57.5 -153t138.5 -59zM980 330
q59 0 99 31.5t60.5 79.5t20.5 99q0 83 -50 145.5t-136 62.5h-2q-78 0 -137 -53.5t-107 -110.5q-21 -25 -17 -47t17 -37q53 -75 101 -111t87 -47.5t64 -11.5z" />
    <glyph glyph-name="integral" unicode="&#x222b;" horiz-adv-x="822" 
d="M238 -342q-55 0 -90.5 4.5t-66.5 17t-71 36.5l30 86q56 -30 94.5 -42t89.5 -12q74 0 133 54.5t59 171.5q0 171 -15.5 342t-36.5 342t-36.5 342t-15.5 342q0 108 38 181t100 110t134 37q55 0 91 -4.5t67 -17t70 -36.5l-30 -86q-55 30 -94 42t-90 12q-78 0 -138 -54.5
t-60 -171.5q0 -169 15.5 -340.5t35.5 -344t35.5 -344t15.5 -339.5q0 -108 -37.5 -181t-98 -110t-128.5 -37z" />
    <glyph glyph-name="approxequal" unicode="&#x2248;" horiz-adv-x="1068" 
d="M154 816l-24 64q39 35 90.5 64.5t133.5 29.5q53 0 98 -13.5t88 -30.5t87.5 -30.5t96.5 -13.5q78 0 119.5 27t68.5 55l26 -70q-21 -25 -73.5 -53.5t-142.5 -28.5q-55 0 -98.5 12.5t-83.5 29.5t-83 29.5t-97 12.5q-76 0 -125 -26t-81 -58zM154 442l-24 66q39 35 90.5 63.5
t133.5 28.5q53 0 98 -13.5t88 -30.5t87.5 -30.5t96.5 -13.5q78 0 119.5 27.5t68.5 54.5l26 -68q-21 -25 -73.5 -54.5t-142.5 -29.5q-58 0 -103 13t-84.5 30t-81 30t-93.5 13q-76 0 -125 -26.5t-81 -59.5z" />
    <glyph glyph-name="notequal" unicode="&#x2260;" horiz-adv-x="1042" 
d="M244 168l476 1056h68l-472 -1056h-72zM130 884v74l782 2v-74zM130 454v74l782 2v-74z" />
    <glyph glyph-name="lessequal" unicode="&#x2264;" horiz-adv-x="1042" 
d="M910 508l-764 304v94l766 308v-96l-646 -258l644 -260v-92zM130 164v74l782 -2v-74z" />
    <glyph glyph-name="greaterequal" unicode="&#x2265;" horiz-adv-x="1042" 
d="M132 508v92l646 260l-648 258v96l766 -308v-94zM130 162v74l782 2v-74z" />
    <glyph glyph-name="lozenge" unicode="&#x25ca;" horiz-adv-x="842" 
d="M366 0l-296 722l308 724h96l298 -720l-308 -726h-98zM422 82l252 640l-252 644l-254 -634z" />
    <glyph glyph-name="i.loclTRK" horiz-adv-x="438" 
d="M180 0v1034h78v-1034h-78zM170 1326v120h96v-120h-96z" />
    <glyph glyph-name="g.ss01" horiz-adv-x="1167" 
d="M581 -338q-70 0 -135.5 18t-119 53.5t-91 88t-52.5 120.5h84q32 -109 122 -158.5t192 -51.5q130 -2 208 41t113.5 110.5t36.5 140.5l2 168q-46 -94 -136.5 -137t-207.5 -43q-109 0 -196 37t-148 103t-94.5 155.5t-37.5 194.5q-4 113 25.5 212t89.5 175.5t148 119.5
t201 43q96 0 167 -34.5t115 -80t60 -77.5l3 172h67l10 -1004q1 -122 -53.5 -203.5t-151 -122t-221.5 -40.5zM599 86q138 0 211 42t99.5 106t25.5 130l-5 344q-1 61 -48 123.5t-125 104.5t-172 42q-122 0 -207.5 -60.5t-130 -167.5t-44.5 -248q0 -123 49.5 -216.5
t138.5 -146.5t208 -53z" />
    <glyph glyph-name="l.ss01" horiz-adv-x="498" 
d="M210 0v1486h78v-1486h-78z" />
    <glyph glyph-name="zero.osf" horiz-adv-x="1158" 
d="M577 -22q-213 0 -342.5 181.5t-129.5 556.5q0 253 60 419.5t166.5 248.5t247.5 82q212 0 343 -184t131 -562q0 -376 -131.5 -559t-344.5 -183zM581 60q180 0 279 157t99 503q0 350 -100.5 507t-279.5 157q-178 0 -281 -158t-103 -506q0 -345 103 -502.5t283 -157.5z" />
    <glyph glyph-name="one.osf" horiz-adv-x="771" 
d="M400 0v1218h-300v78q135 0 203 14.5t90.5 47.5t22.5 88h70v-1446h-86z" />
    <glyph glyph-name="two.osf" horiz-adv-x="1115" 
d="M136 0v82v44q0 112 42 194t111 143.5t151.5 112t164.5 99.5t151 105t111 129t42 173q0 135 -95 217.5t-254 82.5q-175 0 -271 -96.5t-101 -237.5h-88q4 112 59 207t158 153t250 58q128 0 224 -48t149 -135t53 -203q0 -113 -42 -194.5t-110.5 -142.5t-150.5 -111
t-164.5 -98.5t-151 -104.5t-110.5 -129t-42 -174v-44h788v-82h-874z" />
    <glyph glyph-name="three.osf" horiz-adv-x="1191" 
d="M574 -12q-125 2 -229 53t-168.5 141.5t-71.5 211.5h89q20 -145 123.5 -234.5t266.5 -89.5q124 0 217 40.5t145 113t52 168.5q0 113 -61 188t-163.5 112.5t-225.5 37.5h-122v82h122q113 0 205 43.5t146.5 113.5t54.5 149q0 68 -40.5 131.5t-122 104t-205.5 40.5
q-86 0 -170 -37.5t-139 -112t-55 -186.5h-88q0 125 62 219t164 146.5t222 52.5q139 0 242 -45t160.5 -125.5t57.5 -187.5q0 -108 -74 -199t-214 -141q110 -30 184 -85t111 -130t37 -165q0 -91 -36 -167t-103.5 -131t-162 -84t-210.5 -28z" />
    <glyph glyph-name="four.osf" horiz-adv-x="1201" 
d="M796 0v418h-696v98l688 930h90v-946h256v-82h-256v-418h-82zM184 500h604v812z" />
    <glyph glyph-name="five.osf" horiz-adv-x="1212" 
d="M619 -22q-125 0 -231 50.5t-180 141t-103 210.5h92q31 -97 91.5 -170t145.5 -113.5t189 -40.5q179 0 287.5 109t108.5 307q0 123 -53.5 210.5t-139.5 134.5t-184 47q-73 0 -136.5 -13t-122.5 -53t-119 -122v0v0h-99l64 770h798v-80h-714l-45 -586q64 89 162.5 125.5
t211.5 36.5q117 0 223.5 -52t174 -156t67.5 -260q0 -148 -61 -259.5t-171 -174t-256 -62.5z" />
    <glyph glyph-name="six.osf" horiz-adv-x="1170" 
d="M609 -22q-151 0 -264.5 85t-176.5 247.5t-63 395.5q0 227 57.5 398t174 266.5t292.5 95.5q104 0 192.5 -40t150 -115t85.5 -181h-81q-31 114 -122 186t-225 72q-152 0 -254 -85t-150 -258.5t-38 -438.5q21 99 80.5 175.5t145.5 119.5t189 43q139 0 243 -55.5t162 -161
t58 -255.5q0 -148 -53.5 -259t-155.5 -173t-247 -62zM615 60q108 0 189.5 51t126.5 143t45 214q0 118 -38.5 206.5t-119.5 138t-207 49.5q-98 0 -185 -46.5t-141 -127t-54 -182.5q-2 -125 45.5 -226t134.5 -160.5t204 -59.5z" />
    <glyph glyph-name="seven.osf" horiz-adv-x="1150" 
d="M358 0q25 110 75.5 267t125.5 341t173 378.5t216 379.5h-848v80h950v-80q-86 -126 -167 -276t-153 -307t-130 -305t-97.5 -272t-56.5 -206h-88z" />
    <glyph glyph-name="eight.osf" horiz-adv-x="1249" 
d="M623 -22q-157 0 -273.5 50.5t-180.5 141.5t-64 212q0 85 44 165t114.5 136.5t149.5 70.5q-110 42 -177 124t-67 206q0 121 60 206.5t163 130.5t231 45q130 0 232.5 -45t162 -130.5t59.5 -206.5q0 -124 -65.5 -206t-176.5 -124q79 -14 149.5 -70.5t115 -136.5t44.5 -165
q0 -121 -64 -212t-181 -141.5t-276 -50.5zM623 56q196 0 314.5 87.5t118.5 232.5q0 96 -54 171t-151 118t-228 43q-129 0 -225.5 -43t-150.5 -118t-54 -171q0 -145 118.5 -232.5t311.5 -87.5zM623 798q166 0 266 76t100 214t-101 218t-265 80q-163 0 -264 -80.5t-101 -217.5
q0 -138 101 -214t264 -76z" />
    <glyph glyph-name="nine.osf" horiz-adv-x="1180" 
d="M543 -22q-104 0 -195 39t-155 113t-88 180h82q32 -114 127.5 -184t228.5 -70q152 0 256.5 84.5t155 257.5t40.5 438q-21 -99 -80.5 -175t-145.5 -119.5t-188 -43.5q-139 0 -243 55.5t-161.5 161t-57.5 255.5q0 148 53 259.5t154.5 174t246.5 62.5q151 0 264 -85.5
t175.5 -248.5t62.5 -396q0 -227 -59.5 -397.5t-178 -265.5t-294.5 -95zM571 580q99 0 185.5 46.5t140.5 127t54 182.5q2 125 -45.5 226.5t-134.5 161.5t-204 60q-107 0 -188.5 -51.5t-126.5 -144t-45 -214.5q0 -177 87.5 -285.5t276.5 -108.5z" />
    <glyph glyph-name="zero.tf" horiz-adv-x="1400" 
d="M698 -22q-213 0 -342.5 181.5t-129.5 556.5q0 253 60 419.5t166.5 248.5t247.5 82q212 0 343 -184t131 -562q0 -376 -131.5 -559t-344.5 -183zM702 60q180 0 279 157t99 503q0 350 -100.5 507t-279.5 157q-178 0 -281 -158t-103 -506q0 -345 103 -502.5t283 -157.5z" />
    <glyph glyph-name="one.tf" horiz-adv-x="1400" 
d="M691 2v1356l-448 -196v90l450 196h84v-1446h-86zM219 0v82h1038v-82h-1038z" />
    <glyph glyph-name="two.tf" horiz-adv-x="1400" 
d="M296 0v82v44q0 112 42 194t111 143.5t151.5 112t164.5 99.5t151 105t111 129t42 173q0 135 -95 217.5t-254 82.5q-175 0 -271 -96.5t-101 -237.5h-88q4 112 59 207t158 153t250 58q128 0 224 -48t149 -135t53 -203q0 -113 -42 -194.5t-110.5 -142.5t-150.5 -111
t-164.5 -98.5t-151 -104.5t-110.5 -129t-42 -174v-44h788v-82h-874z" />
    <glyph glyph-name="three.tf" horiz-adv-x="1400" 
d="M687 -22q-125 2 -229 53t-168.5 141.5t-71.5 211.5h89q20 -145 123.5 -234.5t266.5 -89.5q124 0 217 40.5t145 113t52 168.5q0 113 -61 188t-163.5 112.5t-225.5 37.5h-122v82h122q113 0 205 43.5t146.5 113.5t54.5 149q0 68 -40.5 131.5t-122 104t-205.5 40.5
q-86 0 -170 -37.5t-139 -112t-55 -186.5h-88q0 125 62 219t164 146.5t222 52.5q139 0 242 -45t160.5 -125.5t57.5 -187.5q0 -108 -74 -199t-214 -141q110 -30 184 -85t111 -130t37 -165q0 -91 -36 -167t-103.5 -131t-162 -84t-210.5 -28z" />
    <glyph glyph-name="four.tf" horiz-adv-x="1400" 
d="M877 0v418h-696v98l688 930h90v-946h256v-82h-256v-418h-82zM265 500h604v812z" />
    <glyph glyph-name="five.tf" horiz-adv-x="1400" 
d="M725 -22q-125 0 -231 50.5t-180 141t-103 210.5h92q31 -97 91.5 -170t145.5 -113.5t189 -40.5q179 0 287.5 109t108.5 307q0 123 -53.5 210.5t-139.5 134.5t-184 47q-73 0 -136.5 -13t-122.5 -53t-119 -122v0v0h-99l64 770h798v-80h-714l-45 -586q64 89 162.5 125.5
t211.5 36.5q117 0 223.5 -52t174 -156t67.5 -260q0 -148 -61 -259.5t-171 -174t-256 -62.5z" />
    <glyph glyph-name="six.tf" horiz-adv-x="1400" 
d="M725 -22q-151 0 -264.5 85t-176.5 247.5t-63 395.5q0 227 57.5 398t174 266.5t292.5 95.5q104 0 192.5 -40t150 -115t85.5 -181h-81q-31 114 -122 186t-225 72q-152 0 -254 -85t-150 -258.5t-38 -438.5q21 99 80.5 175.5t145.5 119.5t189 43q139 0 243 -55.5t162 -161
t58 -255.5q0 -148 -53.5 -259t-155.5 -173t-247 -62zM731 60q108 0 189.5 51t126.5 143t45 214q0 118 -38.5 206.5t-119.5 138t-207 49.5q-98 0 -185 -46.5t-141 -127t-54 -182.5q-2 -125 45.5 -226t134.5 -160.5t204 -59.5z" />
    <glyph glyph-name="seven.tf" horiz-adv-x="1400" 
d="M436 0q25 110 92 267t163.5 341t210.5 378.5t232 379.5h-962v80h1070v-80q-86 -126 -177.5 -276t-179 -307t-161 -305t-123.5 -272t-67 -206h-98z" />
    <glyph glyph-name="eight.tf" horiz-adv-x="1400" 
d="M699 -22q-157 0 -273.5 50.5t-180.5 141.5t-64 212q0 85 44 165t114.5 136.5t149.5 70.5q-110 42 -177 124t-67 206q0 121 60 206.5t163 130.5t231 45q130 0 232.5 -45t162 -130.5t59.5 -206.5q0 -124 -65.5 -206t-176.5 -124q79 -14 149.5 -70.5t115 -136.5t44.5 -165
q0 -121 -64 -212t-181 -141.5t-276 -50.5zM699 56q196 0 314.5 87.5t118.5 232.5q0 96 -54 171t-151 118t-228 43q-129 0 -225.5 -43t-150.5 -118t-54 -171q0 -145 118.5 -232.5t311.5 -87.5zM699 798q166 0 266 76t100 214t-101 218t-265 80q-163 0 -264 -80.5t-101 -217.5
q0 -138 101 -214t264 -76z" />
    <glyph glyph-name="nine.tf" horiz-adv-x="1400" 
d="M659 -22q-104 0 -195 39t-155 113t-88 180h82q32 -114 127.5 -184t228.5 -70q152 0 256.5 84.5t155 257.5t40.5 438q-21 -99 -80.5 -175t-145.5 -119.5t-188 -43.5q-139 0 -243 55.5t-161.5 161t-57.5 255.5q0 148 53 259.5t154.5 174t246.5 62.5q151 0 264 -85.5
t175.5 -248.5t62.5 -396q0 -227 -59.5 -397.5t-178 -265.5t-294.5 -95zM687 580q99 0 185.5 46.5t140.5 127t54 182.5q2 125 -45.5 226.5t-134.5 161.5t-204 60q-107 0 -188.5 -51.5t-126.5 -144t-45 -214.5q0 -177 87.5 -285.5t276.5 -108.5z" />
    <glyph glyph-name="zero.subs" horiz-adv-x="713" 
d="M355 -345q-143 0 -220 120t-77 342q0 226 78 349.5t220 123.5q144 0 221.5 -123t77.5 -347q0 -222 -77.5 -343.5t-222.5 -121.5zM358 -284q116 0 173 101t57 303q0 205 -58 307t-174 102q-115 0 -174 -103t-59 -306q0 -200 59 -302t176 -102z" />
    <glyph glyph-name="one.subs" horiz-adv-x="446" 
d="M236 -331v758h-187v59q122 -1 160 17.5t37 75.5h54v-910h-64z" />
    <glyph glyph-name="two.subs" horiz-adv-x="683" 
d="M71 -332v56v27q0 83 35 140t89.5 98.5t116.5 76.5t116.5 72.5t89.5 87.5t35 121q0 82 -58 131.5t-155 49.5q-101 0 -163 -56.5t-65 -151.5h-63q1 72 35.5 133.5t100.5 99t160 37.5q122 0 195.5 -67t73.5 -177q0 -83 -34.5 -140t-89 -98.5t-116 -76t-116 -72t-89 -87
t-34.5 -121.5v-22h490v-61h-554z" />
    <glyph glyph-name="three.subs" horiz-adv-x="756" 
d="M364 -344q-124 2 -208 75.5t-88 184.5h65q11 -91 75 -145t162 -54q114 0 183.5 53t69.5 140q0 95 -74.5 150.5t-200.5 55.5h-79v60h79q67 0 123 26t90.5 68t34.5 91q0 62 -55.5 114t-168.5 52q-53 0 -104.5 -23t-85 -69t-32.5 -116h-64q-1 77 36 137.5t101.5 96
t145.5 35.5q88 0 153 -28.5t101 -79.5t36 -119t-44 -123t-124 -87q95 -29 146 -90t51 -147q0 -78 -41 -136.5t-113.5 -90.5t-169.5 -31z" />
    <glyph glyph-name="four.subs" horiz-adv-x="750" 
d="M481 -329v260h-432v67l430 583h63v-590h159v-60h-159v-260h-61zM115 -9h362v487z" />
    <glyph glyph-name="five.subs" horiz-adv-x="749" 
d="M383 -343q-120 0 -209.5 71t-115.5 188h66q29 -94 99 -147.5t163 -53.5q112 0 177 68t65 186q0 113 -70 175.5t-160 62.5q-70 0 -125 -20t-111 -100v2.5v0.5h-66l41 490h506v-59h-446l-26 -345q38 45 95 67.5t132 22.5q73 0 140 -33t110 -99t43 -164q0 -141 -84.5 -227
t-223.5 -86z" />
    </font>
</defs>
</svg>
