<?xml version="1.0" standalone="no"?>
<!DOCTYPE svg PUBLIC "-//W3C//DTD SVG 1.1//EN" "http://www.w3.org/Graphics/SVG/1.1/DTD/svg11.dtd" >
<svg xmlns="http://www.w3.org/2000/svg" xmlns:xlink="http://www.w3.org/1999/xlink" version="1.1">
<metadata>
Created by FontForge 20190801 at Fri Apr 29 23:32:12 2022
 By www-data
Copyright 2015 The Public Sans Project Authors (https://github.com/uswds/public-sans)
</metadata>
<defs>
<font id="PublicSansBoldItalic" horiz-adv-x="0" >
  <font-face 
    font-family="PublicSansBoldItalic"
    font-weight="700"
    font-style="italic"
    font-stretch="normal"
    units-per-em="2000"
    panose-1="0 0 0 0 0 0 0 0 0 0"
    ascent="1600"
    descent="-400"
    x-height="1034"
    cap-height="1446"
    bbox="-407 -480 2386 2180"
    underline-thickness="140"
    underline-position="-440"
    slope="-8"
    unicode-range="U+000D-FB02"
  />
<missing-glyph horiz-adv-x="1580" 
d="M354 1652h918q36 0 36 -42v-1876q0 -56 -66 -56h-872q-31 0 -42.5 12t-11.5 36v1880q0 46 38 46zM1206 -114v1634q0 34 -31 34h-685zM418 1433v-1617q0 -19 9.5 -29.5t34.5 -10.5h671z" />
    <glyph glyph-name="fi" unicode="fi" horiz-adv-x="1312" 
d="M157 0l122 831h-185l31 203h184l22 149q19 125 101 194t213 69h233l-28 -194h-131q-54 0 -78.5 -27.5t-34.5 -90.5l-14 -100h216l-30 -203h-211l-123 -831h-287zM834 0l146 1034h277l-146 -1034h-277zM998 1183l37 263h282l-37 -263h-282z" />
    <glyph glyph-name="fl" unicode="fl" horiz-adv-x="1428" 
d="M157 0l122 831h-185l31 203h184l22 149q19 125 101 194t213 69h233l-28 -194h-131q-54 0 -78.5 -27.5t-34.5 -90.5l-14 -100h216l-30 -203h-211l-123 -831h-287zM1151 -18q-112 0 -173.5 27t-86.5 71.5t-26 99t7 110.5l177 1196h284l-172 -1160q-8 -57 10.5 -92.5
t83.5 -43.5l45 -3l-26 -180q-31 -10 -63 -17.5t-60 -7.5z" />
    <glyph glyph-name=".notdef" horiz-adv-x="1580" 
d="M354 1652h918q36 0 36 -42v-1876q0 -56 -66 -56h-872q-31 0 -42.5 12t-11.5 36v1880q0 46 38 46zM1206 -114v1634q0 34 -31 34h-685zM418 1433v-1617q0 -19 9.5 -29.5t34.5 -10.5h671z" />
    <glyph glyph-name="uni0000" horiz-adv-x="53" 
 />
    <glyph glyph-name="uni0000" horiz-adv-x="53" 
 />
    <glyph glyph-name="nonmarkingreturn" horiz-adv-x="666" 
 />
    <glyph glyph-name="CR" unicode="&#xd;" horiz-adv-x="476" 
 />
    <glyph glyph-name="space" unicode=" " horiz-adv-x="451" 
 />
    <glyph glyph-name="exclam" unicode="!" horiz-adv-x="560" 
d="M165 446l67 1000h338l-224 -1000h-181zM29 0l47 312h314l-47 -312h-314z" />
    <glyph glyph-name="quotedbl" unicode="&#x22;" horiz-adv-x="954" 
d="M671 886l9 560h293l-158 -560h-144zM234 886l9 560h293l-158 -560h-144z" />
    <glyph glyph-name="numbersign" unicode="#" horiz-adv-x="1195" 
d="M808 -5l-154 21l214 1433l152 -15zM67 450v152h1043v-152h-1043zM383 -5l-153 21l214 1433l151 -15zM131 860v152h1043v-152h-1043z" />
    <glyph glyph-name="dollar" unicode="$" horiz-adv-x="1331" 
d="M612 -20q-253 0 -396 104.5t-133 322.5l301 6q9 -99 77.5 -150.5t184.5 -51.5q69 0 125.5 23.5t92.5 64t43 92.5q13 80 -30.5 119.5t-142.5 63.5l-222 51q-156 33 -237.5 131.5t-58.5 264.5q19 136 106.5 235.5t220.5 153.5t289 54q159 0 267 -58.5t156.5 -157
t27.5 -217.5l-292 -5q1 64 -16 110t-58 71t-116 25q-77 0 -135 -22.5t-93.5 -62.5t-42.5 -92q-9 -63 26.5 -99.5t143.5 -67.5l218 -57q184 -47 252 -161t44 -277q-18 -125 -98.5 -218t-210 -144t-293.5 -51zM459 -191l38 260h249l-39 -260h-248zM698 1393l39 260h249
l-39 -260h-249z" />
    <glyph glyph-name="percent" unicode="%" horiz-adv-x="1745" 
d="M385 -8l-167 3l1166 1467h164zM449 648q-86 0 -150.5 43.5t-100.5 119t-36 170.5q0 64 24 147t73.5 160.5t125.5 128.5t179 51q84 0 147 -44.5t98.5 -121t35.5 -172.5q0 -78 -26.5 -162.5t-78 -157t-124.5 -117.5t-167 -45zM467 796q55 0 90 39.5t55.5 98.5t29 119.5
t8.5 102.5q0 78 -25.5 121.5t-83.5 43.5q-52 0 -87.5 -40t-56.5 -100t-30 -121t-9 -102q0 -76 25.5 -119t83.5 -43zM1227 -20q-85 0 -149.5 43.5t-100 119t-35.5 169.5q0 80 27.5 165.5t80 159t126.5 119.5t166 46q85 0 148.5 -45t99 -121t35.5 -172q0 -78 -27 -162.5
t-78 -157.5t-125 -118.5t-168 -45.5zM1245 130q55 0 90 39t55.5 98t29 119.5t8.5 101.5q0 78 -25.5 121.5t-83.5 43.5q-51 0 -86.5 -40.5t-56.5 -100t-29.5 -120.5t-8.5 -101q0 -75 24.5 -118t82.5 -43z" />
    <glyph glyph-name="ampersand" unicode="&#x26;" horiz-adv-x="1530" 
d="M471 -10q-155 0 -248.5 47.5t-130.5 131.5t-20 194q14 99 65 175.5t139.5 141t216.5 128.5q-42 57 -73 106t-44.5 100.5t-3.5 115.5q14 96 78.5 172.5t165 121t224.5 44.5q119 0 211 -39.5t139.5 -110t33.5 -164.5q-10 -64 -54 -128.5t-122 -129.5t-191 -128l176 -266
q18 31 44.5 80t53 110.5t43.5 128.5h296q-38 -89 -94.5 -173t-117.5 -162.5t-113 -151.5l229 -334h-330l-98 142q-127 -85 -249 -118.5t-226 -33.5zM575 213q56 0 128 25.5t129 74.5l-224 329q-82 -45 -145.5 -111.5t-65.5 -151.5q-1 -80 54.5 -123t123.5 -43zM759 915
q76 45 120.5 82.5t64.5 72.5t25 71q8 53 -10.5 86.5t-54 49t-79.5 13.5q-68 -2 -113 -42.5t-53 -97.5q-4 -33 4 -67t25 -65.5t38 -59.5z" />
    <glyph glyph-name="quotesingle" unicode="'" horiz-adv-x="517" 
d="M234 886l9 560h293l-158 -560h-144z" />
    <glyph glyph-name="parenleft" unicode="(" horiz-adv-x="663" 
d="M271 -286q-60 140 -101 276.5t-53 283.5t13 318q38 249 147.5 476.5t260.5 413.5h204q-128 -195 -224 -424.5t-131 -467.5q-33 -227 -9 -438.5t95 -437.5h-202z" />
    <glyph glyph-name="parenright" unicode=")" horiz-adv-x="669" 
d="M-89 -288q129 196 224.5 425t130.5 467q34 229 9.5 439.5t-96.5 436.5h203q60 -140 100.5 -276.5t53 -283.5t-12.5 -318q-38 -248 -147 -475.5t-262 -414.5h-203z" />
    <glyph glyph-name="asterisk" unicode="*" horiz-adv-x="946" 
d="M381 649l-156 109l206 247l-294 82l62 170l278 -121l-23 310h191l-27 -311l283 124l54 -170l-286 -83l202 -242l-157 -110l-166 274z" />
    <glyph glyph-name="plus" unicode="+" horiz-adv-x="1155" 
d="M433 256l140 945h210l-140 -945h-210zM131 621l32 213h920l-32 -213h-920z" />
    <glyph glyph-name="comma" unicode="," horiz-adv-x="552" 
d="M-18 -280l153 272l-99 9l43 283h289l-37 -249l-243 -315h-106z" />
    <glyph glyph-name="hyphen" unicode="-" horiz-adv-x="772" 
d="M105 408l30 213h531l-30 -212z" />
    <glyph glyph-name="period" unicode="." horiz-adv-x="537" 
d="M26 0l49 318h314l-48 -318h-315z" />
    <glyph glyph-name="slash" unicode="/" horiz-adv-x="756" 
d="M-55 -37l711 1483h201l-711 -1483h-201z" />
    <glyph glyph-name="zero" unicode="0" horiz-adv-x="1267" 
d="M559 -22q-257 0 -374.5 191t-67.5 550q33 240 123 407t225 253.5t304 86.5q254 0 372.5 -192.5t67.5 -553.5q-51 -359 -222 -550.5t-428 -191.5zM593 217q125 0 199 115.5t112 386.5q39 277 -3 397t-166 120t-200.5 -121t-116.5 -396q-37 -270 6 -386t169 -116z" />
    <glyph glyph-name="one" unicode="1" horiz-adv-x="847" 
d="M255 0l162 1083h-251l24 165q121 0 199.5 23.5t122 68t60.5 106.5h190l-215 -1446h-292z" />
    <glyph glyph-name="two" unicode="2" horiz-adv-x="1248" 
d="M39 0l20 144l11 74q18 128 84 217t158.5 151.5t194 110.5t192 94t152 102t72.5 134q12 87 -38.5 142t-151.5 55q-71 0 -131.5 -28t-106 -84.5t-68.5 -140.5h-277q21 138 98 250.5t209 178.5t317 66q160 0 267.5 -55t156 -153t29.5 -229q-18 -127 -82 -214t-154 -145.5
t-188.5 -102t-186.5 -85.5t-147.5 -94t-69.5 -129l-2 -13h719l-35 -246h-1042z" />
    <glyph glyph-name="three" unicode="3" horiz-adv-x="1308" 
d="M553 -22q-171 1 -283.5 57.5t-161.5 161.5t-30 250h278q4 -123 69 -178t164 -55q87 0 152.5 26t106 72.5t48.5 106.5q9 62 -19 107t-85 70.5t-135 27.5l-134 5l32 232l124 7q76 3 135.5 29t96.5 69.5t44 98.5q8 53 -18.5 92t-79.5 61t-125 22q-67 0 -126.5 -23
t-103 -75.5t-61.5 -140.5h-277q22 156 109 259t216.5 154.5t280.5 51.5q158 0 276.5 -42t178.5 -128t40 -218q-15 -107 -87 -188.5t-215 -129.5q75 -22 134.5 -67t90 -115t17.5 -168q-15 -106 -73 -187t-147 -136t-199.5 -82t-232.5 -27z" />
    <glyph glyph-name="four" unicode="4" horiz-adv-x="1283" 
d="M656 0l48 320h-645l36 240l769 886h283l-129 -881h215l-37 -245h-217l-47 -320h-276zM362 565h379l78 530z" />
    <glyph glyph-name="five" unicode="5" horiz-adv-x="1326" 
d="M611 -22q-141 0 -253.5 44t-189.5 120.5t-108 175.5l245 135q29 -68 68.5 -122.5t98 -86t142.5 -31.5q125 0 211 69t102 180q10 70 -16.5 125.5t-82.5 87.5t-136 32q-43 0 -81.5 -7.5t-80.5 -28t-95 -58.5q-16 -6 -21.5 -6t-18.5 7l-196 98l168 734h910l-45 -239h-670
l-75 -349q84 45 157 65t158 20q142 0 246 -54.5t154.5 -159.5t29.5 -256q-21 -153 -104.5 -264t-215.5 -171t-301 -60z" />
    <glyph glyph-name="six" unicode="6" horiz-adv-x="1298" 
d="M595 -22q-181 0 -299.5 89t-166 250t-16.5 378q33 238 129 411t242 266.5t332 93.5q134 0 239.5 -49.5t163.5 -143t47 -224.5h-265q-13 91 -66.5 138.5t-145.5 47.5q-100 0 -175 -59t-118.5 -165t-50.5 -247q40 48 94 81.5t117.5 51.5t129.5 18q143 0 243.5 -54.5
t147 -154.5t27.5 -234q-19 -142 -103.5 -253.5t-215 -176t-290.5 -64.5zM617 202q67 0 126.5 32.5t100.5 90.5t51 133q11 80 -13.5 133t-75 79.5t-119.5 26.5q-59 0 -118.5 -27.5t-101 -70t-47.5 -86.5q-14 -97 6.5 -166.5t70 -107t120.5 -37.5z" />
    <glyph glyph-name="seven" unicode="7" horiz-adv-x="1226" 
d="M260 0q20 88 71 222.5t134 298t200 339.5t268 347h-750l36 239h1052l-38 -239q-78 -86 -162.5 -203t-165.5 -250t-150 -269t-117.5 -261t-66.5 -224h-311z" />
    <glyph glyph-name="eight" unicode="8" horiz-adv-x="1318" 
d="M583 -21q-171 0 -292 51.5t-179 146.5t-40 224q12 83 62 157.5t119 126t136 65.5q-81 42 -130 120t-34 189q19 132 98.5 222.5t201.5 137.5t267 47t254 -47t163 -137.5t35 -222.5q-15 -111 -86 -189t-163 -120q63 -14 117 -65.5t84 -126t18 -157.5q-18 -129 -102.5 -224
t-220.5 -146.5t-308 -51.5zM614 199q123 0 201 57.5t91 152.5q9 64 -15.5 112.5t-80 76.5t-136.5 28t-144 -28t-101.5 -76.5t-47.5 -112.5q-13 -95 49.5 -152.5t183.5 -57.5zM707 863q95 0 165.5 53.5t83.5 148.5q13 94 -42 149t-150 55t-164.5 -55t-83.5 -149
q-13 -95 42 -148.5t149 -53.5z" />
    <glyph glyph-name="nine" unicode="9" horiz-adv-x="1295" 
d="M533 -22q-133 0 -240.5 52t-166.5 146.5t-49 221.5h275q6 -84 58.5 -136.5t143.5 -52.5q100 0 183 49t136.5 156t66.5 280q-35 -53 -88.5 -92.5t-121 -61t-145.5 -21.5q-144 0 -247 55.5t-152 158t-29 243.5q20 142 102 253t211 174t289 63q181 0 299 -87.5t165.5 -248
t16.5 -377.5q-36 -259 -132 -431.5t-242.5 -258t-332.5 -85.5zM667 751q59 0 118.5 27.5t101.5 69.5t48 87q14 97 -6.5 166.5t-70 106.5t-121.5 37q-66 0 -123 -32t-95 -90t-49 -134q-16 -113 39.5 -175.5t157.5 -62.5z" />
    <glyph glyph-name="colon" unicode=":" horiz-adv-x="543" 
d="M130 696l46 313h316l-47 -313h-315zM27 6l47 312h316l-47 -312h-316z" />
    <glyph glyph-name="semicolon" unicode=";" horiz-adv-x="560" 
d="M-16 -309l172 309h-110l46 314h315l-41 -278l-266 -345h-116zM144 687l47 318h315l-47 -318h-315z" />
    <glyph glyph-name="less" unicode="&#x3c;" horiz-adv-x="1136" 
d="M968 208l-845 357l36 242l952 360l-37 -251l-618 -232l549 -225z" />
    <glyph glyph-name="equal" unicode="=" horiz-adv-x="1160" 
d="M162 811l32 213l921 1l-32 -213zM94 354l32 213h921l-32 -213h-921z" />
    <glyph glyph-name="greater" unicode="&#x3e;" horiz-adv-x="1137" 
d="M74 208l38 251l617 225l-551 232l38 251l846 -360l-36 -242z" />
    <glyph glyph-name="question" unicode="?" horiz-adv-x="1044" 
d="M362 452q16 110 60.5 190.5t101 141t111.5 111.5t95 102.5t49 113.5q11 71 -34.5 113t-123.5 42q-52 0 -104 -23.5t-97 -65.5t-75 -99l-236 60q86 158 226.5 243t318.5 85q139 0 237 -46t144 -123t32 -171q-15 -98 -63 -167t-111.5 -123.5t-127 -108t-111.5 -119
t-61 -156.5h-231zM253 0l47 312h315l-47 -312h-315z" />
    <glyph glyph-name="at" unicode="@" horiz-adv-x="1614" 
d="M707 -220q-174 0 -302.5 57t-209.5 157.5t-112 232.5t-8 282q23 158 98 298.5t193 249t271 170t332 61.5q128 0 244.5 -36t203 -112t126.5 -194.5t16 -284.5q-23 -148 -87.5 -261.5t-158 -177.5t-203.5 -64q-82 0 -119.5 29t-50.5 64q-5 12 -8.5 11.5t-14.5 -11.5
q-50 -52 -118.5 -86.5t-152.5 -34.5q-80 0 -139 42.5t-85 120.5t-10 182q18 120 80 223t157 165.5t211 62.5q80 0 122.5 -29t69.5 -71q3 -5 7.5 -3.5t8.5 10.5l16 43h164l-133 -430q-22 -71 -9 -97t48 -26q45 0 92 36.5t84.5 109t53.5 180.5q20 135 -9 226.5t-94 147
t-152.5 80.5t-185.5 25q-155 0 -275.5 -49t-206.5 -134.5t-138 -196.5t-70 -236q-20 -135 4.5 -242.5t90.5 -183.5t170 -115.5t243 -39.5q87 0 150 16t115 43t105 60l68 -119q-81 -61 -209 -106t-283 -45zM725 307q54 0 102.5 33.5t84.5 87t49 113.5q14 62 3.5 109t-40.5 74
t-75 27q-54 0 -103 -34.5t-83.5 -92.5t-45.5 -129q-11 -78 14.5 -133t93.5 -55z" />
    <glyph glyph-name="A" unicode="A" horiz-adv-x="1421" 
d="M-16 0l717 1446h303l287 -1446h-287l-63 335h-503l-165 -335h-289zM541 590h369l-98 574z" />
    <glyph glyph-name="B" unicode="B" horiz-adv-x="1343" 
d="M89 0l214 1446h511q277 0 396 -98t92 -283q-16 -106 -80.5 -185.5t-210.5 -138.5q85 -24 133.5 -62.5t70.5 -86t25 -99.5t-5 -103q-29 -199 -175 -294.5t-435 -95.5h-536zM413 226h251q125 0 198 53.5t86 142.5q9 64 -16 107t-75.5 65t-118.5 22h-268zM503 848h268
q43 0 84 10.5t75.5 32.5t57.5 57t30 82q15 94 -45.5 142t-165.5 48h-249z" />
    <glyph glyph-name="C" unicode="C" horiz-adv-x="1412" 
d="M658 -20q-181 0 -304 79.5t-183 226t-50 347.5q8 168 59 318.5t145.5 266.5t232 182t315.5 66q157 0 270 -62t173.5 -174.5t59.5 -262.5h-303q-2 75 -30 133.5t-81.5 92t-134.5 33.5q-99 0 -170.5 -51t-118.5 -137.5t-71.5 -194.5t-31.5 -223q-13 -208 52.5 -304
t197.5 -96q80 0 143.5 38.5t108.5 102t69 139.5h303q-28 -103 -77.5 -196.5t-127 -166.5t-187 -115t-259.5 -42z" />
    <glyph glyph-name="D" unicode="D" horiz-adv-x="1419" 
d="M90 0l207 1446q11 0 69 -0.5t132 -0.5q143 0 272 -11.5t237 -44t187 -95.5t122.5 -165.5t43.5 -253.5q0 -86 -15 -183.5t-50.5 -195.5t-97.5 -187t-156 -158.5t-224.5 -110t-304.5 -40.5h-422zM417 236h122q126 0 223 49.5t164 136.5t101 201.5t34 246.5q0 121 -43 195.5
t-123.5 109.5t-194.5 35h-140z" />
    <glyph glyph-name="E" unicode="E" horiz-adv-x="1255" 
d="M89 0l215 1446h968l-38 -246h-677l-51 -351h585l-35 -241h-588l-53 -359l689 -1l-38 -248h-977z" />
    <glyph glyph-name="F" unicode="F" horiz-adv-x="1213" 
d="M89 0l215 1446h959l-38 -244h-667l-53 -363h577l-36 -239h-577l-88 -600h-292z" />
    <glyph glyph-name="G" unicode="G" horiz-adv-x="1489" 
d="M650 -20q-193 0 -322 90.5t-182.5 256.5t-19.5 392q35 230 141 397.5t265.5 258.5t355.5 91q167 0 284 -71t174 -185.5t42 -242.5h-303q-3 69 -31 126t-81 91.5t-130 34.5q-93 0 -175 -49.5t-142 -157.5t-86 -285q-21 -143 -7 -238t55 -150.5t99 -78.5t123 -23
q62 0 113.5 21.5t91 55.5t65.5 74.5t37 79.5l24 88h-288l30 202l592 -3l-112 -755h-197l27 189q-44 -49 -103.5 -97.5t-142.5 -80t-197 -31.5z" />
    <glyph glyph-name="H" unicode="H" horiz-adv-x="1515" 
d="M89 0l204 1446h290l-82 -580h612l81 580h290l-204 -1446h-290l88 621h-612l-87 -621h-290z" />
    <glyph glyph-name="I" unicode="I" horiz-adv-x="623" 
d="M89 0l214 1446h289l-213 -1446h-290z" />
    <glyph glyph-name="J" unicode="J" horiz-adv-x="800" 
d="M223 -20q-66 0 -135.5 11.5t-102.5 20.5l46 267q27 -6 62 -16t78 -10q99 0 141 53.5t59 173.5l143 966h288l-154 -1044q-21 -138 -64.5 -232t-129 -142t-231.5 -48z" />
    <glyph glyph-name="K" unicode="K" horiz-adv-x="1407" 
d="M89 0l215 1446h300l-97 -662l604 662h329l-505 -558l344 -888h-314l-270 674l-245 -259l-61 -415h-300z" />
    <glyph glyph-name="L" unicode="L" horiz-adv-x="1136" 
d="M89 0l215 1446h290l-177 -1199h607l-37 -247h-898z" />
    <glyph glyph-name="M" unicode="M" horiz-adv-x="1807" 
d="M89 0l214 1446h421l164 -1031l471 1031h417l-213 -1446h-291l163 1106l-497 -1106h-225l-170 1101l-163 -1101h-291z" />
    <glyph glyph-name="N" unicode="N" horiz-adv-x="1546" 
d="M89 0l215 1446h287l494 -957l140 957h290l-215 -1446h-260l-515 995l-146 -995h-290z" />
    <glyph glyph-name="O" unicode="O" horiz-adv-x="1491" 
d="M666 -20q-200 0 -332.5 89t-187 254.5t-20.5 395.5q35 231 140 398.5t264.5 258t355.5 90.5t327.5 -90t186.5 -257.5t21 -398.5q-34 -229 -137.5 -395t-261.5 -255.5t-356 -89.5zM702 220q101 0 183 50.5t138.5 159.5t82.5 286q27 180 2.5 292.5t-91 165t-167.5 52.5
q-151 0 -260 -120t-149 -390q-26 -176 -0.5 -285.5t93 -160t168.5 -50.5z" />
    <glyph glyph-name="P" unicode="P" horiz-adv-x="1286" 
d="M89 0l215 1446h519q153 0 266.5 -54.5t168.5 -160.5t32 -259q-21 -144 -98.5 -246t-197.5 -156t-272 -54h-264l-77 -516h-292zM488 742h260q70 0 129 32t97.5 87.5t48.5 125.5q15 108 -46 171.5t-163 63.5h-255z" />
    <glyph glyph-name="Q" unicode="Q" horiz-adv-x="1516" 
d="M1273 -246q-93 0 -172.5 16t-147.5 67.5t-125 156.5q-51 -7 -87.5 -10.5t-74.5 -3.5q-199 0 -331.5 88.5t-187.5 254t-20 397.5q34 232 139 399t264 257t356 90t329 -90t187 -257t21 -399q-29 -198 -109.5 -348t-211.5 -251q13 -60 71 -96t136 -37zM701 220
q158 0 262.5 115.5t143.5 381.5q27 179 4 291t-90 165t-171 53q-157 0 -262.5 -120.5t-145.5 -389.5q-38 -265 32.5 -380.5t226.5 -115.5z" />
    <glyph glyph-name="R" unicode="R" horiz-adv-x="1365" 
d="M89 0l214 1446h594q169 0 268 -55t135.5 -152.5t17.5 -224.5q-17 -114 -63 -192.5t-109 -130.5t-134 -85l170 -606h-298l-145 557h-280l-82 -557h-288zM493 782h258q74 0 132 28.5t95 79t47 117.5q15 100 -40 158t-150 58h-277z" />
    <glyph glyph-name="S" unicode="S" horiz-adv-x="1379" 
d="M623 -20q-106 0 -204.5 26t-175 79t-119 135t-37.5 193h302q4 -66 38.5 -111t93 -69t134.5 -24q78 0 145 20t111.5 60.5t53.5 101.5q8 55 -19 90t-78 57t-118 36l-237 51q-158 31 -238.5 130.5t-59.5 265.5q19 136 107 235.5t221 153.5t288 54q168 0 283.5 -63
t173.5 -163t51 -212h-296q4 76 -26 121t-85.5 65t-129.5 20q-76 0 -135 -22.5t-94.5 -62.5t-42.5 -92q-9 -63 26.5 -102t143.5 -64l234 -51q129 -26 199.5 -77t100 -115t32.5 -130.5t-5 -122.5q-16 -117 -102.5 -210.5t-224.5 -148t-311 -54.5z" />
    <glyph glyph-name="T" unicode="T" horiz-adv-x="1206" 
d="M380 0l174 1186h-421l39 260h1125l-39 -260h-414l-176 -1186h-288z" />
    <glyph glyph-name="U" unicode="U" horiz-adv-x="1425" 
d="M646 -20q-207 0 -320.5 70.5t-149 200.5t-8.5 310l130 885h295l-135 -907q-16 -108 8 -176.5t80.5 -101.5t136.5 -33q119 0 207 74t111 237l133 907h292l-131 -895q-27 -175 -101.5 -303.5t-208.5 -198t-339 -69.5z" />
    <glyph glyph-name="V" unicode="V" horiz-adv-x="1368" 
d="M436 0l-267 1446h275l206 -1107l534 1107h276l-699 -1446h-325z" />
    <glyph glyph-name="W" unicode="W" horiz-adv-x="1886" 
d="M370 0l-200 1446h283l118 -955l398 955h208l123 -955l397 955h282l-630 -1446h-229l-122 945l-403 -945h-225z" />
    <glyph glyph-name="X" unicode="X" horiz-adv-x="1404" 
d="M-16 0l575 734l-346 712h359l207 -466l343 466h306l-531 -674l378 -772h-361l-235 520l-383 -520h-312z" />
    <glyph glyph-name="Y" unicode="Y" horiz-adv-x="1304" 
d="M424 0l88 609l-362 837h312l235 -586l402 586h316l-613 -838l-91 -608h-287z" />
    <glyph glyph-name="Z" unicode="Z" horiz-adv-x="1322" 
d="M35 0l22 142l865 1060h-661l38 244h1073l-20 -136l-878 -1063h712l-37 -247h-1114z" />
    <glyph glyph-name="bracketleft" unicode="[" horiz-adv-x="677" 
d="M31 -322l261 1768h448l-25 -165h-212l-212 -1437h212l-25 -166h-447z" />
    <glyph glyph-name="backslash" unicode="\" horiz-adv-x="734" 
d="M425 -37l-271 1483h200l272 -1483h-201z" />
    <glyph glyph-name="bracketright" unicode="]" horiz-adv-x="677" 
d="M-50 -322l25 166h212l212 1437h-212l25 165h447l-261 -1768h-448z" />
    <glyph glyph-name="asciicircum" unicode="^" horiz-adv-x="946" 
d="M624 245l-124 511l-276 -510h-193l411 736q25 45 64 61.5t73.5 2t47.5 -62.5l191 -738h-194z" />
    <glyph glyph-name="underscore" unicode="_" horiz-adv-x="1086" 
d="M5 -276l32 211l845 1l-33 -212h-844z" />
    <glyph glyph-name="grave" unicode="`" horiz-adv-x="606" 
d="M475 1155l-308 291h299l220 -291h-211z" />
    <glyph glyph-name="a" unicode="a" horiz-adv-x="1114" 
d="M347 -20q-97 0 -168.5 37t-106 107.5t-20.5 171.5q25 170 162.5 258.5t404.5 91.5l124 2l9 62q10 73 -28 110.5t-115 36.5q-60 -1 -121.5 -31t-92.5 -100h-239q21 107 91 180t174.5 110.5t230.5 37.5q154 0 242 -41t119.5 -114.5t17.5 -171.5l-108 -727h-241l1 175
q-68 -112 -150 -153.5t-186 -41.5zM471 172q39 0 76.5 14.5t69 39t53.5 55.5t27 64l23 153l-100 -2q-69 -1 -131.5 -17.5t-105.5 -53.5t-53 -100q-9 -72 32 -112.5t109 -40.5z" />
    <glyph glyph-name="b" unicode="b" horiz-adv-x="1200" 
d="M619 -20q-73 0 -125 20t-85.5 53.5t-52.5 74.5t-27 84l-62 -212h-210l204 1486h291l-81 -592q24 33 57 62t75 51t90.5 34.5t102.5 12.5q187 0 275 -139t54 -392q-34 -246 -164 -394.5t-342 -148.5zM585 190q90 0 161 77.5t96 259.5q22 161 -25 238t-145 77
q-104 0 -166.5 -78.5t-84.5 -236.5q-25 -183 16.5 -260t147.5 -77z" />
    <glyph glyph-name="c" unicode="c" horiz-adv-x="1071" 
d="M483 -20q-141 0 -241 64t-145.5 183.5t-21.5 285.5q24 160 102.5 282t198 190.5t265.5 68.5q128 0 212.5 -53t123.5 -143t30 -201h-240q0 41 -15 81.5t-49 67t-92 26.5q-99 0 -171.5 -78.5t-96.5 -238.5q-22 -151 26 -239.5t152 -88.5q58 0 100 29t68.5 69.5t36.5 75.5
h234q-21 -107 -87 -193.5t-166 -137t-224 -50.5z" />
    <glyph glyph-name="d" unicode="d" horiz-adv-x="1198" 
d="M432 -20q-204 0 -297.5 143.5t-58.5 399.5q34 243 157 387t318 144q53 0 98.5 -12.5t81.5 -34.5t61.5 -51t39.5 -62l81 592h291l-204 -1486h-210l-4 212q-19 -43 -49.5 -84t-73.5 -74.5t-100 -53.5t-131 -20zM525 190q105 0 168 77t89 260q13 106 -0.5 176t-54.5 104.5
t-111 34.5q-92 0 -162.5 -72.5t-93.5 -242.5q-23 -173 22.5 -255t142.5 -82z" />
    <glyph glyph-name="e" unicode="e" horiz-adv-x="1126" 
d="M506 -20q-149 0 -253 64.5t-149.5 182.5t-21.5 278q22 155 98.5 279.5t196.5 197t274 72.5q155 0 249.5 -66.5t130.5 -185t13 -273.5l-13 -79h-672q-13 -79 3 -137.5t59.5 -90t110.5 -31.5q72 0 130.5 32t90.5 105h260q-33 -110 -113 -188t-184 -119t-210 -41zM382 624
h406q10 62 -5 114t-55 82t-108 30q-64 0 -114.5 -32.5t-82.5 -84.5t-41 -109z" />
    <glyph glyph-name="f" unicode="f" horiz-adv-x="779" 
d="M157 0l122 831h-185l31 203h184l22 149q19 125 101 194t213 69h233l-28 -194h-131q-54 0 -78.5 -27.5t-34.5 -90.5l-14 -100h216l-30 -203h-211l-123 -831h-287z" />
    <glyph glyph-name="g" unicode="g" horiz-adv-x="1230" 
d="M487 -342q-276 0 -410 75t-118 194q8 50 38.5 83.5t69.5 54t71.5 32t42.5 16.5q-12 8 -39.5 26t-49 51t-13.5 86q7 49 61.5 92.5t167.5 63.5q-90 46 -132 131.5t-30 177.5q13 92 79.5 162t176.5 108.5t255 38.5q109 0 172.5 -24t111.5 -58q27 10 67 25.5t86 33.5t90 35.5
t78 30.5l-27 -228l-181 -37q15 -61 8 -116q-12 -86 -72.5 -161t-166 -120.5t-254.5 -45.5q-23 0 -54.5 1t-45.5 2q-60 1 -86 -7t-27 -26q3 -26 43 -37.5t113 -17.5q36 -3 91 -5.5t116 -7.5q190 -12 274 -97t66 -213q-19 -140 -162.5 -229.5t-409.5 -89.5zM532 -179
q122 0 180.5 34.5t66.5 96.5q5 42 -27.5 67t-105.5 30l-227 15q-46 3 -84 -14.5t-62.5 -47t-28.5 -65.5q-9 -59 61 -87.5t227 -28.5zM576 548q84 0 143.5 49.5t70.5 134.5q11 75 -28 119.5t-113 44.5q-84 0 -144.5 -54t-72.5 -140q-10 -71 28 -112.5t116 -41.5z" />
    <glyph glyph-name="h" unicode="h" horiz-adv-x="1174" 
d="M57 0l216 1486h288l-85 -588q43 54 115 98t192 44q95 0 169.5 -40.5t112 -113.5t22.5 -171l-104 -715h-289l97 674q10 66 -33.5 103t-111.5 37q-47 0 -91 -17t-74.5 -50t-36.5 -81l-98 -666h-289z" />
    <glyph glyph-name="i" unicode="i" horiz-adv-x="533" 
d="M55 0l146 1034h277l-146 -1034h-277zM219 1183l37 263h282l-37 -263h-282z" />
    <glyph glyph-name="j" unicode="j" horiz-adv-x="579" 
d="M-24 -332q-78 0 -101 14.5l-23 14.5l28 195l79 8q61 8 87.5 34t33.5 76l152 1024h288l-152 -1027q-25 -169 -118.5 -254t-273.5 -85zM254 1210l40 263h294l-39 -263h-295z" />
    <glyph glyph-name="k" unicode="k" horiz-adv-x="1140" 
d="M52 0l220 1486h289l-130 -881l428 429h309l-427 -412l285 -622h-287l-202 446l-152 -146l-45 -300h-288z" />
    <glyph glyph-name="l" unicode="l" horiz-adv-x="649" 
d="M372 -18q-112 0 -173.5 27t-86.5 71.5t-26 99t7 110.5l177 1196h284l-172 -1160q-8 -57 10.5 -92.5t83.5 -43.5l45 -3l-26 -180q-31 -10 -63 -17.5t-60 -7.5z" />
    <glyph glyph-name="m" unicode="m" horiz-adv-x="1755" 
d="M52 0l154 1034h282l-20 -133q55 64 138 108.5t200 44.5q78 0 153 -35.5t107 -117.5q62 71 152 112t177 41q56 0 110.5 -19.5t97 -60.5t62 -106.5t6.5 -157.5l-105 -710h-289l101 678q9 60 -8.5 95.5t-51 51.5t-72.5 16q-56 0 -97 -20.5t-66.5 -62.5t-35.5 -107l-96 -651
h-287l104 704q7 44 -12.5 74.5t-53.5 46.5t-70 16q-38 0 -79 -16t-71.5 -48.5t-37.5 -82.5l-104 -694h-288z" />
    <glyph glyph-name="n" unicode="n" horiz-adv-x="1169" 
d="M52 0l155 1034h282l-18 -133q35 38 76.5 70t98.5 52t136 20q92 0 165.5 -43.5t111.5 -123t22 -187.5l-103 -689h-289l97 654q12 77 -30.5 118.5t-108.5 41.5q-46 0 -91 -16.5t-76.5 -48.5t-38.5 -80l-100 -669h-289z" />
    <glyph glyph-name="o" unicode="o" horiz-adv-x="1127" 
d="M485 -20q-148 0 -248 65t-142.5 184t-19.5 282q24 163 101.5 285t197.5 190t268 68q150 0 249.5 -66.5t141 -188.5t17.5 -288q-23 -156 -98.5 -275.5t-194 -187.5t-272.5 -68zM520 197q73 0 124.5 45t82.5 118.5t43 160.5q11 82 2.5 155t-46.5 118t-116 45
q-75 0 -127 -42.5t-82 -115t-42 -160.5q-12 -81 -3.5 -155.5t47 -121.5t117.5 -47z" />
    <glyph glyph-name="p" unicode="p" horiz-adv-x="1196" 
d="M12 -322l186 1356h291l-19 -149q38 48 90 86.5t115 60.5t130 22q113 0 193 -56.5t114 -174t9 -298.5q-25 -188 -96.5 -308.5t-174 -178.5t-221.5 -58q-48 0 -88.5 13.5t-74 37.5t-58.5 55.5t-41 68.5l-65 -477h-290zM589 194q91 0 164 79t96 250q20 150 -27.5 234.5
t-145.5 84.5q-109 0 -174.5 -91.5t-83.5 -227.5q-12 -87 1 -162t55 -121t115 -46z" />
    <glyph glyph-name="q" unicode="q" horiz-adv-x="1196" 
d="M662 -322l66 477q-35 -49 -83 -88.5t-105 -63t-121 -23.5q-114 0 -201 55t-127.5 175.5t-13.5 314.5q24 175 88 292.5t159.5 177t213.5 59.5q50 0 95 -12.5t82 -35.5t65 -53.5t47 -67.5l22 149h290l-186 -1356h-291zM519 194q73 0 127.5 46t88 121t44.5 162
q19 136 -21.5 227.5t-150.5 91.5q-91 0 -164.5 -80.5t-94.5 -238.5q-22 -163 26 -246t145 -83z" />
    <glyph glyph-name="r" unicode="r" horiz-adv-x="804" 
d="M53 0l145 1034h279l-34 -245q35 79 88 138.5t121.5 93t148.5 33.5q14 0 25.5 -1.5t16.5 -4.5l-39 -278q-8 4 -19.5 5t-20.5 2q-113 10 -184.5 -14.5t-109 -76t-47.5 -120.5l-80 -566h-290z" />
    <glyph glyph-name="s" unicode="s" horiz-adv-x="1037" 
d="M457 -20q-106 0 -198.5 35.5t-150 112t-59.5 198.5h251q5 -55 34.5 -87t70.5 -45.5t79 -13.5q81 0 134 26.5t61 81.5q6 42 -20 67t-93 38l-171 38q-131 29 -202.5 98.5t-54.5 197.5q12 93 71 167t160 117t240 43q188 0 288.5 -84t80.5 -237h-242q-2 60 -44.5 92.5
t-113.5 32.5q-72 0 -123.5 -27t-58.5 -82q-6 -41 29.5 -64.5t114.5 -40.5l158 -38q82 -21 130.5 -57.5t72 -79.5t29 -86.5t-0.5 -78.5q-14 -103 -78 -175.5t-166 -110.5t-228 -38z" />
    <glyph glyph-name="t" unicode="t" horiz-adv-x="820" 
d="M481 -11q-134 0 -202 35t-87.5 98t-7.5 146l83 563h-163l31 203h172l92 312h233l-46 -311h224l-31 -204h-223l-80 -548q-8 -57 12.5 -73t64.5 -16h135l-27 -180q-21 -9 -63.5 -17t-116.5 -8z" />
    <glyph glyph-name="u" unicode="u" horiz-adv-x="1173" 
d="M422 -20q-70 0 -135 22t-114.5 65t-74.5 106t-13 146l100 715h291l-96 -678q-10 -72 28.5 -118t126.5 -46q82 0 136.5 44.5t65.5 124.5l95 673h288l-145 -1034h-219l-4 205q-31 -91 -86.5 -139.5t-120 -67t-123.5 -18.5z" />
    <glyph glyph-name="v" unicode="v" horiz-adv-x="1016" 
d="M324 0l-224 1034h261l119 -659h8l311 659h263l-532 -1034h-206z" />
    <glyph glyph-name="w" unicode="w" horiz-adv-x="1535" 
d="M275 0l-172 1034h255l95 -641h7l278 641h205l91 -641h7l279 641h259l-485 -1034h-226l-94 626l-278 -626h-221z" />
    <glyph glyph-name="x" unicode="x" horiz-adv-x="1148" 
d="M-38 0l466 539l-278 495h300l165 -290l246 290h302l-428 -495l305 -539h-300l-189 337l-287 -337h-302z" />
    <glyph glyph-name="y" unicode="y" horiz-adv-x="1099" 
d="M152 -330q-103 0 -143 17.5l-40 17.5l27 186l99 -4q87 -5 132.5 13.5t64 44.5t26.5 41l26 57l-244 991h285l138 -674l341 674h282l-558 -1040q-74 -132 -144 -202t-141.5 -96t-150.5 -26z" />
    <glyph glyph-name="z" unicode="z" horiz-adv-x="978" 
d="M-8 0l21 163l589 667h-461l28 204h815l-20 -163l-589 -667h496l-29 -204h-850z" />
    <glyph glyph-name="braceleft" unicode="{" horiz-adv-x="761" 
d="M423 -322q-77 0 -142.5 27t-102 80t-24.5 132l60 407q8 47 -9 86t-62 63t-122 24l23 147q116 1 174 47.5t71 133.5l57 385q11 78 63.5 130.5t125 79t146.5 26.5h143l-25 -165h-86q-55 0 -82.5 -14t-38 -37.5t-14.5 -52.5l-59 -396q-12 -70 -50.5 -113.5t-88 -64.5
t-96.5 -26q-12 -1 -13 -6t11 -7q44 -4 88 -23.5t69.5 -64.5t15.5 -127l-59 -400q-8 -55 13.5 -80t92.5 -25h84l-25 -166h-138z" />
    <glyph glyph-name="bar" unicode="|" horiz-adv-x="547" 
d="M44 -322l291 1974h211l-292 -1974h-210z" />
    <glyph glyph-name="braceright" unicode="}" horiz-adv-x="760" 
d="M-89 -322l25 166h87q54 0 81.5 13.5t38 37t14.5 52.5l59 396q12 70 50.5 113.5t88 64.5t97.5 26q11 2 12.5 7t-10.5 6q-45 4 -89 23.5t-69.5 64.5t-15.5 127l59 400q9 56 -13 81t-93 25h-84l25 165h138q77 0 143 -26.5t102 -80t24 -132.5l-60 -407q-8 -47 9 -86t62 -62.5
t122 -23.5l-23 -148q-116 0 -174 -46.5t-70 -134.5l-58 -385q-11 -78 -63.5 -130.5t-125 -79t-145.5 -26.5h-144z" />
    <glyph glyph-name="asciitilde" unicode="~" horiz-adv-x="1200" 
d="M200 555l-61 147q83 76 162 127.5t175 51.5q59 0 102.5 -19t80.5 -42.5t74 -42.5t83 -19q70 0 128 42.5t100 99.5l62 -145q-61 -88 -144.5 -134.5t-168.5 -46.5q-58 0 -102 18.5t-81.5 43t-76 43t-88.5 18.5q-74 0 -133 -44.5t-112 -97.5z" />
    <glyph glyph-name="uni00A0" unicode="&#xa0;" horiz-adv-x="451" 
 />
    <glyph glyph-name="exclamdown" unicode="&#xa1;" horiz-adv-x="564" 
d="M-13 -322l206 908h180l-46 -908h-340zM142 722l44 312h316l-44 -312h-316z" />
    <glyph glyph-name="cent" unicode="&#xa2;" horiz-adv-x="1153" 
d="M565 202q-148 0 -254.5 64t-154.5 183.5t-23 285.5q25 160 108 282t209.5 190.5t281.5 68.5q136 0 225 -53t130.5 -143t31.5 -201h-257q0 41 -15.5 81.5t-51 67t-96.5 26.5q-102 0 -177.5 -78.5t-100.5 -238.5q-23 -151 26.5 -239.5t158.5 -88.5q60 0 104 29t71.5 69.5
t37.5 75.5h251q-22 -107 -91.5 -193.5t-176 -137t-237.5 -50.5zM420 0l50 336h189l-50 -336h-189zM614 1110l50 336h189l-50 -336h-189z" />
    <glyph glyph-name="sterling" unicode="&#xa3;" horiz-adv-x="1268" 
d="M-32 0l36 242h66q72 0 126 48.5t70 157.5q8 48 10 97.5t4 131.5h-200l26 162h165l8 181q2 108 45 191t115 140t161.5 86t183.5 29q106 0 190 -34t141.5 -98.5t81.5 -154.5l-262 -78q-20 70 -51 101.5t-91 31.5q-68 0 -118 -44.5t-62 -124.5q-6 -42 -6 -97.5t5 -127.5h283
l-25 -162h-261q-4 -68 -11.5 -114.5t-24.5 -96.5q-15 -57 -36.5 -97t-49 -69.5t-60.5 -56.5h258q93 0 145.5 36t96.5 124l235 -54q-72 -174 -194.5 -262t-298.5 -88h-701z" />
    <glyph glyph-name="currency" unicode="&#xa4;" horiz-adv-x="1139" 
d="M153 234l-100 126l148 130q-27 56 -35 111.5t1 125.5q10 62 32.5 116.5t59.5 103.5q7 11 7.5 17t-7.5 14l-96 118l139 127l111 -135q55 34 117.5 53.5t122.5 19.5q120 0 214 -65q11 -8 23 2l124 112l101 -125l-136 -121q25 -53 34.5 -112t-0.5 -124q-9 -60 -33.5 -119.5
t-64.5 -107.5q-6 -11 -2 -16l97 -113l-140 -125l-99 121q-57 -35 -118 -54.5t-124 -19.5q-120 0 -211 62q-15 12 -30 -3zM556 487q66 0 123.5 33.5t96.5 88.5t48 119q10 63 -12 118t-70 89t-115 34q-66 0 -124 -34t-97 -89t-48 -118q-10 -64 12.5 -119t70.5 -88.5t115 -33.5
z" />
    <glyph glyph-name="yen" unicode="&#xa5;" horiz-adv-x="1284" 
d="M402 0l88 603l-370 843h374l230 -579l400 579h302l-602 -808l-95 -638h-327zM146 224l23 158l906 1l-23 -158zM192 537l24 159l907 1l-24 -160h-907z" />
    <glyph glyph-name="brokenbar" unicode="&#xa6;" horiz-adv-x="547" 
d="M215 837l120 815h211l-121 -815h-210zM44 -322l120 816h209l-119 -816h-210z" />
    <glyph glyph-name="section" unicode="&#xa7;" horiz-adv-x="1003" 
d="M408 -155q-113 0 -198.5 32t-140.5 85t-75 115l190 90q32 -56 88 -100t157 -44q76 0 128 27.5t60 81.5q6 40 -20 73t-109 69l-140 57q-146 60 -205.5 133.5t-43.5 186.5q14 92 70.5 158.5t139.5 103.5q-81 56 -105.5 115.5t-15.5 129.5q13 87 71.5 156.5t152.5 110.5
t216 41q99 0 176 -31t128 -81.5t71 -107.5l-190 -88q-35 49 -82 89.5t-122 40.5q-68 0 -110.5 -28t-49.5 -75q-4 -35 21.5 -62t69.5 -47l142 -60q153 -64 215 -140t44 -193q-13 -94 -65.5 -156t-128.5 -104q81 -51 112.5 -111t18.5 -143q-14 -95 -73.5 -168t-160 -114.5
t-236.5 -41.5zM559 515q37 -4 69 13t51.5 47.5t21.5 67.5q2 44 -25 78t-101 65l-81 35q-44 -4 -77 -22.5t-53 -46.5t-25 -59q-6 -43 18.5 -71.5t111.5 -66.5z" />
    <glyph glyph-name="dieresis" unicode="&#xa8;" horiz-adv-x="738" 
d="M547 1208l36 238h273l-35 -238h-274zM106 1208l36 238h273l-35 -238h-274z" />
    <glyph glyph-name="copyright" unicode="&#xa9;" horiz-adv-x="1618" 
d="M721 -20q-149 0 -271.5 57.5t-206.5 159.5t-120 237t-13 290q22 153 98 287.5t190.5 236.5t253.5 160t288 58q150 0 272 -58t206.5 -160t120.5 -236.5t14 -287.5q-24 -155 -100.5 -290t-190.5 -237t-253 -159.5t-288 -57.5zM775 313q-112 0 -192 52t-116 145t-18 215
q18 124 82 218t159.5 146.5t207.5 52.5q95 0 158.5 -39t98 -98.5t44.5 -121.5l-203 -23q-6 33 -18 62t-35 48t-61 19q-49 0 -89.5 -29t-69.5 -86.5t-42 -144.5q-20 -134 18 -198.5t118 -64.5q68 0 114 39.5t84 99.5l138 -37q-17 -36 -48.5 -80t-79 -84t-110 -65.5
t-140.5 -25.5zM746 143q119 0 224.5 40.5t190 116.5t141 183.5t76.5 240.5q19 132 -5.5 238.5t-86.5 183.5t-156 118.5t-213 41.5q-120 0 -226.5 -41.5t-190.5 -118.5t-140 -183.5t-75 -238.5q-27 -177 23.5 -307.5t163.5 -202t274 -71.5z" />
    <glyph glyph-name="ordfeminine" unicode="&#xaa;" horiz-adv-x="763" 
d="M318 794q-94 0 -138 50.5t-32 133.5q14 97 105 157.5t237 65.5l74 4l5 43q9 57 -19 76t-65 19t-70.5 -17t-62.5 -67l-147 36q48 83 115.5 126t187.5 43q143 -1 192.5 -56t35.5 -151q-12 -83 -19.5 -137.5t-15.5 -113.5q-2 -11 -5 -37.5t-5.5 -55.5t-2.5 -48l4 -59h-171
l-5 70q-53 -41 -97.5 -61.5t-100.5 -20.5zM400 913q56 0 97 35q15 14 26 27t12 31l13 97l-58 -3q-73 -3 -118.5 -32.5t-52.5 -78.5q-4 -34 17.5 -55t63.5 -21z" />
    <glyph glyph-name="guillemotleft" unicode="&#xab;" horiz-adv-x="981" 
d="M642 129l-174 373l287 389h154l-214 -389l100 -373h-153zM272 129l-173 373l285 389h155l-214 -389l99 -373h-152z" />
    <glyph glyph-name="logicalnot" unicode="&#xac;" horiz-adv-x="1156" 
d="M131 621l32 213h921l-33 -213h-920zM773 319l64 442h235l-65 -442h-234z" />
    <glyph glyph-name="uni00AD" unicode="&#xad;" horiz-adv-x="772" 
d="M105 408l30 213h531l-30 -212z" />
    <glyph glyph-name="registered" unicode="&#xae;" horiz-adv-x="1077" 
d="M533 536q-126 0 -219.5 62t-138.5 167.5t-26 234.5t95 235t188 168.5t238 62.5q124 0 216.5 -62.5t138 -168.5t26.5 -235t-95 -234.5t-187.5 -167.5t-235.5 -62zM550 652q98 0 178 43t132 121t68 184q15 106 -14 184.5t-96 122t-165 43.5q-100 0 -180 -43.5t-132 -122
t-68 -184.5q-23 -158 52 -253t225 -95zM384 767l69 461h210q81 0 121.5 -31.5t31.5 -91.5q-7 -48 -38.5 -78.5t-70.5 -45.5l57 -214h-124l-38 202h-76l-29 -202h-113zM538 1050h93q26 0 44.5 12t22.5 36q3 23 -11.5 36.5t-46.5 13.5h-88z" />
    <glyph glyph-name="macron" unicode="&#xaf;" horiz-adv-x="773" 
d="M138 1205l28 187h688l-28 -187h-688z" />
    <glyph glyph-name="degree" unicode="&#xb0;" horiz-adv-x="930" 
d="M523 1001q-94 0 -161 43t-98 118.5t-17 173.5q15 98 68.5 174t133.5 119.5t174 43.5q93 0 160 -43.5t98.5 -119.5t17.5 -174q-15 -98 -69 -173.5t-134 -118.5t-173 -43zM546 1165q71 0 119.5 47.5t59.5 121.5q12 74 -23.5 121t-107.5 47q-71 0 -120.5 -47t-59.5 -121
q-9 -74 25.5 -121.5t106.5 -47.5z" />
    <glyph glyph-name="plusminus" unicode="&#xb1;" horiz-adv-x="1161" 
d="M463 427l140 944h211l-142 -944h-209zM54 71l32 212h920l-31 -211zM161 791l32 213l920 1l-32 -213z" />
    <glyph glyph-name="uni00B2" unicode="&#xb2;" horiz-adv-x="766" 
d="M64 768l13 91l7 46q12 81 53 136.5t99.5 95t122 70t120.5 59.5t96 64t45 84q8 55 -24 89.5t-95 34.5q-67 0 -119 -40t-73 -119h-175q19 130 118.5 220.5t274.5 90.5q150 0 226.5 -76t58.5 -199q-12 -80 -52.5 -134.5t-97 -91t-118 -64.5t-117 -54t-92.5 -59t-44 -81
l-1 -9h452l-23 -154h-655z" />
    <glyph glyph-name="uni00B3" unicode="&#xb3;" horiz-adv-x="829" 
d="M407 754q-161 1 -239 79.5t-60 215.5h175q3 -77 43.5 -111.5t103.5 -34.5q81 0 132.5 36t60.5 92q8 59 -34.5 93t-116.5 37l-85 3l21 146l78 4q48 2 85 18t60.5 44t28.5 62q6 50 -33.5 80t-107.5 30q-42 0 -79.5 -15t-65 -47.5t-38.5 -88.5h-174q14 99 68 163.5t136 97
t177 32.5q100 0 174.5 -26.5t112 -80t25.5 -137.5q-10 -68 -55 -119t-136 -81q48 -14 85.5 -42.5t57 -72t10.5 -105.5q-13 -89 -72 -150t-147.5 -91.5t-190.5 -30.5z" />
    <glyph glyph-name="acute" unicode="&#xb4;" horiz-adv-x="524" 
d="M100 1155l241 291h303l-331 -291h-213z" />
    <glyph glyph-name="uni00B5" unicode="&#xb5;" horiz-adv-x="1195" 
d="M-7 -330l206 1390h296l-99 -659q-4 -41 12 -73t49 -50t79 -18q62 0 118 37.5t95 101.5l97 661h300l-163 -1060h-288l24 164q-57 -52 -105.5 -80t-102.5 -37q-43 -6 -85 -1.5t-78 24.5l-59 -400h-296z" />
    <glyph glyph-name="paragraph" unicode="&#xb6;" horiz-adv-x="1175" 
d="M368 -166l113 764q-109 8 -191.5 59t-122.5 141.5t-21 218.5q17 117 83 214.5t175.5 156t255.5 58.5h534l-25 -165h-121l-214 -1447h-177l215 1447h-113l-216 -1447h-175z" />
    <glyph glyph-name="periodcentered" unicode="&#xb7;" horiz-adv-x="516" 
d="M109 585l44 287h293l-44 -287h-293z" />
    <glyph glyph-name="cedilla" unicode="&#xb8;" horiz-adv-x="536" 
d="M122 -425q-61 0 -116.5 12t-100.5 42l54 98q27 -19 63.5 -34t79.5 -15q46 0 73.5 16.5t31.5 45.5q6 39 -28 60t-125 22q-12 0 -16 3.5t4 15.5l96 169h126l-59 -117q72 -2 112 -26t53.5 -59.5t8.5 -70.5q-7 -51 -45 -87.5t-94 -55.5t-118 -19z" />
    <glyph glyph-name="uni00B9" unicode="&#xb9;" horiz-adv-x="504" 
d="M199 760l101 681h-157l15 104q114 0 169.5 33t70.5 92h120l-136 -910h-183z" />
    <glyph glyph-name="ordmasculine" unicode="&#xba;" horiz-adv-x="755" 
d="M415 795q-136 0 -204.5 93.5t-48.5 238.5q14 101 63.5 177t123.5 118.5t162 42.5q136 0 205.5 -94.5t48.5 -243.5q-13 -97 -61.5 -172t-122.5 -117.5t-166 -42.5zM433 923q63 0 101.5 53t52.5 156q15 103 -8.5 155.5t-85.5 52.5t-99.5 -52.5t-52.5 -155.5t8.5 -156
t83.5 -53z" />
    <glyph glyph-name="guillemotright" unicode="&#xbb;" horiz-adv-x="980" 
d="M439 129l213 373l-100 389h154l170 -389l-283 -373h-154zM71 129l209 373l-98 389h154l170 -389l-284 -373h-151z" />
    <glyph glyph-name="onequarter" unicode="&#xbc;" horiz-adv-x="1614" 
d="M199 552l101 681h-157l15 104q114 0 169.5 33t70.5 92h120l-136 -910h-183zM311 -8l-167 3l1166 1467h164zM1186 0l30 202h-406l23 151l483 557h179l-82 -554h136l-23 -154h-137l-30 -202h-173zM1001 356h238l49 332z" />
    <glyph glyph-name="onehalf" unicode="&#xbd;" horiz-adv-x="1755" 
d="M199 552l101 681h-157l15 104q114 0 169.5 33t70.5 92h120l-136 -910h-183zM311 -8l-167 3l1166 1467h164zM974 0l13 91l8 46q11 81 52 136.5t99.5 95t122 70t120.5 59.5t96 64t46 84q7 55 -25 89.5t-95 34.5q-66 0 -118 -40t-74 -119h-175q20 130 119 220.5t274 90.5
q151 0 227 -76t58 -199q-11 -80 -51.5 -134.5t-97.5 -91t-118.5 -64.5t-116.5 -54t-92.5 -59t-44.5 -81l-1 -9h452l-22 -154h-656z" />
    <glyph glyph-name="threequarters" unicode="&#xbe;" horiz-adv-x="1862" 
d="M407 544q-161 1 -239 79.5t-60 215.5h175q3 -77 43.5 -111.5t103.5 -34.5q81 0 132.5 36t60.5 92q8 59 -34.5 93t-116.5 37l-85 3l21 146l78 4q48 2 85 18t60.5 44t28.5 62q6 50 -33.5 80t-107.5 30q-42 0 -79.5 -15t-65 -47.5t-38.5 -88.5h-174q14 99 68 163.5t136 97
t177 32.5q100 0 174.5 -26.5t112 -80t25.5 -137.5q-10 -68 -55 -119t-136 -81q48 -14 85.5 -42.5t57 -72t10.5 -105.5q-13 -89 -72 -150t-147.5 -91.5t-190.5 -30.5zM559 -8l-167 3l1166 1467h164zM1434 0l30 202h-406l23 151l483 557h179l-82 -554h136l-23 -154h-137
l-30 -202h-173zM1249 356h238l49 332z" />
    <glyph glyph-name="questiondown" unicode="&#xbf;" horiz-adv-x="1067" 
d="M414 -342q-154 0 -251.5 46t-139.5 123.5t-29 172.5q14 97 60.5 161t108.5 110.5t124 90t107 98t57 135.5h234q-14 -100 -56 -169.5t-97 -120.5t-108.5 -94t-92 -89t-47.5 -107q-9 -66 37 -108t123 -42q52 0 105 23t97.5 64t72.5 95l238 -59q-83 -158 -223 -244t-320 -86
zM427 722l44 312h316l-43 -312h-317z" />
    <glyph glyph-name="Agrave" unicode="&#xc0;" horiz-adv-x="1421" 
d="M-16 0l717 1446h303l287 -1446h-287l-63 335h-503l-165 -335h-289zM541 590h369l-98 574zM757 1567l-308 291h299l220 -291h-211z" />
    <glyph glyph-name="Aacute" unicode="&#xc1;" horiz-adv-x="1421" 
d="M-16 0l717 1446h303l287 -1446h-287l-63 335h-503l-165 -335h-289zM541 590h369l-98 574zM756 1567l241 291h303l-331 -291h-213z" />
    <glyph glyph-name="Acircumflex" unicode="&#xc2;" horiz-adv-x="1421" 
d="M-16 0l717 1446h303l287 -1446h-287l-63 335h-503l-165 -335h-289zM541 590h369l-98 574zM463 1567l267 259h199l244 -259h-226l-122 140l-148 -140h-214z" />
    <glyph glyph-name="Atilde" unicode="&#xc3;" horiz-adv-x="1421" 
d="M-16 0l717 1446h303l287 -1446h-287l-63 335h-503l-165 -335h-289zM541 590h369l-98 574zM589 1608l-24 141q42 39 89 65.5t114 26.5q54 0 101 -15t90 -30.5t88 -15.5q50 0 94 22.5t77 47.5l13 -163q-34 -25 -88.5 -48t-120.5 -23q-54 0 -96.5 14t-83.5 28.5t-90 14.5
t-84.5 -16t-78.5 -49z" />
    <glyph glyph-name="Adieresis" unicode="&#xc4;" horiz-adv-x="1421" 
d="M-16 0l717 1446h303l287 -1446h-287l-63 335h-503l-165 -335h-289zM541 590h369l-98 574zM959 1620l36 238h273l-35 -238h-274zM518 1620l36 238h273l-35 -238h-274z" />
    <glyph glyph-name="Aring" unicode="&#xc5;" horiz-adv-x="1421" 
d="M-16 0l717 1446h303l287 -1446h-287l-63 335h-503l-165 -335h-289zM541 590h369l-98 574zM868 1547q-89 0 -141 64t-38 157q9 58 45 106t88.5 76t110.5 28q88 0 140.5 -62.5t38.5 -151.5q-8 -61 -44 -110t-88.5 -78t-111.5 -29zM884 1661q40 0 72 31t39 71q6 43 -17.5 71
t-64.5 28q-39 0 -72.5 -28t-40.5 -71q-6 -40 19 -71t65 -31z" />
    <glyph glyph-name="AE" unicode="&#xc6;" horiz-adv-x="2032" 
d="M-73 0l963 1446h1156l-38 -243h-664l-52 -355h577l-36 -240h-577l-53 -364h685l-36 -244h-1015l50 338h-452l-219 -338h-289zM582 590h342l99 665z" />
    <glyph glyph-name="Ccedilla" unicode="&#xc7;" horiz-adv-x="1412" 
d="M590 -425q-61 0 -116.5 12t-100.5 42l54 98q28 -19 64 -34t79 -15q46 0 73.5 16.5t31.5 45.5q6 39 -27.5 60t-124.5 22q-13 0 -17 3.5t4 15.5l96 169h127l-60 -117q73 -2 112.5 -26t53 -59.5t9.5 -70.5q-8 -51 -46 -87.5t-94 -55.5t-118 -19zM658 -20q-181 0 -304 79.5
t-183 226t-50 347.5q8 168 59 318.5t145.5 266.5t232 182t315.5 66q157 0 270 -62t173.5 -174.5t59.5 -262.5h-303q-2 75 -30 133.5t-81.5 92t-134.5 33.5q-99 0 -170.5 -51t-118.5 -137.5t-71.5 -194.5t-31.5 -223q-13 -208 52.5 -304t197.5 -96q80 0 143.5 38.5t108.5 102
t69 139.5h303q-28 -103 -77.5 -196.5t-127 -166.5t-187 -115t-259.5 -42z" />
    <glyph glyph-name="Egrave" unicode="&#xc8;" horiz-adv-x="1255" 
d="M89 0l215 1446h968l-38 -246h-677l-51 -351h585l-35 -241h-588l-53 -359l689 -1l-38 -248h-977zM671 1567l-308 291h299l220 -291h-211z" />
    <glyph glyph-name="Eacute" unicode="&#xc9;" horiz-adv-x="1255" 
d="M89 0l215 1446h968l-38 -246h-677l-51 -351h585l-35 -241h-588l-53 -359l689 -1l-38 -248h-977zM670 1567l241 291h303l-331 -291h-213z" />
    <glyph glyph-name="Ecircumflex" unicode="&#xca;" horiz-adv-x="1255" 
d="M89 0l215 1446h968l-38 -246h-677l-51 -351h585l-35 -241h-588l-53 -359l689 -1l-38 -248h-977zM429 1567l267 259h199l244 -259h-226l-122 140l-148 -140h-214z" />
    <glyph glyph-name="Edieresis" unicode="&#xcb;" horiz-adv-x="1255" 
d="M89 0l215 1446h968l-38 -246h-677l-51 -351h585l-35 -241h-588l-53 -359l689 -1l-38 -248h-977zM873 1620l36 238h273l-35 -238h-274zM432 1620l36 238h273l-35 -238h-274z" />
    <glyph glyph-name="Igrave" unicode="&#xcc;" horiz-adv-x="623" 
d="M89 0l214 1446h289l-213 -1446h-290zM353 1567l-308 291h299l220 -291h-211z" />
    <glyph glyph-name="Iacute" unicode="&#xcd;" horiz-adv-x="623" 
d="M89 0l214 1446h289l-213 -1446h-290zM352 1567l241 291h303l-331 -291h-213z" />
    <glyph glyph-name="Icircumflex" unicode="&#xce;" horiz-adv-x="623" 
d="M89 0l214 1446h289l-213 -1446h-290zM111 1567l267 259h199l244 -259h-226l-122 140l-148 -140h-214z" />
    <glyph glyph-name="Idieresis" unicode="&#xcf;" horiz-adv-x="623" 
d="M89 0l214 1446h289l-213 -1446h-290zM555 1620l36 238h273l-35 -238h-274zM114 1620l36 238h273l-35 -238h-274z" />
    <glyph glyph-name="Eth" unicode="&#xd0;" horiz-adv-x="1529" 
d="M87 608l27 214h778l-27 -214h-778zM200 0l207 1446q11 0 69 -0.5t132 -0.5q143 0 272.5 -11.5t237 -44t186.5 -95.5t122.5 -165.5t43.5 -253.5q0 -86 -15 -183.5t-50.5 -195.5t-97.5 -187t-156 -158.5t-224.5 -110t-304.5 -40.5h-422zM527 236h123q125 0 222 49.5
t164 136.5t101 201.5t34 246.5q0 121 -42.5 195.5t-123.5 109.5t-195 35h-140z" />
    <glyph glyph-name="Ntilde" unicode="&#xd1;" horiz-adv-x="1546" 
d="M89 0l215 1446h287l494 -957l140 957h290l-215 -1446h-260l-515 995l-146 -995h-290zM645 1608l-24 141q42 39 89 65.5t114 26.5q54 0 101 -15t90 -30.5t88 -15.5q50 0 94 22.5t77 47.5l13 -163q-34 -25 -88.5 -48t-120.5 -23q-54 0 -96.5 14t-83.5 28.5t-90 14.5
t-84.5 -16t-78.5 -49z" />
    <glyph glyph-name="Ograve" unicode="&#xd2;" horiz-adv-x="1491" 
d="M666 -20q-200 0 -332.5 89t-187 254.5t-20.5 395.5q35 231 140 398.5t264.5 258t355.5 90.5t327.5 -90t186.5 -257.5t21 -398.5q-34 -229 -137.5 -395t-261.5 -255.5t-356 -89.5zM702 220q101 0 183 50.5t138.5 159.5t82.5 286q27 180 2.5 292.5t-91 165t-167.5 52.5
q-151 0 -260 -120t-149 -390q-26 -176 -0.5 -285.5t93 -160t168.5 -50.5zM774 1567l-308 291h299l220 -291h-211z" />
    <glyph glyph-name="Oacute" unicode="&#xd3;" horiz-adv-x="1491" 
d="M666 -20q-200 0 -332.5 89t-187 254.5t-20.5 395.5q35 231 140 398.5t264.5 258t355.5 90.5t327.5 -90t186.5 -257.5t21 -398.5q-34 -229 -137.5 -395t-261.5 -255.5t-356 -89.5zM702 220q101 0 183 50.5t138.5 159.5t82.5 286q27 180 2.5 292.5t-91 165t-167.5 52.5
q-151 0 -260 -120t-149 -390q-26 -176 -0.5 -285.5t93 -160t168.5 -50.5zM773 1567l241 291h303l-331 -291h-213z" />
    <glyph glyph-name="Ocircumflex" unicode="&#xd4;" horiz-adv-x="1491" 
d="M666 -20q-200 0 -332.5 89t-187 254.5t-20.5 395.5q35 231 140 398.5t264.5 258t355.5 90.5t327.5 -90t186.5 -257.5t21 -398.5q-34 -229 -137.5 -395t-261.5 -255.5t-356 -89.5zM702 220q101 0 183 50.5t138.5 159.5t82.5 286q27 180 2.5 292.5t-91 165t-167.5 52.5
q-151 0 -260 -120t-149 -390q-26 -176 -0.5 -285.5t93 -160t168.5 -50.5zM532 1567l267 259h199l244 -259h-226l-122 140l-148 -140h-214z" />
    <glyph glyph-name="Otilde" unicode="&#xd5;" horiz-adv-x="1491" 
d="M666 -20q-200 0 -332.5 89t-187 254.5t-20.5 395.5q35 231 140 398.5t264.5 258t355.5 90.5t327.5 -90t186.5 -257.5t21 -398.5q-34 -229 -137.5 -395t-261.5 -255.5t-356 -89.5zM702 220q101 0 183 50.5t138.5 159.5t82.5 286q27 180 2.5 292.5t-91 165t-167.5 52.5
q-151 0 -260 -120t-149 -390q-26 -176 -0.5 -285.5t93 -160t168.5 -50.5zM607 1608l-24 141q42 39 89 65.5t114 26.5q54 0 101 -15t90 -30.5t88 -15.5q50 0 94 22.5t77 47.5l13 -163q-34 -25 -88.5 -48t-120.5 -23q-54 0 -96.5 14t-83.5 28.5t-90 14.5t-84.5 -16t-78.5 -49z
" />
    <glyph glyph-name="Odieresis" unicode="&#xd6;" horiz-adv-x="1491" 
d="M666 -20q-200 0 -332.5 89t-187 254.5t-20.5 395.5q35 231 140 398.5t264.5 258t355.5 90.5t327.5 -90t186.5 -257.5t21 -398.5q-34 -229 -137.5 -395t-261.5 -255.5t-356 -89.5zM702 220q101 0 183 50.5t138.5 159.5t82.5 286q27 180 2.5 292.5t-91 165t-167.5 52.5
q-151 0 -260 -120t-149 -390q-26 -176 -0.5 -285.5t93 -160t168.5 -50.5zM976 1620l36 238h273l-35 -238h-274zM535 1620l36 238h273l-35 -238h-274z" />
    <glyph glyph-name="multiply" unicode="&#xd7;" horiz-adv-x="1133" 
d="M226 269l-123 151l860 768l126 -151zM823 269l-631 767l170 151l633 -767z" />
    <glyph glyph-name="Oslash" unicode="&#xd8;" horiz-adv-x="1521" 
d="M91 -27l-107 131l187 172q-37 87 -46.5 198.5t9.5 244.5q34 231 139 398.5t264 258t356 90.5q133 0 235 -41t172 -120l183 166l104 -129l-195 -182q37 -87 46.5 -198t-9.5 -242q-34 -229 -137.5 -395t-262 -255.5t-356.5 -89.5q-131 0 -232.5 40t-172.5 113zM710 215
q127 0 210 86t125 269q20 79 30 159.5t12 167.5l-591 -564q57 -118 214 -118zM475 538l594 566q-27 67 -79.5 98.5t-130.5 31.5q-133 0 -219.5 -96t-130.5 -298q-17 -75 -25 -150.5t-9 -151.5z" />
    <glyph glyph-name="Ugrave" unicode="&#xd9;" horiz-adv-x="1425" 
d="M646 -20q-207 0 -320.5 70.5t-149 200.5t-8.5 310l130 885h295l-135 -907q-16 -108 8 -176.5t80.5 -101.5t136.5 -33q119 0 207 74t111 237l133 907h292l-131 -895q-27 -175 -101.5 -303.5t-208.5 -198t-339 -69.5zM766 1567l-308 291h299l220 -291h-211z" />
    <glyph glyph-name="Uacute" unicode="&#xda;" horiz-adv-x="1425" 
d="M646 -20q-207 0 -320.5 70.5t-149 200.5t-8.5 310l130 885h295l-135 -907q-16 -108 8 -176.5t80.5 -101.5t136.5 -33q119 0 207 74t111 237l133 907h292l-131 -895q-27 -175 -101.5 -303.5t-208.5 -198t-339 -69.5zM765 1567l241 291h303l-331 -291h-213z" />
    <glyph glyph-name="Ucircumflex" unicode="&#xdb;" horiz-adv-x="1425" 
d="M646 -20q-207 0 -320.5 70.5t-149 200.5t-8.5 310l130 885h295l-135 -907q-16 -108 8 -176.5t80.5 -101.5t136.5 -33q119 0 207 74t111 237l133 907h292l-131 -895q-27 -175 -101.5 -303.5t-208.5 -198t-339 -69.5zM524 1567l267 259h199l244 -259h-226l-122 140
l-148 -140h-214z" />
    <glyph glyph-name="Udieresis" unicode="&#xdc;" horiz-adv-x="1425" 
d="M646 -20q-207 0 -320.5 70.5t-149 200.5t-8.5 310l130 885h295l-135 -907q-16 -108 8 -176.5t80.5 -101.5t136.5 -33q119 0 207 74t111 237l133 907h292l-131 -895q-27 -175 -101.5 -303.5t-208.5 -198t-339 -69.5zM968 1620l36 238h273l-35 -238h-274zM527 1620l36 238
h273l-35 -238h-274z" />
    <glyph glyph-name="Yacute" unicode="&#xdd;" horiz-adv-x="1304" 
d="M424 0l88 609l-362 837h312l235 -586l402 586h316l-613 -838l-91 -608h-287zM672 1568l241 291h303l-331 -291h-213z" />
    <glyph glyph-name="Thorn" unicode="&#xde;" horiz-adv-x="1339" 
d="M89 0l204 1446h291l-39 -277h286q158 0 273 -47.5t171.5 -143t35.5 -241.5q-20 -143 -103 -240t-211.5 -147t-284.5 -50h-289l-42 -300h-292zM457 541h289q59 0 115.5 20.5t97 64t49.5 111.5q10 65 -19 107.5t-80.5 63t-112.5 20.5l-285 1z" />
    <glyph glyph-name="germandbls" unicode="&#xdf;" horiz-adv-x="1171" 
d="M628 -20q-76 0 -136.5 18.5t-100.5 48.5l106 180q27 -20 61 -39.5t87 -19.5q68 0 118.5 35t59.5 103q7 48 -12 77t-56.5 50.5t-86.5 43.5q-50 24 -90.5 57t-61 82t-11.5 120q12 76 52.5 127t100.5 94q34 27 66 52.5t54.5 55t28.5 70.5q7 53 -24.5 87.5t-103.5 34.5
q-85 0 -143 -57.5t-71 -155.5l-146 -1044h-265l137 989q16 90 53.5 172.5t101 146.5t156 101t217.5 37q124 0 202.5 -36.5t111.5 -103.5t20 -156q-9 -72 -43 -123.5t-93 -90.5t-144 -76q-30 -16 -43.5 -27t-16.5 -29q-2 -19 8 -28.5t39 -19.5q60 -30 120.5 -63.5
t107.5 -79.5t70.5 -112.5t10.5 -163.5q-17 -117 -77.5 -196.5t-154 -120t-209.5 -40.5z" />
    <glyph glyph-name="agrave" unicode="&#xe0;" horiz-adv-x="1140" 
d="M355 -20q-97 0 -168.5 37t-106 107.5t-20.5 171.5q25 170 162.5 258.5t404.5 91.5l124 2l9 62q10 73 -28 110.5t-115 36.5q-60 -1 -121.5 -31t-92.5 -100h-239q21 107 91 180t174.5 110.5t230.5 37.5q154 0 242 -41t119.5 -114.5t17.5 -171.5l-108 -727h-241l1 175
q-68 -112 -150 -153.5t-186 -41.5zM479 172q39 0 76.5 14.5t69 39t53.5 55.5t27 64l23 153l-100 -2q-69 -1 -131.5 -17.5t-105.5 -53.5t-53 -100q-9 -72 32 -112.5t109 -40.5zM565 1155l-308 291h299l220 -291h-211z" />
    <glyph glyph-name="aacute" unicode="&#xe1;" horiz-adv-x="1132" 
d="M347 -20q-97 0 -168.5 37t-106 107.5t-20.5 171.5q25 170 162.5 258.5t404.5 91.5l124 2l9 62q10 73 -28 110.5t-115 36.5q-60 -1 -121.5 -31t-92.5 -100h-239q21 107 91 180t174.5 110.5t230.5 37.5q154 0 242 -41t119.5 -114.5t17.5 -171.5l-108 -727h-241l1 175
q-68 -112 -150 -153.5t-186 -41.5zM471 172q39 0 76.5 14.5t69 39t53.5 55.5t27 64l23 153l-100 -2q-69 -1 -131.5 -17.5t-105.5 -53.5t-53 -100q-9 -72 32 -112.5t109 -40.5zM548 1155l241 291h303l-331 -291h-213z" />
    <glyph glyph-name="acircumflex" unicode="&#xe2;" horiz-adv-x="1132" 
d="M347 -20q-97 0 -168.5 37t-106 107.5t-20.5 171.5q25 170 162.5 258.5t404.5 91.5l124 2l9 62q10 73 -28 110.5t-115 36.5q-60 -1 -121.5 -31t-92.5 -100h-239q21 107 91 180t174.5 110.5t230.5 37.5q154 0 242 -41t119.5 -114.5t17.5 -171.5l-108 -727h-241l1 175
q-68 -112 -150 -153.5t-186 -41.5zM471 172q39 0 76.5 14.5t69 39t53.5 55.5t27 64l23 153l-100 -2q-69 -1 -131.5 -17.5t-105.5 -53.5t-53 -100q-9 -72 32 -112.5t109 -40.5zM301 1155l267 259h199l244 -259h-226l-122 140l-148 -140h-214z" />
    <glyph glyph-name="atilde" unicode="&#xe3;" horiz-adv-x="1132" 
d="M347 -20q-97 0 -168.5 37t-106 107.5t-20.5 171.5q25 170 162.5 258.5t404.5 91.5l124 2l9 62q10 73 -28 110.5t-115 36.5q-60 -1 -121.5 -31t-92.5 -100h-239q21 107 91 180t174.5 110.5t230.5 37.5q154 0 242 -41t119.5 -114.5t17.5 -171.5l-108 -727h-241l1 175
q-68 -112 -150 -153.5t-186 -41.5zM471 172q39 0 76.5 14.5t69 39t53.5 55.5t27 64l23 153l-100 -2q-69 -1 -131.5 -17.5t-105.5 -53.5t-53 -100q-9 -72 32 -112.5t109 -40.5zM376 1196l-24 141q42 39 89 65.5t114 26.5q54 0 101 -15t90 -30.5t88 -15.5q50 0 94 22.5
t77 47.5l13 -163q-34 -25 -88.5 -48t-120.5 -23q-54 0 -96.5 14t-83.5 28.5t-90 14.5t-84.5 -16t-78.5 -49z" />
    <glyph glyph-name="adieresis" unicode="&#xe4;" horiz-adv-x="1132" 
d="M347 -20q-97 0 -168.5 37t-106 107.5t-20.5 171.5q25 170 162.5 258.5t404.5 91.5l124 2l9 62q10 73 -28 110.5t-115 36.5q-60 -1 -121.5 -31t-92.5 -100h-239q21 107 91 180t174.5 110.5t230.5 37.5q154 0 242 -41t119.5 -114.5t17.5 -171.5l-108 -727h-241l1 175
q-68 -112 -150 -153.5t-186 -41.5zM471 172q39 0 76.5 14.5t69 39t53.5 55.5t27 64l23 153l-100 -2q-69 -1 -131.5 -17.5t-105.5 -53.5t-53 -100q-9 -72 32 -112.5t109 -40.5zM742 1204l36 238h273l-35 -238h-274zM301 1204l36 238h273l-35 -238h-274z" />
    <glyph glyph-name="aring" unicode="&#xe5;" horiz-adv-x="1132" 
d="M870 1500l-79 -142q50 -23 76 -71t16 -111q-13 -89 -80 -144t-153 -55q-84 0 -134 56.5t-37 146.5q10 69 58.5 119.5t114.5 66.5l51 134h167zM775 1174q6 42 -17.5 70.5t-65.5 28.5q-38 0 -71.5 -28.5t-39.5 -70.5q-6 -40 19 -71.5t64 -31.5q40 0 72.5 31.5t38.5 71.5z
M347 -20q-97 0 -168.5 37t-106 107.5t-20.5 171.5q25 170 162.5 258.5t404.5 91.5l124 2l9 62q10 73 -28 110.5t-115 36.5q-60 -1 -121.5 -31t-92.5 -100h-239q21 107 91 180t174.5 110.5t230.5 37.5q154 0 242 -41t119.5 -114.5t17.5 -171.5l-108 -727h-241l1 175
q-68 -112 -150 -153.5t-186 -41.5zM471 172q39 0 76.5 14.5t69 39t53.5 55.5t27 64l23 153l-100 -2q-69 -1 -131.5 -17.5t-105.5 -53.5t-53 -100q-9 -72 32 -112.5t109 -40.5z" />
    <glyph glyph-name="ae" unicode="&#xe6;" horiz-adv-x="1788" 
d="M349 -20q-96 0 -168 37t-107.5 107.5t-21.5 171.5q24 170 161 258.5t406 91.5l125 2l8 62q10 73 -27.5 110.5t-116.5 36.5q-60 -1 -120.5 -31t-91.5 -100h-241q20 107 89.5 180t173.5 110.5t231 37.5q128 0 211 -34.5t121 -96.5q65 63 149 97t182 34q155 0 249.5 -66.5
t130.5 -185t13 -273.5l-12 -79h-673q-13 -79 3 -137.5t59.5 -90t110.5 -31.5q72 0 130.5 32t91.5 105h259q-33 -110 -113 -188t-184 -119t-210 -41q-139 0 -238.5 58t-146.5 164q-34 -70 -94.5 -119.5t-145.5 -76t-193 -26.5zM474 172q60 0 108.5 28.5t81 72t39.5 87.5
l19 138l-101 -2q-69 -1 -132 -17.5t-106 -53.5t-52 -100q-10 -72 32 -112.5t111 -40.5zM1044 624h406q9 62 -5.5 114t-55 82t-108.5 30q-64 0 -114 -32.5t-82.5 -84.5t-40.5 -109z" />
    <glyph glyph-name="ccedilla" unicode="&#xe7;" horiz-adv-x="1071" 
d="M416 -425q-62 0 -117.5 12t-100.5 42l55 98q27 -19 63 -34t79 -15q46 0 73.5 16.5t32.5 45.5q6 39 -28 60t-125 22q-13 0 -17 3.5t4 15.5l96 169h127l-60 -117q73 -2 112.5 -26t53 -59.5t9.5 -70.5q-8 -51 -46 -87.5t-94 -55.5t-117 -19zM483 -20q-141 0 -241 64
t-145.5 183.5t-21.5 285.5q24 160 102.5 282t198 190.5t265.5 68.5q128 0 212.5 -53t123.5 -143t30 -201h-240q0 41 -15 81.5t-49 67t-92 26.5q-99 0 -171.5 -78.5t-96.5 -238.5q-22 -151 26 -239.5t152 -88.5q58 0 100 29t68.5 69.5t36.5 75.5h234q-21 -107 -87 -193.5
t-166 -137t-224 -50.5z" />
    <glyph glyph-name="egrave" unicode="&#xe8;" horiz-adv-x="1126" 
d="M506 -20q-149 0 -253 64.5t-149.5 182.5t-21.5 278q22 155 98.5 279.5t196.5 197t274 72.5q155 0 249.5 -66.5t130.5 -185t13 -273.5l-13 -79h-672q-13 -79 3 -137.5t59.5 -90t110.5 -31.5q72 0 130.5 32t90.5 105h260q-33 -110 -113 -188t-184 -119t-210 -41zM382 624
h406q10 62 -5 114t-55 82t-108 30q-64 0 -114.5 -32.5t-82.5 -84.5t-41 -109zM553 1155l-308 291h299l220 -291h-211z" />
    <glyph glyph-name="eacute" unicode="&#xe9;" horiz-adv-x="1126" 
d="M506 -20q-149 0 -253 64.5t-149.5 182.5t-21.5 278q22 155 98.5 279.5t196.5 197t274 72.5q155 0 249.5 -66.5t130.5 -185t13 -273.5l-13 -79h-672q-13 -79 3 -137.5t59.5 -90t110.5 -31.5q72 0 130.5 32t90.5 105h260q-33 -110 -113 -188t-184 -119t-210 -41zM382 624
h406q10 62 -5 114t-55 82t-108 30q-64 0 -114.5 -32.5t-82.5 -84.5t-41 -109zM551 1155l241 291h303l-331 -291h-213z" />
    <glyph glyph-name="ecircumflex" unicode="&#xea;" horiz-adv-x="1126" 
d="M506 -20q-149 0 -253 64.5t-149.5 182.5t-21.5 278q22 155 98.5 279.5t196.5 197t274 72.5q155 0 249.5 -66.5t130.5 -185t13 -273.5l-13 -79h-672q-13 -79 3 -137.5t59.5 -90t110.5 -31.5q72 0 130.5 32t90.5 105h260q-33 -110 -113 -188t-184 -119t-210 -41zM382 624
h406q10 62 -5 114t-55 82t-108 30q-64 0 -114.5 -32.5t-82.5 -84.5t-41 -109zM310 1155l267 259h199l244 -259h-226l-122 140l-148 -140h-214z" />
    <glyph glyph-name="edieresis" unicode="&#xeb;" horiz-adv-x="1126" 
d="M506 -20q-149 0 -253 64.5t-149.5 182.5t-21.5 278q22 155 98.5 279.5t196.5 197t274 72.5q155 0 249.5 -66.5t130.5 -185t13 -273.5l-13 -79h-672q-13 -79 3 -137.5t59.5 -90t110.5 -31.5q72 0 130.5 32t90.5 105h260q-33 -110 -113 -188t-184 -119t-210 -41zM382 624
h406q10 62 -5 114t-55 82t-108 30q-64 0 -114.5 -32.5t-82.5 -84.5t-41 -109zM754 1208l36 238h273l-35 -238h-274zM313 1208l36 238h273l-35 -238h-274z" />
    <glyph glyph-name="igrave" unicode="&#xec;" horiz-adv-x="548" 
d="M52 0l154 1034h290l-154 -1034h-290zM262 1155l-211 291h280l137 -289z" />
    <glyph glyph-name="iacute" unicode="&#xed;" horiz-adv-x="548" 
d="M52 0l154 1034h290l-154 -1034h-290zM470 1155l-215 2l180 289h289z" />
    <glyph glyph-name="icircumflex" unicode="&#xee;" horiz-adv-x="548" 
d="M52 0l154 1034h290l-154 -1034h-290zM16 1155l267 259h199l244 -259h-226l-122 140l-148 -140h-214z" />
    <glyph glyph-name="idieresis" unicode="&#xef;" horiz-adv-x="548" 
d="M52 0l154 1034h290l-154 -1034h-290zM460 1208l36 238h273l-35 -238h-274zM19 1208l36 238h273l-35 -238h-274z" />
    <glyph glyph-name="eth" unicode="&#xf0;" horiz-adv-x="1134" 
d="M504 -20q-134 0 -231.5 56.5t-150 158t-52.5 237.5q0 89 28.5 191.5t92 194.5t167.5 150.5t254 58.5q147 0 224 -78t87 -221l-160 168q-7 104 -48 203t-107 195t-148 187h232q112 -85 197 -207.5t133.5 -272.5t48.5 -318q0 -126 -31.5 -250.5t-99.5 -226.5t-175.5 -164
t-260.5 -62zM529 197q73 0 121.5 40.5t77.5 103.5t41 132.5t12 125.5q0 108 -43.5 164t-127.5 56q-73 0 -122 -39t-77.5 -99.5t-41.5 -128t-13 -124.5q0 -105 43 -168t130 -63zM393 1104l-21 127l720 205l21 -127z" />
    <glyph glyph-name="ntilde" unicode="&#xf1;" horiz-adv-x="1169" 
d="M52 0l155 1034h282l-18 -133q35 38 76.5 70t98.5 52t136 20q92 0 165.5 -43.5t111.5 -123t22 -187.5l-103 -689h-289l97 654q12 77 -30.5 118.5t-108.5 41.5q-46 0 -91 -16.5t-76.5 -48.5t-38.5 -80l-100 -669h-289zM411 1196l-24 141q42 39 89 65.5t114 26.5
q54 0 101 -15t90 -30.5t88 -15.5q50 0 94 22.5t77 47.5l13 -163q-34 -25 -88.5 -48t-120.5 -23q-54 0 -96.5 14t-83.5 28.5t-90 14.5t-84.5 -16t-78.5 -49z" />
    <glyph glyph-name="ograve" unicode="&#xf2;" horiz-adv-x="1127" 
d="M485 -20q-148 0 -248 65t-142.5 184t-19.5 282q24 163 101.5 285t197.5 190t268 68q150 0 249.5 -66.5t141 -188.5t17.5 -288q-23 -156 -98.5 -275.5t-194 -187.5t-272.5 -68zM520 197q73 0 124.5 45t82.5 118.5t43 160.5q11 82 2.5 155t-46.5 118t-116 45
q-75 0 -127 -42.5t-82 -115t-42 -160.5q-12 -81 -3.5 -155.5t47 -121.5t117.5 -47zM533 1155l-308 291h299l220 -291h-211z" />
    <glyph glyph-name="oacute" unicode="&#xf3;" horiz-adv-x="1127" 
d="M485 -20q-148 0 -248 65t-142.5 184t-19.5 282q24 163 101.5 285t197.5 190t268 68q150 0 249.5 -66.5t141 -188.5t17.5 -288q-23 -156 -98.5 -275.5t-194 -187.5t-272.5 -68zM520 197q73 0 124.5 45t82.5 118.5t43 160.5q11 82 2.5 155t-46.5 118t-116 45
q-75 0 -127 -42.5t-82 -115t-42 -160.5q-12 -81 -3.5 -155.5t47 -121.5t117.5 -47zM531 1155l241 291h303l-331 -291h-213z" />
    <glyph glyph-name="ocircumflex" unicode="&#xf4;" horiz-adv-x="1127" 
d="M485 -20q-148 0 -248 65t-142.5 184t-19.5 282q24 163 101.5 285t197.5 190t268 68q150 0 249.5 -66.5t141 -188.5t17.5 -288q-23 -156 -98.5 -275.5t-194 -187.5t-272.5 -68zM520 197q73 0 124.5 45t82.5 118.5t43 160.5q11 82 2.5 155t-46.5 118t-116 45
q-75 0 -127 -42.5t-82 -115t-42 -160.5q-12 -81 -3.5 -155.5t47 -121.5t117.5 -47zM290 1155l267 259h199l244 -259h-226l-122 140l-148 -140h-214z" />
    <glyph glyph-name="otilde" unicode="&#xf5;" horiz-adv-x="1127" 
d="M485 -20q-148 0 -248 65t-142.5 184t-19.5 282q24 163 101.5 285t197.5 190t268 68q150 0 249.5 -66.5t141 -188.5t17.5 -288q-23 -156 -98.5 -275.5t-194 -187.5t-272.5 -68zM520 197q73 0 124.5 45t82.5 118.5t43 160.5q11 82 2.5 155t-46.5 118t-116 45
q-75 0 -127 -42.5t-82 -115t-42 -160.5q-12 -81 -3.5 -155.5t47 -121.5t117.5 -47zM365 1196l-24 141q42 39 89 65.5t114 26.5q54 0 101 -15t90 -30.5t88 -15.5q50 0 94 22.5t77 47.5l13 -163q-34 -25 -88.5 -48t-120.5 -23q-54 0 -96.5 14t-83.5 28.5t-90 14.5t-84.5 -16
t-78.5 -49z" />
    <glyph glyph-name="odieresis" unicode="&#xf6;" horiz-adv-x="1127" 
d="M485 -20q-148 0 -248 65t-142.5 184t-19.5 282q24 163 101.5 285t197.5 190t268 68q150 0 249.5 -66.5t141 -188.5t17.5 -288q-23 -156 -98.5 -275.5t-194 -187.5t-272.5 -68zM520 197q73 0 124.5 45t82.5 118.5t43 160.5q11 82 2.5 155t-46.5 118t-116 45
q-75 0 -127 -42.5t-82 -115t-42 -160.5q-12 -81 -3.5 -155.5t47 -121.5t117.5 -47zM735 1208l36 238h273l-35 -238h-274zM294 1208l36 238h273l-35 -238h-274z" />
    <glyph glyph-name="divide" unicode="&#xf7;" horiz-adv-x="1155" 
d="M131 621l32 213h920l-32 -213h-920zM378 187l44 293h299l-43 -293h-300zM497 975l43 293h299l-44 -293h-298z" />
    <glyph glyph-name="oslash" unicode="&#xf8;" horiz-adv-x="1129" 
d="M87 -15l-97 103l1013 958l95 -102zM473 -20q-147 0 -247 65t-143 184t-19 282q23 163 101 285t198 190t268 68q150 0 249 -66.5t141 -188.5t18 -288q-23 -156 -98.5 -275.5t-194 -187.5t-273.5 -68zM509 197q73 0 124 45t82.5 118.5t42.5 160.5q12 82 3.5 155t-46.5 118
t-116 45q-75 0 -127 -42.5t-82.5 -115t-42.5 -160.5q-11 -81 -2.5 -155.5t46.5 -121.5t118 -47z" />
    <glyph glyph-name="ugrave" unicode="&#xf9;" horiz-adv-x="1173" 
d="M422 -20q-70 0 -135 22t-114.5 65t-74.5 106t-13 146l100 715h291l-96 -678q-10 -72 28.5 -118t126.5 -46q82 0 136.5 44.5t65.5 124.5l95 673h288l-145 -1034h-219l-4 205q-31 -91 -86.5 -139.5t-120 -67t-123.5 -18.5zM557 1155l-308 291h299l220 -291h-211z" />
    <glyph glyph-name="uacute" unicode="&#xfa;" horiz-adv-x="1173" 
d="M422 -20q-70 0 -135 22t-114.5 65t-74.5 106t-13 146l100 715h291l-96 -678q-10 -72 28.5 -118t126.5 -46q82 0 136.5 44.5t65.5 124.5l95 673h288l-145 -1034h-219l-4 205q-31 -91 -86.5 -139.5t-120 -67t-123.5 -18.5zM556 1155l241 291h303l-331 -291h-213z" />
    <glyph glyph-name="ucircumflex" unicode="&#xfb;" horiz-adv-x="1173" 
d="M422 -20q-70 0 -135 22t-114.5 65t-74.5 106t-13 146l100 715h291l-96 -678q-10 -72 28.5 -118t126.5 -46q82 0 136.5 44.5t65.5 124.5l95 673h288l-145 -1034h-219l-4 205q-31 -91 -86.5 -139.5t-120 -67t-123.5 -18.5zM315 1155l267 259h199l244 -259h-226l-122 140
l-148 -140h-214z" />
    <glyph glyph-name="udieresis" unicode="&#xfc;" horiz-adv-x="1173" 
d="M422 -20q-70 0 -135 22t-114.5 65t-74.5 106t-13 146l100 715h291l-96 -678q-10 -72 28.5 -118t126.5 -46q82 0 136.5 44.5t65.5 124.5l95 673h288l-145 -1034h-219l-4 205q-31 -91 -86.5 -139.5t-120 -67t-123.5 -18.5zM759 1208l36 238h273l-35 -238h-274zM318 1208
l36 238h273l-35 -238h-274z" />
    <glyph glyph-name="yacute" unicode="&#xfd;" horiz-adv-x="1099" 
d="M152 -330q-103 0 -143 17.5l-40 17.5l27 186l99 -4q87 -5 132.5 13.5t64 44.5t26.5 41l26 57l-244 991h285l138 -674l341 674h282l-558 -1040q-74 -132 -144 -202t-141.5 -96t-150.5 -26zM518 1155l241 291h303l-331 -291h-213z" />
    <glyph glyph-name="thorn" unicode="&#xfe;" horiz-adv-x="1190" 
d="M7 -322l262 1768h290l-79 -543q38 37 83 71.5t104.5 57t136.5 22.5q111 0 190.5 -57t113.5 -174.5t7 -297.5q-27 -187 -98 -307.5t-171.5 -179t-215.5 -58.5q-74 0 -133 24.5t-106 74.5q-19 19 -25 17.5t-11 -28.5l-58 -390h-290zM551 165q67 0 121 36.5t93 117t59 212.5
q18 126 2 199.5t-59.5 105.5t-106.5 32q-54 0 -99.5 -23.5t-75.5 -60t-36 -75.5l-64 -444q30 -44 69.5 -72t96.5 -28z" />
    <glyph glyph-name="ydieresis" unicode="&#xff;" horiz-adv-x="1099" 
d="M152 -330q-103 0 -143 17.5l-40 17.5l27 186l99 -4q87 -5 132.5 13.5t64 44.5t26.5 41l26 57l-244 991h285l138 -674l341 674h282l-558 -1040q-74 -132 -144 -202t-141.5 -96t-150.5 -26zM721 1208l36 238h273l-35 -238h-274zM280 1208l36 238h273l-35 -238h-274z" />
    <glyph glyph-name="Amacron" unicode="&#x100;" horiz-adv-x="1421" 
d="M-16 0l717 1446h303l287 -1446h-287l-63 335h-503l-165 -335h-289zM541 590h369l-98 574zM541 1617l28 187h688l-28 -187h-688z" />
    <glyph glyph-name="amacron" unicode="&#x101;" horiz-adv-x="1132" 
d="M347 -20q-97 0 -168.5 37t-106 107.5t-20.5 171.5q25 170 162.5 258.5t404.5 91.5l124 2l9 62q10 73 -28 110.5t-115 36.5q-60 -1 -121.5 -31t-92.5 -100h-239q21 107 91 180t174.5 110.5t230.5 37.5q154 0 242 -41t119.5 -114.5t17.5 -171.5l-108 -727h-241l1 175
q-68 -112 -150 -153.5t-186 -41.5zM471 172q39 0 76.5 14.5t69 39t53.5 55.5t27 64l23 153l-100 -2q-69 -1 -131.5 -17.5t-105.5 -53.5t-53 -100q-9 -72 32 -112.5t109 -40.5zM326 1205l28 187h688l-28 -187h-688z" />
    <glyph glyph-name="Abreve" unicode="&#x102;" horiz-adv-x="1421" 
d="M-16 0l717 1446h303l287 -1446h-287l-63 335h-503l-165 -335h-289zM541 590h369l-98 574zM869 1568q-81 0 -146 29.5t-106 86.5t-51 139h172q11 -28 30 -53t48.5 -41.5t74.5 -16.5q65 0 111 33.5t77 77.5h173q-35 -78 -93 -135.5t-132 -88.5t-158 -31z" />
    <glyph glyph-name="abreve" unicode="&#x103;" horiz-adv-x="1132" 
d="M347 -20q-97 0 -168.5 37t-106 107.5t-20.5 171.5q25 170 162.5 258.5t404.5 91.5l124 2l9 62q10 73 -28 110.5t-115 36.5q-60 -1 -121.5 -31t-92.5 -100h-239q21 107 91 180t174.5 110.5t230.5 37.5q154 0 242 -41t119.5 -114.5t17.5 -171.5l-108 -727h-241l1 175
q-68 -112 -150 -153.5t-186 -41.5zM471 172q39 0 76.5 14.5t69 39t53.5 55.5t27 64l23 153l-100 -2q-69 -1 -131.5 -17.5t-105.5 -53.5t-53 -100q-9 -72 32 -112.5t109 -40.5zM654 1155q-81 0 -146 29.5t-106 86.5t-51 139h172q11 -28 30 -53t48.5 -41.5t74.5 -16.5
q65 0 111 33.5t77 77.5h173q-35 -78 -93 -135.5t-132 -88.5t-158 -31z" />
    <glyph glyph-name="Aogonek" unicode="&#x104;" horiz-adv-x="1421" 
d="M-16 0l717 1446h303l287 -1446h-287l-63 335h-503l-165 -335h-289zM541 590h369l-98 574zM1062 -343q-100 0 -150.5 42t-38.5 122q8 55 51.5 101.5t161.5 85.5l202 -5q-109 -39 -152.5 -72t-50.5 -74q-3 -32 11 -48t50 -16q45 0 80.5 13.5t66.5 30.5l-20 -132
q-30 -17 -88 -32.5t-123 -15.5z" />
    <glyph glyph-name="aogonek" unicode="&#x105;" horiz-adv-x="1113" 
d="M347 -20q-97 0 -168.5 37t-106 107.5t-20.5 171.5q25 170 162.5 258.5t404.5 91.5l124 2l9 62q10 73 -28 110.5t-115 36.5q-60 -1 -121.5 -31t-92.5 -100h-239q21 107 91 180t174.5 110.5t230.5 37.5q154 0 242 -41t119.5 -114.5t17.5 -171.5l-108 -727h-241l1 175
q-68 -112 -150 -153.5t-186 -41.5zM471 172q39 0 76.5 14.5t69 39t53.5 55.5t27 64l23 153l-100 -2q-69 -1 -131.5 -17.5t-105.5 -53.5t-53 -100q-9 -72 32 -112.5t109 -40.5zM679 -335q-100 0 -150.5 42t-38.5 122q8 55 51.5 101.5t161.5 85.5l202 -5q-109 -39 -152.5 -72
t-50.5 -74q-3 -32 11 -48t50 -16q45 0 80.5 13.5t66.5 30.5l-20 -132q-30 -17 -88 -32.5t-123 -15.5z" />
    <glyph glyph-name="Cacute" unicode="&#x106;" horiz-adv-x="1412" 
d="M658 -20q-181 0 -304 79.5t-183 226t-50 347.5q8 168 59 318.5t145.5 266.5t232 182t315.5 66q157 0 270 -62t173.5 -174.5t59.5 -262.5h-303q-2 75 -30 133.5t-81.5 92t-134.5 33.5q-99 0 -170.5 -51t-118.5 -137.5t-71.5 -194.5t-31.5 -223q-13 -208 52.5 -304
t197.5 -96q80 0 143.5 38.5t108.5 102t69 139.5h303q-28 -103 -77.5 -196.5t-127 -166.5t-187 -115t-259.5 -42zM772 1567l241 291h303l-331 -291h-213z" />
    <glyph glyph-name="cacute" unicode="&#x107;" horiz-adv-x="1057" 
d="M483 -20q-141 0 -241 64t-145.5 183.5t-21.5 285.5q24 160 102.5 282t198 190.5t265.5 68.5q128 0 212.5 -53t123.5 -143t30 -201h-240q0 41 -15 81.5t-49 67t-92 26.5q-99 0 -171.5 -78.5t-96.5 -238.5q-22 -151 26 -239.5t152 -88.5q58 0 100 29t68.5 69.5t36.5 75.5
h234q-21 -107 -87 -193.5t-166 -137t-224 -50.5zM528 1155l241 291h303l-331 -291h-213z" />
    <glyph glyph-name="Ccircumflex" unicode="&#x108;" horiz-adv-x="1412" 
d="M658 -20q-181 0 -304 79.5t-183 226t-50 347.5q8 168 59 318.5t145.5 266.5t232 182t315.5 66q157 0 270 -62t173.5 -174.5t59.5 -262.5h-303q-2 75 -30 133.5t-81.5 92t-134.5 33.5q-99 0 -170.5 -51t-118.5 -137.5t-71.5 -194.5t-31.5 -223q-13 -208 52.5 -304
t197.5 -96q80 0 143.5 38.5t108.5 102t69 139.5h303q-28 -103 -77.5 -196.5t-127 -166.5t-187 -115t-259.5 -42zM531 1567l267 259h199l244 -259h-226l-122 140l-148 -140h-214z" />
    <glyph glyph-name="ccircumflex" unicode="&#x109;" horiz-adv-x="1071" 
d="M483 -20q-141 0 -241 64t-145.5 183.5t-21.5 285.5q24 160 102.5 282t198 190.5t265.5 68.5q128 0 212.5 -53t123.5 -143t30 -201h-240q0 41 -15 81.5t-49 67t-92 26.5q-99 0 -171.5 -78.5t-96.5 -238.5q-22 -151 26 -239.5t152 -88.5q58 0 100 29t68.5 69.5t36.5 75.5
h234q-21 -107 -87 -193.5t-166 -137t-224 -50.5zM300 1155l267 259h199l244 -259h-226l-122 140l-148 -140h-214z" />
    <glyph glyph-name="Cdotaccent" unicode="&#x10a;" horiz-adv-x="1412" 
d="M658 -20q-181 0 -304 79.5t-183 226t-50 347.5q8 168 59 318.5t145.5 266.5t232 182t315.5 66q157 0 270 -62t173.5 -174.5t59.5 -262.5h-303q-2 75 -30 133.5t-81.5 92t-134.5 33.5q-99 0 -170.5 -51t-118.5 -137.5t-71.5 -194.5t-31.5 -223q-13 -208 52.5 -304
t197.5 -96q80 0 143.5 38.5t108.5 102t69 139.5h303q-28 -103 -77.5 -196.5t-127 -166.5t-187 -115t-259.5 -42zM758 1620l35 238h274l-36 -238h-273z" />
    <glyph glyph-name="cdotaccent" unicode="&#x10b;" horiz-adv-x="1071" 
d="M483 -20q-141 0 -241 64t-145.5 183.5t-21.5 285.5q24 160 102.5 282t198 190.5t265.5 68.5q128 0 212.5 -53t123.5 -143t30 -201h-240q0 41 -15 81.5t-49 67t-92 26.5q-99 0 -171.5 -78.5t-96.5 -238.5q-22 -151 26 -239.5t152 -88.5q58 0 100 29t68.5 69.5t36.5 75.5
h234q-21 -107 -87 -193.5t-166 -137t-224 -50.5zM527 1208l35 238h274l-36 -238h-273z" />
    <glyph glyph-name="Ccaron" unicode="&#x10c;" horiz-adv-x="1412" 
d="M658 -20q-181 0 -304 79.5t-183 226t-50 347.5q8 168 59 318.5t145.5 266.5t232 182t315.5 66q157 0 270 -62t173.5 -174.5t59.5 -262.5h-303q-2 75 -30 133.5t-81.5 92t-134.5 33.5q-99 0 -170.5 -51t-118.5 -137.5t-71.5 -194.5t-31.5 -223q-13 -208 52.5 -304
t197.5 -96q80 0 143.5 38.5t108.5 102t69 139.5h303q-28 -103 -77.5 -196.5t-127 -166.5t-187 -115t-259.5 -42zM783 1567l-220 261h214l121 -151l150 151h225l-289 -261h-201z" />
    <glyph glyph-name="ccaron" unicode="&#x10d;" horiz-adv-x="1071" 
d="M483 -20q-141 0 -241 64t-145.5 183.5t-21.5 285.5q24 160 102.5 282t198 190.5t265.5 68.5q128 0 212.5 -53t123.5 -143t30 -201h-240q0 41 -15 81.5t-49 67t-92 26.5q-99 0 -171.5 -78.5t-96.5 -238.5q-22 -151 26 -239.5t152 -88.5q58 0 100 29t68.5 69.5t36.5 75.5
h234q-21 -107 -87 -193.5t-166 -137t-224 -50.5zM552 1155l-220 261h214l121 -151l150 151h225l-289 -261h-201z" />
    <glyph glyph-name="Dcaron" unicode="&#x10e;" horiz-adv-x="1419" 
d="M90 0l207 1446q11 0 69 -0.5t132 -0.5q143 0 272 -11.5t237 -44t187 -95.5t122.5 -165.5t43.5 -253.5q0 -86 -15 -183.5t-50.5 -195.5t-97.5 -187t-156 -158.5t-224.5 -110t-304.5 -40.5h-422zM417 236h122q126 0 223 49.5t164 136.5t101 201.5t34 246.5q0 121 -43 195.5
t-123.5 109.5t-194.5 35h-140zM858 1567l-220 261h214l121 -151l150 151h225l-289 -261h-201z" />
    <glyph glyph-name="dcaron" unicode="&#x10f;" horiz-adv-x="1186" 
d="M432 -20q-204 0 -297.5 143.5t-58.5 399.5q34 243 157 387t318 144q53 0 98.5 -12.5t81.5 -34.5t61.5 -51t39.5 -62l81 592h291l-204 -1486h-210l-4 212q-19 -43 -49.5 -84t-73.5 -74.5t-100 -53.5t-131 -20zM525 190q105 0 168 77t89 260q13 106 -0.5 176t-54.5 104.5
t-111 34.5q-92 0 -162.5 -72.5t-93.5 -242.5q-23 -173 22.5 -255t142.5 -82zM1239 1050l109 202l-67 12l33 222h196l-35 -233l-113 -203h-123z" />
    <glyph glyph-name="Dcroat" unicode="&#x110;" horiz-adv-x="1529" 
d="M87 608l27 214h778l-27 -214h-778zM200 0l207 1446q11 0 69 -0.5t132 -0.5q143 0 272.5 -11.5t237 -44t186.5 -95.5t122.5 -165.5t43.5 -253.5q0 -86 -15 -183.5t-50.5 -195.5t-97.5 -187t-156 -158.5t-224.5 -110t-304.5 -40.5h-422zM527 236h123q125 0 222 49.5
t164 136.5t101 201.5t34 246.5q0 121 -42.5 195.5t-123.5 109.5t-195 35h-140z" />
    <glyph glyph-name="dcroat" unicode="&#x111;" horiz-adv-x="1233" 
d="M590 1160l19 164h674l-20 -164h-673zM432 -20q-204 0 -297.5 143.5t-58.5 399.5q34 243 157 387t318 144q53 0 98.5 -12.5t81.5 -34.5t61.5 -51t39.5 -62l81 592h291l-204 -1486h-210l-4 212q-19 -43 -49.5 -84t-73.5 -74.5t-100 -53.5t-131 -20zM525 190q105 0 168 77
t89 260q13 106 -0.5 176t-54.5 104.5t-111 34.5q-92 0 -162.5 -72.5t-93.5 -242.5q-23 -173 22.5 -255t142.5 -82z" />
    <glyph glyph-name="Emacron" unicode="&#x112;" horiz-adv-x="1255" 
d="M89 0l215 1446h968l-38 -246h-677l-51 -351h585l-35 -241h-588l-53 -359l689 -1l-38 -248h-977zM455 1617l28 187h688l-28 -187h-688z" />
    <glyph glyph-name="emacron" unicode="&#x113;" horiz-adv-x="1126" 
d="M506 -20q-149 0 -253 64.5t-149.5 182.5t-21.5 278q22 155 98.5 279.5t196.5 197t274 72.5q155 0 249.5 -66.5t130.5 -185t13 -273.5l-13 -79h-672q-13 -79 3 -137.5t59.5 -90t110.5 -31.5q72 0 130.5 32t90.5 105h260q-33 -110 -113 -188t-184 -119t-210 -41zM382 624
h406q10 62 -5 114t-55 82t-108 30q-64 0 -114.5 -32.5t-82.5 -84.5t-41 -109zM337 1205l28 187h688l-28 -187h-688z" />
    <glyph glyph-name="Ebreve" unicode="&#x114;" horiz-adv-x="1255" 
d="M89 0l215 1446h968l-38 -246h-677l-51 -351h585l-35 -241h-588l-53 -359l689 -1l-38 -248h-977zM783 1568q-81 0 -146 29.5t-106 86.5t-51 139h172q11 -28 30 -53t48.5 -41.5t74.5 -16.5q65 0 111 33.5t77 77.5h173q-35 -78 -93 -135.5t-132 -88.5t-158 -31z" />
    <glyph glyph-name="ebreve" unicode="&#x115;" horiz-adv-x="1126" 
d="M506 -20q-149 0 -253 64.5t-149.5 182.5t-21.5 278q22 155 98.5 279.5t196.5 197t274 72.5q155 0 249.5 -66.5t130.5 -185t13 -273.5l-13 -79h-672q-13 -79 3 -137.5t59.5 -90t110.5 -31.5q72 0 130.5 32t90.5 105h260q-33 -110 -113 -188t-184 -119t-210 -41zM382 624
h406q10 62 -5 114t-55 82t-108 30q-64 0 -114.5 -32.5t-82.5 -84.5t-41 -109zM665 1156q-81 0 -146 29.5t-106 86.5t-51 139h172q11 -28 30 -53t48.5 -41.5t74.5 -16.5q65 0 111 33.5t77 77.5h173q-35 -78 -93 -135.5t-132 -88.5t-158 -31z" />
    <glyph glyph-name="Edotaccent" unicode="&#x116;" horiz-adv-x="1255" 
d="M89 0l215 1446h968l-38 -246h-677l-51 -351h585l-35 -241h-588l-53 -359l689 -1l-38 -248h-977zM655 1620l35 238h274l-36 -238h-273z" />
    <glyph glyph-name="edotaccent" unicode="&#x117;" horiz-adv-x="1126" 
d="M506 -20q-149 0 -253 64.5t-149.5 182.5t-21.5 278q22 155 98.5 279.5t196.5 197t274 72.5q155 0 249.5 -66.5t130.5 -185t13 -273.5l-13 -79h-672q-13 -79 3 -137.5t59.5 -90t110.5 -31.5q72 0 130.5 32t90.5 105h260q-33 -110 -113 -188t-184 -119t-210 -41zM382 624
h406q10 62 -5 114t-55 82t-108 30q-64 0 -114.5 -32.5t-82.5 -84.5t-41 -109zM537 1208l35 238h274l-36 -238h-273z" />
    <glyph glyph-name="Eogonek" unicode="&#x118;" horiz-adv-x="1255" 
d="M89 0l215 1446h968l-38 -246h-677l-51 -351h585l-35 -241h-588l-53 -359l689 -1l-38 -248h-977zM838 -337q-100 0 -150.5 42t-38.5 122q8 55 51.5 101.5t161.5 85.5l202 -5q-109 -39 -152.5 -72t-50.5 -74q-3 -32 11 -48t50 -16q45 0 80.5 13.5t66.5 30.5l-20 -132
q-30 -17 -88 -32.5t-123 -15.5z" />
    <glyph glyph-name="eogonek" unicode="&#x119;" horiz-adv-x="1126" 
d="M651 1054q155 0 250 -66.5t131 -185t12 -273.5l-13 -79h-672q-13 -79 3 -137.5t59.5 -90t110.5 -31.5q72 0 130.5 32t90.5 105h260q-33 -109 -102.5 -179t-168.5 -117q-79 -37 -125.5 -70.5t-53.5 -73.5q-3 -31 11 -47.5t50 -16.5q45 0 80.5 13.5t66.5 30.5l-20 -132
q-29 -17 -87.5 -32.5t-123.5 -15.5q-100 0 -150.5 42t-38.5 123q5 36 32 70t66 60q-131 12 -221.5 78.5t-129.5 180t-16 263.5q22 155 98.5 279.5t196.5 197t274 72.5zM382 624h406q10 62 -5 114t-55 82t-108 30q-64 0 -114.5 -32.5t-82.5 -84.5t-41 -109z" />
    <glyph glyph-name="Ecaron" unicode="&#x11a;" horiz-adv-x="1255" 
d="M89 0l215 1446h968l-38 -246h-677l-51 -351h585l-35 -241h-588l-53 -359l689 -1l-38 -248h-977zM680 1567l-220 261h214l121 -151l150 151h225l-289 -261h-201z" />
    <glyph glyph-name="ecaron" unicode="&#x11b;" horiz-adv-x="1111" 
d="M506 -20q-149 0 -253 64.5t-149.5 182.5t-21.5 278q22 155 98.5 279.5t196.5 197t274 72.5q155 0 249.5 -66.5t130.5 -185t13 -273.5l-13 -79h-672q-13 -79 3 -137.5t59.5 -90t110.5 -31.5q72 0 130.5 32t90.5 105h260q-33 -110 -113 -188t-184 -119t-210 -41zM382 624
h406q10 62 -5 114t-55 82t-108 30q-64 0 -114.5 -32.5t-82.5 -84.5t-41 -109zM556 1155l-220 261h214l121 -151l150 151h225l-289 -261h-201z" />
    <glyph glyph-name="Gcircumflex" unicode="&#x11c;" horiz-adv-x="1489" 
d="M650 -20q-193 0 -322 90.5t-182.5 256.5t-19.5 392q35 230 141 397.5t265.5 258.5t355.5 91q167 0 284 -71t174 -185.5t42 -242.5h-303q-3 69 -31 126t-81 91.5t-130 34.5q-93 0 -175 -49.5t-142 -157.5t-86 -285q-21 -143 -7 -238t55 -150.5t99 -78.5t123 -23
q62 0 113.5 21.5t91 55.5t65.5 74.5t37 79.5l24 88h-288l30 202l592 -3l-112 -755h-197l27 189q-44 -49 -103.5 -97.5t-142.5 -80t-197 -31.5zM533 1567l267 259h199l244 -259h-226l-122 140l-148 -140h-214z" />
    <glyph glyph-name="gcircumflex" unicode="&#x11d;" horiz-adv-x="1230" 
d="M487 -342q-276 0 -410 75t-118 194q8 50 38.5 83.5t69.5 54t71.5 32t42.5 16.5q-12 8 -39.5 26t-49 51t-13.5 86q7 49 61.5 92.5t167.5 63.5q-90 46 -132 131.5t-30 177.5q13 92 79.5 162t176.5 108.5t255 38.5q109 0 172.5 -24t111.5 -58q27 10 67 25.5t86 33.5t90 35.5
t78 30.5l-27 -228l-181 -37q15 -61 8 -116q-12 -86 -72.5 -161t-166 -120.5t-254.5 -45.5q-23 0 -54.5 1t-45.5 2q-60 1 -86 -7t-27 -26q3 -26 43 -37.5t113 -17.5q36 -3 91 -5.5t116 -7.5q190 -12 274 -97t66 -213q-19 -140 -162.5 -229.5t-409.5 -89.5zM532 -179
q122 0 180.5 34.5t66.5 96.5q5 42 -27.5 67t-105.5 30l-227 15q-46 3 -84 -14.5t-62.5 -47t-28.5 -65.5q-9 -59 61 -87.5t227 -28.5zM576 548q84 0 143.5 49.5t70.5 134.5q11 75 -28 119.5t-113 44.5q-84 0 -144.5 -54t-72.5 -140q-10 -71 28 -112.5t116 -41.5zM374 1155
l267 259h199l244 -259h-226l-122 140l-148 -140h-214z" />
    <glyph glyph-name="Gbreve" unicode="&#x11e;" horiz-adv-x="1489" 
d="M650 -20q-193 0 -322 90.5t-182.5 256.5t-19.5 392q35 230 141 397.5t265.5 258.5t355.5 91q167 0 284 -71t174 -185.5t42 -242.5h-303q-3 69 -31 126t-81 91.5t-130 34.5q-93 0 -175 -49.5t-142 -157.5t-86 -285q-21 -143 -7 -238t55 -150.5t99 -78.5t123 -23
q62 0 113.5 21.5t91 55.5t65.5 74.5t37 79.5l24 88h-288l30 202l592 -3l-112 -755h-197l27 189q-44 -49 -103.5 -97.5t-142.5 -80t-197 -31.5zM887 1568q-81 0 -146 29.5t-106 86.5t-51 139h172q11 -28 30 -53t48.5 -41.5t74.5 -16.5q65 0 111 33.5t77 77.5h173
q-35 -78 -93 -135.5t-132 -88.5t-158 -31z" />
    <glyph glyph-name="gbreve" unicode="&#x11f;" horiz-adv-x="1230" 
d="M487 -342q-276 0 -410 75t-118 194q8 50 38.5 83.5t69.5 54t71.5 32t42.5 16.5q-12 8 -39.5 26t-49 51t-13.5 86q7 49 61.5 92.5t167.5 63.5q-90 46 -132 131.5t-30 177.5q13 92 79.5 162t176.5 108.5t255 38.5q109 0 172.5 -24t111.5 -58q27 10 67 25.5t86 33.5t90 35.5
t78 30.5l-27 -228l-181 -37q15 -61 8 -116q-12 -86 -72.5 -161t-166 -120.5t-254.5 -45.5q-23 0 -54.5 1t-45.5 2q-60 1 -86 -7t-27 -26q3 -26 43 -37.5t113 -17.5q36 -3 91 -5.5t116 -7.5q190 -12 274 -97t66 -213q-19 -140 -162.5 -229.5t-409.5 -89.5zM532 -179
q122 0 180.5 34.5t66.5 96.5q5 42 -27.5 67t-105.5 30l-227 15q-46 3 -84 -14.5t-62.5 -47t-28.5 -65.5q-9 -59 61 -87.5t227 -28.5zM576 548q84 0 143.5 49.5t70.5 134.5q11 75 -28 119.5t-113 44.5q-84 0 -144.5 -54t-72.5 -140q-10 -71 28 -112.5t116 -41.5zM729 1156
q-81 0 -146 29.5t-106 86.5t-51 139h172q11 -28 30 -53t48.5 -41.5t74.5 -16.5q65 0 111 33.5t77 77.5h173q-35 -78 -93 -135.5t-132 -88.5t-158 -31z" />
    <glyph glyph-name="Gdotaccent" unicode="&#x120;" horiz-adv-x="1489" 
d="M650 -20q-193 0 -322 90.5t-182.5 256.5t-19.5 392q35 230 141 397.5t265.5 258.5t355.5 91q167 0 284 -71t174 -185.5t42 -242.5h-303q-3 69 -31 126t-81 91.5t-130 34.5q-93 0 -175 -49.5t-142 -157.5t-86 -285q-21 -143 -7 -238t55 -150.5t99 -78.5t123 -23
q62 0 113.5 21.5t91 55.5t65.5 74.5t37 79.5l24 88h-288l30 202l592 -3l-112 -755h-197l27 189q-44 -49 -103.5 -97.5t-142.5 -80t-197 -31.5zM760 1620l35 238h274l-36 -238h-273z" />
    <glyph glyph-name="gdotaccent" unicode="&#x121;" horiz-adv-x="1230" 
d="M487 -342q-276 0 -410 75t-118 194q8 50 38.5 83.5t69.5 54t71.5 32t42.5 16.5q-12 8 -39.5 26t-49 51t-13.5 86q7 49 61.5 92.5t167.5 63.5q-90 46 -132 131.5t-30 177.5q13 92 79.5 162t176.5 108.5t255 38.5q109 0 172.5 -24t111.5 -58q27 10 67 25.5t86 33.5t90 35.5
t78 30.5l-27 -228l-181 -37q15 -61 8 -116q-12 -86 -72.5 -161t-166 -120.5t-254.5 -45.5q-23 0 -54.5 1t-45.5 2q-60 1 -86 -7t-27 -26q3 -26 43 -37.5t113 -17.5q36 -3 91 -5.5t116 -7.5q190 -12 274 -97t66 -213q-19 -140 -162.5 -229.5t-409.5 -89.5zM532 -179
q122 0 180.5 34.5t66.5 96.5q5 42 -27.5 67t-105.5 30l-227 15q-46 3 -84 -14.5t-62.5 -47t-28.5 -65.5q-9 -59 61 -87.5t227 -28.5zM576 548q84 0 143.5 49.5t70.5 134.5q11 75 -28 119.5t-113 44.5q-84 0 -144.5 -54t-72.5 -140q-10 -71 28 -112.5t116 -41.5zM601 1208
l35 238h274l-36 -238h-273z" />
    <glyph glyph-name="uni0122" unicode="&#x122;" horiz-adv-x="1489" 
d="M650 -20q-193 0 -322 90.5t-182.5 256.5t-19.5 392q35 230 141 397.5t265.5 258.5t355.5 91q167 0 284 -71t174 -185.5t42 -242.5h-303q-3 69 -31 126t-81 91.5t-130 34.5q-93 0 -175 -49.5t-142 -157.5t-86 -285q-21 -143 -7 -238t55 -150.5t99 -78.5t123 -23
q62 0 113.5 21.5t91 55.5t65.5 74.5t37 79.5l24 88h-288l30 202l592 -3l-112 -755h-197l27 189q-44 -49 -103.5 -97.5t-142.5 -80t-197 -31.5zM452 -440l110 149l-77 10l26 187h246l-23 -156l-180 -190h-102z" />
    <glyph glyph-name="uni0123" unicode="&#x123;" horiz-adv-x="1230" 
d="M487 -342q-276 0 -410 75t-118 194q8 50 38.5 83.5t69.5 54t71.5 32t42.5 16.5q-12 8 -39.5 26t-49 51t-13.5 86q7 49 61.5 92.5t167.5 63.5q-90 46 -132 131.5t-30 177.5q13 92 79.5 162t176.5 108.5t255 38.5q109 0 172.5 -24t111.5 -58q27 10 67 25.5t86 33.5t90 35.5
t78 30.5l-27 -228l-181 -37q15 -61 8 -116q-12 -86 -72.5 -161t-166 -120.5t-254.5 -45.5q-23 0 -54.5 1t-45.5 2q-60 1 -86 -7t-27 -26q3 -26 43 -37.5t113 -17.5q36 -3 91 -5.5t116 -7.5q190 -12 274 -97t66 -213q-19 -140 -162.5 -229.5t-409.5 -89.5zM532 -179
q122 0 180.5 34.5t66.5 96.5q5 42 -27.5 67t-105.5 30l-227 15q-46 3 -84 -14.5t-62.5 -47t-28.5 -65.5q-9 -59 61 -87.5t227 -28.5zM576 548q84 0 143.5 49.5t70.5 134.5q11 75 -28 119.5t-113 44.5q-84 0 -144.5 -54t-72.5 -140q-10 -71 28 -112.5t116 -41.5zM622 1155
l28 202l135 156h110l-137 -170h99l-27 -188h-208z" />
    <glyph glyph-name="Hcircumflex" unicode="&#x124;" horiz-adv-x="1515" 
d="M89 0l204 1446h290l-82 -580h612l81 580h290l-204 -1446h-290l88 621h-612l-87 -621h-290zM558 1567l267 259h199l244 -259h-226l-122 140l-148 -140h-214z" />
    <glyph glyph-name="hcircumflex" unicode="&#x125;" horiz-adv-x="1174" 
d="M57 0l216 1486h288l-85 -588q43 54 115 98t192 44q95 0 169.5 -40.5t112 -113.5t22.5 -171l-104 -715h-289l97 674q10 66 -33.5 103t-111.5 37q-47 0 -91 -17t-74.5 -50t-36.5 -81l-98 -666h-289zM75 1567l267 259h199l244 -259h-226l-122 140l-148 -140h-214z" />
    <glyph glyph-name="Hbar" unicode="&#x126;" horiz-adv-x="1620" 
d="M115 1096l24 164h1552l-24 -164h-1552zM151 0l204 1446h290l-82 -580h612l81 580h290l-204 -1446h-290l88 621h-612l-87 -621h-290z" />
    <glyph glyph-name="hbar" unicode="&#x127;" horiz-adv-x="1274" 
d="M132 1160l22 164h672l-21 -164h-673zM157 0l216 1486h288l-85 -588q43 54 115 98t192 44q95 0 169.5 -40.5t112 -113.5t22.5 -171l-104 -715h-289l97 674q10 66 -33.5 103t-111.5 37q-47 0 -91 -17t-74.5 -50t-36.5 -81l-98 -666h-289z" />
    <glyph glyph-name="Itilde" unicode="&#x128;" horiz-adv-x="623" 
d="M89 0l214 1446h289l-213 -1446h-290zM186 1608l-24 141q42 39 89 65.5t114 26.5q54 0 101 -15t90 -30.5t88 -15.5q50 0 94 22.5t77 47.5l13 -163q-34 -25 -88.5 -48t-120.5 -23q-54 0 -96.5 14t-83.5 28.5t-90 14.5t-84.5 -16t-78.5 -49z" />
    <glyph glyph-name="itilde" unicode="&#x129;" horiz-adv-x="548" 
d="M52 0l154 1034h290l-154 -1034h-290zM91 1196l-24 141q42 39 89 65.5t114 26.5q54 0 101 -15t90 -30.5t88 -15.5q50 0 94 22.5t77 47.5l13 -163q-34 -25 -88.5 -48t-120.5 -23q-54 0 -96.5 14t-83.5 28.5t-90 14.5t-84.5 -16t-78.5 -49z" />
    <glyph glyph-name="Imacron" unicode="&#x12a;" horiz-adv-x="623" 
d="M89 0l214 1446h289l-213 -1446h-290zM137 1617l28 187h688l-28 -187h-688z" />
    <glyph glyph-name="imacron" unicode="&#x12b;" horiz-adv-x="548" 
d="M52 0l154 1034h290l-154 -1034h-290zM42 1205l28 187h688l-28 -187h-688z" />
    <glyph glyph-name="Ibreve" unicode="&#x12c;" horiz-adv-x="623" 
d="M89 0l214 1446h289l-213 -1446h-290zM465 1568q-81 0 -146 29.5t-106 86.5t-51 139h172q11 -28 30 -53t48.5 -41.5t74.5 -16.5q65 0 111 33.5t77 77.5h173q-35 -78 -93 -135.5t-132 -88.5t-158 -31z" />
    <glyph glyph-name="ibreve" unicode="&#x12d;" horiz-adv-x="548" 
d="M52 0l154 1034h290l-154 -1034h-290zM371 1156q-81 0 -146 29.5t-106 86.5t-51 139h172q11 -28 30 -53t48.5 -41.5t74.5 -16.5q65 0 111 33.5t77 77.5h173q-35 -78 -93 -135.5t-132 -88.5t-158 -31z" />
    <glyph glyph-name="Iogonek" unicode="&#x12e;" horiz-adv-x="623" 
d="M89 0l214 1446h289l-213 -1446h-290zM151 -345q-100 0 -150.5 42t-38.5 122q8 55 51.5 101.5t161.5 85.5l202 -5q-109 -39 -152.5 -72t-50.5 -74q-3 -32 11 -48t50 -16q45 0 80.5 13.5t66.5 30.5l-20 -132q-30 -17 -88 -32.5t-123 -15.5z" />
    <glyph glyph-name="iogonek" unicode="&#x12f;" horiz-adv-x="533" 
d="M55 0l146 1034h277l-146 -1034h-277zM219 1183l37 263h282l-37 -263h-282zM109 -337q-100 0 -150.5 42t-38.5 122q8 55 51.5 101.5t161.5 85.5l202 -5q-109 -39 -152.5 -72t-50.5 -74q-3 -32 11 -48t50 -16q45 0 80.5 13.5t66.5 30.5l-20 -132q-30 -17 -88 -32.5
t-123 -15.5z" />
    <glyph glyph-name="Idotaccent" unicode="&#x130;" horiz-adv-x="623" 
d="M89 0l214 1446h289l-213 -1446h-290zM338 1620l35 238h274l-36 -238h-273z" />
    <glyph glyph-name="dotlessi" unicode="&#x131;" horiz-adv-x="548" 
d="M52 0l154 1034h290l-154 -1034h-290z" />
    <glyph glyph-name="Jcircumflex" unicode="&#x134;" horiz-adv-x="800" 
d="M223 -20q-66 0 -135.5 11.5t-102.5 20.5l46 267q27 -6 62 -16t78 -10q99 0 141 53.5t59 173.5l143 966h288l-154 -1044q-21 -138 -64.5 -232t-129 -142t-231.5 -48zM313 1567l267 259h199l244 -259h-226l-122 140l-148 -140h-214z" />
    <glyph glyph-name="jcircumflex" unicode="&#x135;" horiz-adv-x="566" 
d="M-25 -332q-78 0 -100.5 12.5t-22.5 16.5l28 195l78 8q61 8 88.5 34t33.5 76l152 1024h289l-151 -1027q-26 -169 -120.5 -254t-274.5 -85zM34 1155l267 259h199l244 -259h-226l-122 140l-148 -140h-214z" />
    <glyph glyph-name="uni0136" unicode="&#x136;" horiz-adv-x="1407" 
d="M89 0l215 1446h300l-97 -662l604 662h329l-505 -558l344 -888h-314l-270 674l-245 -259l-61 -415h-300zM418 -440l110 149l-77 10l26 187h246l-23 -156l-180 -190h-102z" />
    <glyph glyph-name="uni0137" unicode="&#x137;" horiz-adv-x="1140" 
d="M52 0l220 1486h289l-130 -881l428 429h309l-427 -412l285 -622h-287l-202 446l-152 -146l-45 -300h-288zM301 -440l110 149l-77 10l26 187h246l-23 -156l-180 -190h-102z" />
    <glyph glyph-name="kgreenlandic" unicode="&#x138;" horiz-adv-x="1176" 
d="M52 0l155 1034h287l-66 -457l472 457h292l-384 -347l260 -687h-328l-157 475l-198 -175l-43 -300h-290z" />
    <glyph glyph-name="Lacute" unicode="&#x139;" horiz-adv-x="1136" 
d="M89 0l215 1446h290l-177 -1199h607l-37 -247h-898zM346 1567l241 291h303l-331 -291h-213z" />
    <glyph glyph-name="lacute" unicode="&#x13a;" horiz-adv-x="665" 
d="M372 -18q-112 0 -173.5 27t-86.5 71.5t-26 99t7 110.5l177 1196h284l-172 -1160q-8 -57 10.5 -92.5t83.5 -43.5l45 -3l-26 -180q-31 -10 -63 -17.5t-60 -7.5zM326 1649l241 291h303l-331 -291h-213z" />
    <glyph glyph-name="uni013B" unicode="&#x13b;" horiz-adv-x="1136" 
d="M89 0l215 1446h290l-177 -1199h607l-37 -247h-898zM332 -440l110 149l-77 10l26 187h246l-23 -156l-180 -190h-102z" />
    <glyph glyph-name="uni013C" unicode="&#x13c;" horiz-adv-x="649" 
d="M372 -18q-112 0 -173.5 27t-86.5 71.5t-26 99t7 110.5l177 1196h284l-172 -1160q-8 -57 10.5 -92.5t83.5 -43.5l45 -3l-26 -180q-31 -10 -63 -17.5t-60 -7.5zM-11 -439l110 149l-77 10l26 187h246l-23 -156l-180 -190h-102z" />
    <glyph glyph-name="Lcaron" unicode="&#x13d;" horiz-adv-x="1136" 
d="M89 0l215 1446h290l-177 -1199h607l-37 -247h-898zM810 1010l109 202l-67 12l33 222h196l-35 -233l-113 -203h-123z" />
    <glyph glyph-name="lcaron" unicode="&#x13e;" horiz-adv-x="649" 
d="M372 -18q-112 0 -173.5 27t-86.5 71.5t-26 99t7 110.5l177 1196h284l-172 -1160q-8 -57 10.5 -92.5t83.5 -43.5l45 -3l-26 -180q-31 -10 -63 -17.5t-60 -7.5zM596 1050l109 202l-67 12l33 222h196l-35 -233l-113 -203h-123z" />
    <glyph glyph-name="Ldot" unicode="&#x13f;" horiz-adv-x="1185" 
d="M89 0l215 1446h290l-177 -1199h607l-37 -247h-898zM786 659l44 287h293l-44 -287h-293z" />
    <glyph glyph-name="ldot" unicode="&#x140;" horiz-adv-x="855" 
d="M372 -18q-112 0 -173.5 27t-86.5 71.5t-26 99t7 110.5l177 1196h284l-172 -1160q-8 -57 10.5 -92.5t83.5 -43.5l45 -3l-26 -180q-31 -10 -63 -17.5t-60 -7.5zM567 659l44 287h293l-44 -287h-293z" />
    <glyph glyph-name="Lslash" unicode="&#x141;" horiz-adv-x="1202" 
d="M60 568v242l780 206v-231zM155 0l215 1446h290l-177 -1199h607l-37 -247h-898z" />
    <glyph glyph-name="lslash" unicode="&#x142;" horiz-adv-x="843" 
d="M83 357v250l715 452v-238zM513 -18q-112 0 -173.5 27t-86.5 71.5t-26 99t7 110.5l177 1196h284l-172 -1160q-8 -57 10.5 -92.5t83.5 -43.5l45 -3l-27 -180q-30 -10 -62 -17.5t-60 -7.5z" />
    <glyph glyph-name="Nacute" unicode="&#x143;" horiz-adv-x="1546" 
d="M89 0l215 1446h287l494 -957l140 957h290l-215 -1446h-260l-515 995l-146 -995h-290zM812 1567l241 291h303l-331 -291h-213z" />
    <glyph glyph-name="nacute" unicode="&#x144;" horiz-adv-x="1169" 
d="M52 0l155 1034h282l-18 -133q35 38 76.5 70t98.5 52t136 20q92 0 165.5 -43.5t111.5 -123t22 -187.5l-103 -689h-289l97 654q12 77 -30.5 118.5t-108.5 41.5q-46 0 -91 -16.5t-76.5 -48.5t-38.5 -80l-100 -669h-289zM577 1155l241 291h303l-331 -291h-213z" />
    <glyph glyph-name="uni0145" unicode="&#x145;" horiz-adv-x="1546" 
d="M89 0l215 1446h287l494 -957l140 957h290l-215 -1446h-260l-515 995l-146 -995h-290zM481 -440l110 149l-77 10l26 187h246l-23 -156l-180 -190h-102z" />
    <glyph glyph-name="uni0146" unicode="&#x146;" horiz-adv-x="1169" 
d="M52 0l155 1034h282l-18 -133q35 38 76.5 70t98.5 52t136 20q92 0 165.5 -43.5t111.5 -123t22 -187.5l-103 -689h-289l97 654q12 77 -30.5 118.5t-108.5 41.5q-46 0 -91 -16.5t-76.5 -48.5t-38.5 -80l-100 -669h-289zM318 -440l110 149l-77 10l26 187h246l-23 -156
l-180 -190h-102z" />
    <glyph glyph-name="Ncaron" unicode="&#x147;" horiz-adv-x="1546" 
d="M89 0l215 1446h287l494 -957l140 957h290l-215 -1446h-260l-515 995l-146 -995h-290zM822 1567l-220 261h214l121 -151l150 151h225l-289 -261h-201z" />
    <glyph glyph-name="ncaron" unicode="&#x148;" horiz-adv-x="1169" 
d="M52 0l155 1034h282l-18 -133q35 38 76.5 70t98.5 52t136 20q92 0 165.5 -43.5t111.5 -123t22 -187.5l-103 -689h-289l97 654q12 77 -30.5 118.5t-108.5 41.5q-46 0 -91 -16.5t-76.5 -48.5t-38.5 -80l-100 -669h-289zM587 1155l-220 261h214l121 -151l150 151h225
l-289 -261h-201z" />
    <glyph glyph-name="Eng" unicode="&#x14a;" horiz-adv-x="1546" 
d="M865 -480q-65 0 -134 11.5t-102 20.5l44 265q26 -7 63 -15.5t78 -8.5q87 0 132.5 42.5t60.5 139.5l10 68l-492 952l-146 -995h-290l215 1446h287l494 -957l140 957h290l-223 -1502q-23 -151 -70.5 -244.5t-133 -136.5t-223.5 -43z" />
    <glyph glyph-name="eng" unicode="&#x14b;" horiz-adv-x="1125" 
d="M567 -332q-76 0 -93 10t-17 14l29 200l62 5q51 6 77.5 30.5t33.5 78.5l98 691q9 65 -18.5 104.5t-97.5 39.5q-56 0 -109.5 -32t-106.5 -93l-101 -716h-272l151 1034h260l-21 -160q61 58 118.5 98t115 61t115.5 21q130 0 195.5 -84t46.5 -223l-104 -733
q-15 -108 -64.5 -185.5t-125.5 -119t-172 -41.5z" />
    <glyph glyph-name="Omacron" unicode="&#x14c;" horiz-adv-x="1491" 
d="M666 -20q-200 0 -332.5 89t-187 254.5t-20.5 395.5q35 231 140 398.5t264.5 258t355.5 90.5t327.5 -90t186.5 -257.5t21 -398.5q-34 -229 -137.5 -395t-261.5 -255.5t-356 -89.5zM702 220q101 0 183 50.5t138.5 159.5t82.5 286q27 180 2.5 292.5t-91 165t-167.5 52.5
q-151 0 -260 -120t-149 -390q-26 -176 -0.5 -285.5t93 -160t168.5 -50.5zM558 1617l28 187h688l-28 -187h-688z" />
    <glyph glyph-name="omacron" unicode="&#x14d;" horiz-adv-x="1127" 
d="M485 -20q-148 0 -248 65t-142.5 184t-19.5 282q24 163 101.5 285t197.5 190t268 68q150 0 249.5 -66.5t141 -188.5t17.5 -288q-23 -156 -98.5 -275.5t-194 -187.5t-272.5 -68zM520 197q73 0 124.5 45t82.5 118.5t43 160.5q11 82 2.5 155t-46.5 118t-116 45
q-75 0 -127 -42.5t-82 -115t-42 -160.5q-12 -81 -3.5 -155.5t47 -121.5t117.5 -47zM317 1205l28 187h688l-28 -187h-688z" />
    <glyph glyph-name="Obreve" unicode="&#x14e;" horiz-adv-x="1491" 
d="M666 -20q-200 0 -332.5 89t-187 254.5t-20.5 395.5q35 231 140 398.5t264.5 258t355.5 90.5t327.5 -90t186.5 -257.5t21 -398.5q-34 -229 -137.5 -395t-261.5 -255.5t-356 -89.5zM702 220q101 0 183 50.5t138.5 159.5t82.5 286q27 180 2.5 292.5t-91 165t-167.5 52.5
q-151 0 -260 -120t-149 -390q-26 -176 -0.5 -285.5t93 -160t168.5 -50.5zM886 1568q-81 0 -146 29.5t-106 86.5t-51 139h172q11 -28 30 -53t48.5 -41.5t74.5 -16.5q65 0 111 33.5t77 77.5h173q-35 -78 -93 -135.5t-132 -88.5t-158 -31z" />
    <glyph glyph-name="obreve" unicode="&#x14f;" horiz-adv-x="1127" 
d="M485 -20q-148 0 -248 65t-142.5 184t-19.5 282q24 163 101.5 285t197.5 190t268 68q150 0 249.5 -66.5t141 -188.5t17.5 -288q-23 -156 -98.5 -275.5t-194 -187.5t-272.5 -68zM520 197q73 0 124.5 45t82.5 118.5t43 160.5q11 82 2.5 155t-46.5 118t-116 45
q-75 0 -127 -42.5t-82 -115t-42 -160.5q-12 -81 -3.5 -155.5t47 -121.5t117.5 -47zM645 1156q-81 0 -146 29.5t-106 86.5t-51 139h172q11 -28 30 -53t48.5 -41.5t74.5 -16.5q65 0 111 33.5t77 77.5h173q-35 -78 -93 -135.5t-132 -88.5t-158 -31z" />
    <glyph glyph-name="Ohungarumlaut" unicode="&#x150;" horiz-adv-x="1491" 
d="M666 -20q-200 0 -332.5 89t-187 254.5t-20.5 395.5q35 231 140 398.5t264.5 258t355.5 90.5t327.5 -90t186.5 -257.5t21 -398.5q-34 -229 -137.5 -395t-261.5 -255.5t-356 -89.5zM702 220q101 0 183 50.5t138.5 159.5t82.5 286q27 180 2.5 292.5t-91 165t-167.5 52.5
q-151 0 -260 -120t-149 -390q-26 -176 -0.5 -285.5t93 -160t168.5 -50.5zM954 1567l202 291h268l-265 -291h-205zM606 1567l157 291h259l-212 -291h-204z" />
    <glyph glyph-name="ohungarumlaut" unicode="&#x151;" horiz-adv-x="1050" 
d="M485 -20q-148 0 -248 65t-142.5 184t-19.5 282q24 163 101.5 285t197.5 190t268 68q150 0 249.5 -66.5t141 -188.5t17.5 -288q-23 -156 -98.5 -275.5t-194 -187.5t-272.5 -68zM520 197q73 0 124.5 45t82.5 118.5t43 160.5q11 82 2.5 155t-46.5 118t-116 45
q-75 0 -127 -42.5t-82 -115t-42 -160.5q-12 -81 -3.5 -155.5t47 -121.5t117.5 -47zM699 1155l202 291h268l-265 -291h-205zM351 1155l157 291h259l-212 -291h-204z" />
    <glyph glyph-name="OE" unicode="&#x152;" horiz-adv-x="2196" 
d="M2213 1446l-38 -246h-677l-51 -351h586l-36 -241h-588l-53 -359l690 -1l-39 -248h-977l18 130q-76 -73 -172.5 -111.5t-209.5 -38.5q-200 0 -332.5 89t-187 254.5t-20.5 395.5q35 231 140 398.5t264.5 258t355.5 90.5q113 0 199 -38.5t141 -114.5l19 133h968zM702 220
q101 0 183 50.5t138.5 159.5t82.5 286q27 180 2.5 292.5t-91 165t-167.5 52.5q-151 0 -260 -120t-149 -390q-26 -176 -0.5 -285.5t93 -160t168.5 -50.5z" />
    <glyph glyph-name="oe" unicode="&#x153;" horiz-adv-x="1822" 
d="M1346 1054q155 0 250 -66.5t131 -185t12 -273.5l-13 -79h-672q-13 -79 3.5 -137.5t59.5 -90t110 -31.5q72 0 130.5 32t91.5 105h259q-33 -110 -113 -188t-184 -119t-210 -41q-115 0 -202.5 43t-137.5 123q-69 -78 -164 -122t-212 -44q-148 0 -248 65t-142.5 184
t-19.5 282q24 163 101.5 285t197.5 190t268 68q114 0 198.5 -43.5t131.5 -127.5q69 81 164 126t210 45zM520 197q73 0 124.5 45t82.5 118.5t43 160.5q11 82 2.5 155t-46.5 118t-116 45q-75 0 -127 -42.5t-82 -115t-42 -160.5q-12 -81 -3.5 -155.5t47 -121.5t117.5 -47z
M1077 624h406q10 62 -4.5 114t-55 82t-108.5 30q-64 0 -114.5 -32.5t-82.5 -84.5t-41 -109z" />
    <glyph glyph-name="Racute" unicode="&#x154;" horiz-adv-x="1365" 
d="M89 0l214 1446h594q169 0 268 -55t135.5 -152.5t17.5 -224.5q-17 -114 -63 -192.5t-109 -130.5t-134 -85l170 -606h-298l-145 557h-280l-82 -557h-288zM493 782h258q74 0 132 28.5t95 79t47 117.5q15 100 -40 158t-150 58h-277zM712 1567l241 291h303l-331 -291h-213z
" />
    <glyph glyph-name="racute" unicode="&#x155;" horiz-adv-x="810" 
d="M53 0l145 1034h279l-34 -245q35 79 88 138.5t121.5 93t148.5 33.5q14 0 25.5 -1.5t16.5 -4.5l-39 -278q-8 4 -19.5 5t-20.5 2q-113 10 -184.5 -14.5t-109 -76t-47.5 -120.5l-80 -566h-290zM436 1155l241 291h303l-331 -291h-213z" />
    <glyph glyph-name="uni0156" unicode="&#x156;" horiz-adv-x="1365" 
d="M89 0l214 1446h594q169 0 268 -55t135.5 -152.5t17.5 -224.5q-17 -114 -63 -192.5t-109 -130.5t-134 -85l170 -606h-298l-145 557h-280l-82 -557h-288zM493 782h258q74 0 132 28.5t95 79t47 117.5q15 100 -40 158t-150 58h-277zM414 -440l110 149l-77 10l26 187h246
l-23 -156l-180 -190h-102z" />
    <glyph glyph-name="uni0157" unicode="&#x157;" horiz-adv-x="804" 
d="M53 0l145 1034h279l-34 -245q35 79 88 138.5t121.5 93t148.5 33.5q14 0 25.5 -1.5t16.5 -4.5l-39 -278q-8 4 -19.5 5t-20.5 2q-113 10 -184.5 -14.5t-109 -76t-47.5 -120.5l-80 -566h-290zM-8 -440l110 149l-77 10l26 187h246l-23 -156l-180 -190h-102z" />
    <glyph glyph-name="Rcaron" unicode="&#x158;" horiz-adv-x="1365" 
d="M89 0l214 1446h594q169 0 268 -55t135.5 -152.5t17.5 -224.5q-17 -114 -63 -192.5t-109 -130.5t-134 -85l170 -606h-298l-145 557h-280l-82 -557h-288zM493 782h258q74 0 132 28.5t95 79t47 117.5q15 100 -40 158t-150 58h-277zM722 1567l-220 261h214l121 -151l150 151
h225l-289 -261h-201z" />
    <glyph glyph-name="rcaron" unicode="&#x159;" horiz-adv-x="804" 
d="M53 0l145 1034h279l-34 -245q35 79 88 138.5t121.5 93t148.5 33.5q14 0 25.5 -1.5t16.5 -4.5l-39 -278q-8 4 -19.5 5t-20.5 2q-113 10 -184.5 -14.5t-109 -76t-47.5 -120.5l-80 -566h-290zM420 1155l-220 261h214l121 -151l150 151h225l-289 -261h-201z" />
    <glyph glyph-name="Sacute" unicode="&#x15a;" horiz-adv-x="1379" 
d="M623 -20q-106 0 -204.5 26t-175 79t-119 135t-37.5 193h302q4 -66 38.5 -111t93 -69t134.5 -24q78 0 145 20t111.5 60.5t53.5 101.5q8 55 -19 90t-78 57t-118 36l-237 51q-158 31 -238.5 130.5t-59.5 265.5q19 136 107 235.5t221 153.5t288 54q168 0 283.5 -63
t173.5 -163t51 -212h-296q4 76 -26 121t-85.5 65t-129.5 20q-76 0 -135 -22.5t-94.5 -62.5t-42.5 -92q-9 -63 26.5 -102t143.5 -64l234 -51q129 -26 199.5 -77t100 -115t32.5 -130.5t-5 -122.5q-16 -117 -102.5 -210.5t-224.5 -148t-311 -54.5zM732 1567l241 291h303
l-331 -291h-213z" />
    <glyph glyph-name="sacute" unicode="&#x15b;" horiz-adv-x="1060" 
d="M457 -20q-106 0 -198.5 35.5t-150 112t-59.5 198.5h251q5 -55 34.5 -87t70.5 -45.5t79 -13.5q81 0 134 26.5t61 81.5q6 42 -20 67t-93 38l-171 38q-131 29 -202.5 98.5t-54.5 197.5q12 93 71 167t160 117t240 43q188 0 288.5 -84t80.5 -237h-242q-2 60 -44.5 92.5
t-113.5 32.5q-72 0 -123.5 -27t-58.5 -82q-6 -41 29.5 -64.5t114.5 -40.5l158 -38q82 -21 130.5 -57.5t72 -79.5t29 -86.5t-0.5 -78.5q-14 -103 -78 -175.5t-166 -110.5t-228 -38zM546 1155l241 291h303l-331 -291h-213z" />
    <glyph glyph-name="Scircumflex" unicode="&#x15c;" horiz-adv-x="1379" 
d="M623 -20q-106 0 -204.5 26t-175 79t-119 135t-37.5 193h302q4 -66 38.5 -111t93 -69t134.5 -24q78 0 145 20t111.5 60.5t53.5 101.5q8 55 -19 90t-78 57t-118 36l-237 51q-158 31 -238.5 130.5t-59.5 265.5q19 136 107 235.5t221 153.5t288 54q168 0 283.5 -63
t173.5 -163t51 -212h-296q4 76 -26 121t-85.5 65t-129.5 20q-76 0 -135 -22.5t-94.5 -62.5t-42.5 -92q-9 -63 26.5 -102t143.5 -64l234 -51q129 -26 199.5 -77t100 -115t32.5 -130.5t-5 -122.5q-16 -117 -102.5 -210.5t-224.5 -148t-311 -54.5zM491 1567l267 259h199
l244 -259h-226l-122 140l-148 -140h-214z" />
    <glyph glyph-name="scircumflex" unicode="&#x15d;" horiz-adv-x="1037" 
d="M457 -20q-106 0 -198.5 35.5t-150 112t-59.5 198.5h251q5 -55 34.5 -87t70.5 -45.5t79 -13.5q81 0 134 26.5t61 81.5q6 42 -20 67t-93 38l-171 38q-131 29 -202.5 98.5t-54.5 197.5q12 93 71 167t160 117t240 43q188 0 288.5 -84t80.5 -237h-242q-2 60 -44.5 92.5
t-113.5 32.5q-72 0 -123.5 -27t-58.5 -82q-6 -41 29.5 -64.5t114.5 -40.5l158 -38q82 -21 130.5 -57.5t72 -79.5t29 -86.5t-0.5 -78.5q-14 -103 -78 -175.5t-166 -110.5t-228 -38zM269 1155l267 259h199l244 -259h-226l-122 140l-148 -140h-214z" />
    <glyph glyph-name="Scedilla" unicode="&#x15e;" horiz-adv-x="1379" 
d="M541 -425q-61 0 -117 12t-100 42l54 98q27 -19 63.5 -34t78.5 -15q46 0 73.5 16.5t32.5 45.5q6 39 -28 60t-125 22q-12 0 -16.5 3.5t3.5 15.5l96 169h127l-60 -117q73 -2 112.5 -26t53.5 -59.5t9 -70.5q-8 -51 -46 -87.5t-93.5 -55.5t-117.5 -19zM623 -20
q-106 0 -204.5 26t-175 79t-119 135t-37.5 193h302q4 -66 38.5 -111t93 -69t134.5 -24q78 0 145 20t111.5 60.5t53.5 101.5q8 55 -19 90t-78 57t-118 36l-237 51q-158 31 -238.5 130.5t-59.5 265.5q19 136 107 235.5t221 153.5t288 54q168 0 283.5 -63t173.5 -163t51 -212
h-296q4 76 -26 121t-85.5 65t-129.5 20q-76 0 -135 -22.5t-94.5 -62.5t-42.5 -92q-9 -63 26.5 -102t143.5 -64l234 -51q129 -26 199.5 -77t100 -115t32.5 -130.5t-5 -122.5q-16 -117 -102.5 -210.5t-224.5 -148t-311 -54.5z" />
    <glyph glyph-name="scedilla" unicode="&#x15f;" horiz-adv-x="1037" 
d="M386 -425q-61 0 -117 12t-100 42l54 98q27 -19 63.5 -34t78.5 -15q46 0 73.5 16.5t32.5 45.5q6 39 -28 60t-125 22q-12 0 -16 3.5t3 15.5l97 169h126l-60 -117q73 -2 113 -26t53.5 -59.5t8.5 -70.5q-7 -51 -45 -87.5t-94 -55.5t-118 -19zM457 -20q-106 0 -198.5 35.5
t-150 112t-59.5 198.5h251q5 -55 34.5 -87t70.5 -45.5t79 -13.5q81 0 134 26.5t61 81.5q6 42 -20 67t-93 38l-171 38q-131 29 -202.5 98.5t-54.5 197.5q12 93 71 167t160 117t240 43q188 0 288.5 -84t80.5 -237h-242q-2 60 -44.5 92.5t-113.5 32.5q-72 0 -123.5 -27
t-58.5 -82q-6 -41 29.5 -64.5t114.5 -40.5l158 -38q82 -21 130.5 -57.5t72 -79.5t29 -86.5t-0.5 -78.5q-14 -103 -78 -175.5t-166 -110.5t-228 -38z" />
    <glyph glyph-name="Scaron" unicode="&#x160;" horiz-adv-x="1379" 
d="M623 -20q-106 0 -204.5 26t-175 79t-119 135t-37.5 193h302q4 -66 38.5 -111t93 -69t134.5 -24q78 0 145 20t111.5 60.5t53.5 101.5q8 55 -19 90t-78 57t-118 36l-237 51q-158 31 -238.5 130.5t-59.5 265.5q19 136 107 235.5t221 153.5t288 54q168 0 283.5 -63
t173.5 -163t51 -212h-296q4 76 -26 121t-85.5 65t-129.5 20q-76 0 -135 -22.5t-94.5 -62.5t-42.5 -92q-9 -63 26.5 -102t143.5 -64l234 -51q129 -26 199.5 -77t100 -115t32.5 -130.5t-5 -122.5q-16 -117 -102.5 -210.5t-224.5 -148t-311 -54.5zM743 1567l-220 261h214
l121 -151l150 151h225l-289 -261h-201z" />
    <glyph glyph-name="scaron" unicode="&#x161;" horiz-adv-x="1023" 
d="M457 -20q-106 0 -198.5 35.5t-150 112t-59.5 198.5h251q5 -55 34.5 -87t70.5 -45.5t79 -13.5q81 0 134 26.5t61 81.5q6 42 -20 67t-93 38l-171 38q-131 29 -202.5 98.5t-54.5 197.5q12 93 71 167t160 117t240 43q188 0 288.5 -84t80.5 -237h-242q-2 60 -44.5 92.5
t-113.5 32.5q-72 0 -123.5 -27t-58.5 -82q-6 -41 29.5 -64.5t114.5 -40.5l158 -38q82 -21 130.5 -57.5t72 -79.5t29 -86.5t-0.5 -78.5q-14 -103 -78 -175.5t-166 -110.5t-228 -38zM566 1155l-220 261h214l121 -151l150 151h225l-289 -261h-201z" />
    <glyph glyph-name="uni0162" unicode="&#x162;" horiz-adv-x="1206" 
d="M468 -424q-61 0 -117 12t-100 42l54 99q27 -19 63.5 -34.5t78.5 -15.5q46 0 73.5 16.5t32.5 45.5q6 40 -28 60.5t-125 21.5q-12 0 -16.5 3.5t3.5 15.5l97 169h126l-60 -117q73 -1 113 -25.5t53.5 -60t8.5 -70.5q-8 -51 -45.5 -87t-93.5 -55.5t-118 -19.5zM380 0l174 1186
h-421l39 260h1125l-39 -260h-414l-176 -1186h-288z" />
    <glyph glyph-name="uni0163" unicode="&#x163;" horiz-adv-x="820" 
d="M331 -413q-61 0 -116.5 12t-100.5 42l54 99q27 -19 63.5 -34.5t79.5 -15.5q46 0 73.5 16.5t31.5 45.5q6 40 -28 60.5t-125 21.5q-12 0 -16 3.5t3 15.5l97 169h126l-60 -117q73 -1 113 -25t53.5 -59.5t8.5 -71.5q-7 -51 -45 -87t-94 -55.5t-118 -19.5zM481 -11
q-134 0 -202 35t-87.5 98t-7.5 146l83 563h-163l31 203h172l92 312h233l-46 -311h224l-31 -204h-223l-80 -548q-8 -57 12.5 -73t64.5 -16h135l-27 -180q-21 -9 -63.5 -17t-116.5 -8z" />
    <glyph glyph-name="Tcaron" unicode="&#x164;" horiz-adv-x="1206" 
d="M380 0l174 1186h-421l39 260h1125l-39 -260h-414l-176 -1186h-288zM666 1567l-220 261h214l121 -151l150 151h225l-289 -261h-201z" />
    <glyph glyph-name="tcaron" unicode="&#x165;" horiz-adv-x="868" 
d="M481 -11q-134 0 -202 35t-87.5 98t-7.5 146l83 563h-163l31 203h172l92 312h233l-46 -311h224l-31 -204h-223l-80 -548q-8 -57 12.5 -73t64.5 -16h135l-27 -180q-21 -9 -63.5 -17t-116.5 -8zM662 1119l109 202l-67 12l33 222h196l-35 -233l-113 -203h-123z" />
    <glyph glyph-name="Tbar" unicode="&#x166;" horiz-adv-x="1206" 
d="M200 596l31 214h810l-31 -214h-810zM380 0l174 1186h-421l39 260h1125l-39 -260h-414l-176 -1186h-288z" />
    <glyph glyph-name="tbar" unicode="&#x167;" horiz-adv-x="839" 
d="M78 480l24 166h637l-25 -166h-636zM491 -11q-134 0 -202 35t-87 98t-8 146l83 563h-163l31 203h172l93 312h232l-46 -311h224l-31 -204h-223l-79 -548q-9 -57 11.5 -73t64.5 -16h135l-26 -180q-22 -9 -64 -17t-117 -8z" />
    <glyph glyph-name="Utilde" unicode="&#x168;" horiz-adv-x="1425" 
d="M646 -20q-207 0 -320.5 70.5t-149 200.5t-8.5 310l130 885h295l-135 -907q-16 -108 8 -176.5t80.5 -101.5t136.5 -33q119 0 207 74t111 237l133 907h292l-131 -895q-27 -175 -101.5 -303.5t-208.5 -198t-339 -69.5zM599 1608l-24 141q42 39 89 65.5t114 26.5
q54 0 101 -15t90 -30.5t88 -15.5q50 0 94 22.5t77 47.5l13 -163q-34 -25 -88.5 -48t-120.5 -23q-54 0 -96.5 14t-83.5 28.5t-90 14.5t-84.5 -16t-78.5 -49z" />
    <glyph glyph-name="utilde" unicode="&#x169;" horiz-adv-x="1173" 
d="M422 -20q-70 0 -135 22t-114.5 65t-74.5 106t-13 146l100 715h291l-96 -678q-10 -72 28.5 -118t126.5 -46q82 0 136.5 44.5t65.5 124.5l95 673h288l-145 -1034h-219l-4 205q-31 -91 -86.5 -139.5t-120 -67t-123.5 -18.5zM390 1196l-24 141q42 39 89 65.5t114 26.5
q54 0 101 -15t90 -30.5t88 -15.5q50 0 94 22.5t77 47.5l13 -163q-34 -25 -88.5 -48t-120.5 -23q-54 0 -96.5 14t-83.5 28.5t-90 14.5t-84.5 -16t-78.5 -49z" />
    <glyph glyph-name="Umacron" unicode="&#x16a;" horiz-adv-x="1425" 
d="M646 -20q-207 0 -320.5 70.5t-149 200.5t-8.5 310l130 885h295l-135 -907q-16 -108 8 -176.5t80.5 -101.5t136.5 -33q119 0 207 74t111 237l133 907h292l-131 -895q-27 -175 -101.5 -303.5t-208.5 -198t-339 -69.5zM550 1617l28 187h688l-28 -187h-688z" />
    <glyph glyph-name="umacron" unicode="&#x16b;" horiz-adv-x="1173" 
d="M422 -20q-70 0 -135 22t-114.5 65t-74.5 106t-13 146l100 715h291l-96 -678q-10 -72 28.5 -118t126.5 -46q82 0 136.5 44.5t65.5 124.5l95 673h288l-145 -1034h-219l-4 205q-31 -91 -86.5 -139.5t-120 -67t-123.5 -18.5zM341 1205l28 187h688l-28 -187h-688z" />
    <glyph glyph-name="Ubreve" unicode="&#x16c;" horiz-adv-x="1425" 
d="M646 -20q-207 0 -320.5 70.5t-149 200.5t-8.5 310l130 885h295l-135 -907q-16 -108 8 -176.5t80.5 -101.5t136.5 -33q119 0 207 74t111 237l133 907h292l-131 -895q-27 -175 -101.5 -303.5t-208.5 -198t-339 -69.5zM878 1568q-81 0 -146 29.5t-106 86.5t-51 139h172
q11 -28 30 -53t48.5 -41.5t74.5 -16.5q65 0 111 33.5t77 77.5h173q-35 -78 -93 -135.5t-132 -88.5t-158 -31z" />
    <glyph glyph-name="ubreve" unicode="&#x16d;" horiz-adv-x="1173" 
d="M422 -20q-70 0 -135 22t-114.5 65t-74.5 106t-13 146l100 715h291l-96 -678q-10 -72 28.5 -118t126.5 -46q82 0 136.5 44.5t65.5 124.5l95 673h288l-145 -1034h-219l-4 205q-31 -91 -86.5 -139.5t-120 -67t-123.5 -18.5zM669 1156q-81 0 -146 29.5t-106 86.5t-51 139h172
q11 -28 30 -53t48.5 -41.5t74.5 -16.5q65 0 111 33.5t77 77.5h173q-35 -78 -93 -135.5t-132 -88.5t-158 -31z" />
    <glyph glyph-name="Uring" unicode="&#x16e;" horiz-adv-x="1425" 
d="M646 -20q-207 0 -320.5 70.5t-149 200.5t-8.5 310l130 885h295l-135 -907q-16 -108 8 -176.5t80.5 -101.5t136.5 -33q119 0 207 74t111 237l133 907h292l-131 -895q-27 -175 -101.5 -303.5t-208.5 -198t-339 -69.5zM877 1547q-89 0 -141 64t-38 157q9 58 45 106t88.5 76
t110.5 28q88 0 140.5 -62.5t38.5 -151.5q-8 -61 -44 -110t-88.5 -78t-111.5 -29zM893 1661q40 0 72 31t39 71q6 43 -17.5 71t-64.5 28q-39 0 -72.5 -28t-40.5 -71q-6 -40 19 -71t65 -31z" />
    <glyph glyph-name="uring" unicode="&#x16f;" horiz-adv-x="1173" 
d="M422 -20q-70 0 -135 22t-114.5 65t-74.5 106t-13 146l100 715h291l-96 -678q-10 -72 28.5 -118t126.5 -46q82 0 136.5 44.5t65.5 124.5l95 673h288l-145 -1034h-219l-4 205q-31 -91 -86.5 -139.5t-120 -67t-123.5 -18.5zM668 1135q-89 0 -141 64t-38 157q9 58 45 106
t88.5 76t110.5 28q88 0 140.5 -62.5t38.5 -151.5q-8 -61 -44 -110t-88.5 -78t-111.5 -29zM684 1249q40 0 72 31t39 71q6 43 -17.5 71t-64.5 28q-39 0 -72.5 -28t-40.5 -71q-6 -40 19 -71t65 -31z" />
    <glyph glyph-name="Uhungarumlaut" unicode="&#x170;" horiz-adv-x="1390" 
d="M646 -20q-207 0 -320.5 70.5t-149 200.5t-8.5 310l130 885h295l-135 -907q-16 -108 8 -176.5t80.5 -101.5t136.5 -33q119 0 207 74t111 237l133 907h292l-131 -895q-27 -175 -101.5 -303.5t-208.5 -198t-339 -69.5zM942 1567l202 291h268l-265 -291h-205zM594 1567
l157 291h259l-212 -291h-204z" />
    <glyph glyph-name="uhungarumlaut" unicode="&#x171;" horiz-adv-x="1104" 
d="M422 -20q-70 0 -135 22t-114.5 65t-74.5 106t-13 146l100 715h291l-96 -678q-10 -72 28.5 -118t126.5 -46q82 0 136.5 44.5t65.5 124.5l95 673h288l-145 -1034h-219l-4 205q-31 -91 -86.5 -139.5t-120 -67t-123.5 -18.5zM750 1155l202 291h268l-265 -291h-205zM402 1155
l157 291h259l-212 -291h-204z" />
    <glyph glyph-name="Uogonek" unicode="&#x172;" horiz-adv-x="1425" 
d="M579 -352q-100 0 -150.5 42t-38.5 123q8 54 52 101t162 86l201 -6q-109 -39 -152 -72t-50 -74q-3 -31 11 -47.5t49 -16.5q45 0 80.5 13.5t66.5 30.5l-19 -132q-30 -17 -88 -32.5t-124 -15.5zM646 -20q-207 0 -320.5 70.5t-149 200.5t-8.5 310l130 885h295l-135 -907
q-16 -108 8 -176.5t80.5 -101.5t136.5 -33q119 0 207 74t111 237l133 907h292l-131 -895q-27 -175 -101.5 -303.5t-208.5 -198t-339 -69.5z" />
    <glyph glyph-name="uogonek" unicode="&#x173;" horiz-adv-x="1173" 
d="M422 -20q-70 0 -135 22t-114.5 65t-74.5 106t-13 146l100 715h291l-96 -678q-10 -72 28.5 -118t126.5 -46q82 0 136.5 44.5t65.5 124.5l95 673h288l-145 -1034h-219l-4 205q-31 -91 -86.5 -139.5t-120 -67t-123.5 -18.5zM744 -337q-100 0 -150.5 42t-38.5 122
q8 55 51.5 101.5t161.5 85.5l202 -5q-109 -39 -152.5 -72t-50.5 -74q-3 -32 11 -48t50 -16q45 0 80.5 13.5t66.5 30.5l-20 -132q-30 -17 -88 -32.5t-123 -15.5z" />
    <glyph glyph-name="Wcircumflex" unicode="&#x174;" horiz-adv-x="1886" 
d="M370 0l-200 1446h283l118 -955l398 955h208l123 -955l397 955h282l-630 -1446h-229l-122 945l-403 -945h-225zM735 1567l267 259h199l244 -259h-226l-122 140l-148 -140h-214z" />
    <glyph glyph-name="wcircumflex" unicode="&#x175;" horiz-adv-x="1535" 
d="M275 0l-172 1034h255l95 -641h7l278 641h205l91 -641h7l279 641h259l-485 -1034h-226l-94 626l-278 -626h-221zM510 1155l267 259h199l244 -259h-226l-122 140l-148 -140h-214z" />
    <glyph glyph-name="Ycircumflex" unicode="&#x176;" horiz-adv-x="1304" 
d="M424 0l88 609l-362 837h312l235 -586l402 586h316l-613 -838l-91 -608h-287zM431 1568l267 259h199l244 -259h-226l-122 140l-148 -140h-214z" />
    <glyph glyph-name="ycircumflex" unicode="&#x177;" horiz-adv-x="1099" 
d="M152 -330q-103 0 -143 17.5l-40 17.5l27 186l99 -4q87 -5 132.5 13.5t64 44.5t26.5 41l26 57l-244 991h285l138 -674l341 674h282l-558 -1040q-74 -132 -144 -202t-141.5 -96t-150.5 -26zM277 1155l267 259h199l244 -259h-226l-122 140l-148 -140h-214z" />
    <glyph glyph-name="Ydieresis" unicode="&#x178;" horiz-adv-x="1304" 
d="M424 0l88 609l-362 837h312l235 -586l402 586h316l-613 -838l-91 -608h-287zM875 1621l36 238h273l-35 -238h-274zM434 1621l36 238h273l-35 -238h-274z" />
    <glyph glyph-name="Zacute" unicode="&#x179;" horiz-adv-x="1322" 
d="M35 0l22 142l865 1060h-661l38 244h1073l-20 -136l-878 -1063h712l-37 -247h-1114zM751 1567l241 291h303l-331 -291h-213z" />
    <glyph glyph-name="zacute" unicode="&#x17a;" horiz-adv-x="1060" 
d="M-8 0l21 163l589 667h-461l28 204h815l-20 -163l-589 -667h496l-29 -204h-850zM563 1155l241 291h303l-331 -291h-213z" />
    <glyph glyph-name="Zdotaccent" unicode="&#x17b;" horiz-adv-x="1322" 
d="M35 0l22 142l865 1060h-661l38 244h1073l-20 -136l-878 -1063h712l-37 -247h-1114zM737 1620l35 238h274l-36 -238h-273z" />
    <glyph glyph-name="zdotaccent" unicode="&#x17c;" horiz-adv-x="978" 
d="M-8 0l21 163l589 667h-461l28 204h815l-20 -163l-589 -667h496l-29 -204h-850zM468 1208l35 238h274l-36 -238h-273z" />
    <glyph glyph-name="Zcaron" unicode="&#x17d;" horiz-adv-x="1322" 
d="M35 0l22 142l865 1060h-661l38 244h1073l-20 -136l-878 -1063h712l-37 -247h-1114zM762 1567l-220 261h214l121 -151l150 151h225l-289 -261h-201z" />
    <glyph glyph-name="zcaron" unicode="&#x17e;" horiz-adv-x="1024" 
d="M-8 0l21 163l589 667h-461l28 204h815l-20 -163l-589 -667h496l-29 -204h-850zM583 1155l-220 261h214l121 -151l150 151h225l-289 -261h-201z" />
    <glyph glyph-name="uni018F" unicode="&#x18f;" horiz-adv-x="1494" 
d="M670 -20q-190 0 -324.5 85.5t-191 267t-15.5 468.5h952q26 188 -41.5 290.5t-215.5 102.5q-74 0 -135.5 -23t-107.5 -60t-73.5 -81t-33.5 -85h-327q13 86 71 177.5t153 169.5t221.5 126t275.5 48q204 0 338 -85.5t189.5 -249t22.5 -396.5q-36 -255 -143.5 -422.5
t-266 -250t-348.5 -82.5zM706 236q99 0 172.5 45t118.5 124t60 182l-594 2q-14 -104 8 -184t81.5 -124.5t153.5 -44.5z" />
    <glyph glyph-name="florin" unicode="&#x192;" horiz-adv-x="1023" 
d="M-175 -335l58 196h117q57 1 88 29.5t56 108.5l264 832h-163l65 203h164l46 149q42 125 136.5 194t222.5 69h233l-61 -194h-128q-42 0 -81 -34.5t-56 -85.5l-32 -98h219l-67 -203h-209l-285 -897q-40 -125 -134.5 -197t-226.5 -72h-226z" />
    <glyph glyph-name="Ohorn" unicode="&#x1a0;" horiz-adv-x="1634" 
d="M666 -20q-200 0 -332.5 89t-187 254.5t-20.5 395.5q35 231 140 398.5t264.5 258t355.5 90.5q144 0 254 -49t180 -142q55 0 91.5 11.5t62 56.5t46.5 142h188q-18 -119 -54 -197t-97 -117.5t-159 -45.5q28 -82 34.5 -184t-11.5 -221q-34 -229 -137.5 -395t-261.5 -255.5
t-356 -89.5zM702 220q101 0 183 50.5t138.5 159.5t82.5 286q27 180 2.5 292.5t-91 165t-167.5 52.5q-151 0 -260 -120t-149 -390q-26 -176 -0.5 -285.5t93 -160t168.5 -50.5z" />
    <glyph glyph-name="ohorn" unicode="&#x1a1;" horiz-adv-x="1267" 
d="M485 -20q-148 0 -248 65t-142.5 184t-19.5 282q24 163 101.5 285t197.5 190t268 68q113 0 197.5 -38.5t136.5 -109.5q53 7 85 50t57 157h188q-26 -164 -85 -251t-179 -104q14 -52 16 -113.5t-8 -133.5q-23 -156 -98.5 -275.5t-194 -187.5t-272.5 -68zM520 197
q73 0 124.5 45t82.5 118.5t43 160.5q11 82 2.5 155t-46.5 118t-116 45q-75 0 -127 -42.5t-82 -115t-42 -160.5q-12 -81 -3.5 -155.5t47 -121.5t117.5 -47z" />
    <glyph glyph-name="Uhorn" unicode="&#x1af;" horiz-adv-x="1691" 
d="M646 -20q-207 0 -320.5 70.5t-148.5 200.5t-9 310l130 885h295l-135 -907q-16 -108 8.5 -176.5t80.5 -101.5t136 -33q119 0 207 74t111 237l133 907h292l-25 -171q45 2 75 17.5t52.5 60.5t41.5 132h188q-21 -132 -62.5 -214t-117 -117t-199.5 -28l-84 -575
q-27 -175 -101.5 -303.5t-208.5 -198t-339 -69.5z" />
    <glyph glyph-name="uhorn" unicode="&#x1b0;" horiz-adv-x="1392" 
d="M422 -20q-69 0 -134 22t-115 65t-75 106t-13 146l100 715h291l-95 -678q-11 -72 28 -118t126 -46q82 0 137 44.5t66 124.5l95 673h288l-19 -131q46 1 76.5 17t52.5 60.5t42 132.5h188q-21 -132 -62.5 -214t-117.5 -117t-200 -28l-106 -754h-218l-5 205
q-31 -91 -86.5 -139.5t-120 -67t-123.5 -18.5z" />
    <glyph glyph-name="uni01D4" unicode="&#x1d4;" horiz-adv-x="1173" 
d="M422 -20q-70 0 -135 22t-114.5 65t-74.5 106t-13 146l100 715h291l-96 -678q-10 -72 28.5 -118t126.5 -46q82 0 136.5 44.5t65.5 124.5l95 673h288l-145 -1034h-219l-4 205q-31 -91 -86.5 -139.5t-120 -67t-123.5 -18.5zM566 1155l-220 261h214l121 -151l150 151h225
l-289 -261h-201z" />
    <glyph glyph-name="uni01EA" unicode="&#x1ea;" horiz-adv-x="1491" 
d="M642 -338q-100 0 -150.5 42t-38.5 122q8 55 52 102t161 85l202 -5q-109 -39 -152 -72t-50 -74q-4 -32 10 -48t50 -16q45 0 80.5 13.5t66.5 30.5l-20 -132q-29 -17 -87.5 -32.5t-123.5 -15.5zM666 -20q-200 0 -332.5 89t-187 254.5t-20.5 395.5q35 231 140 398.5
t264.5 258t355.5 90.5t327.5 -90t186.5 -257.5t21 -398.5q-34 -229 -137.5 -395t-261.5 -255.5t-356 -89.5zM702 220q101 0 183 50.5t138.5 159.5t82.5 286q27 180 2.5 292.5t-91 165t-167.5 52.5q-151 0 -260 -120t-149 -390q-26 -176 -0.5 -285.5t93 -160t168.5 -50.5z
" />
    <glyph glyph-name="uni01EB" unicode="&#x1eb;" horiz-adv-x="1127" 
d="M425 -337q-100 0 -150.5 41.5t-38.5 122.5q8 55 52 101.5t161 85.5l202 -6q-109 -39 -152 -72t-50 -73q-4 -32 10 -48t50 -16q45 0 80.5 13.5t66.5 29.5l-20 -132q-29 -17 -87.5 -32t-123.5 -15zM485 -20q-148 0 -248 65t-142.5 184t-19.5 282q24 163 101.5 285
t197.5 190t268 68q150 0 249.5 -66.5t141 -188.5t17.5 -288q-23 -156 -98.5 -275.5t-194 -187.5t-272.5 -68zM520 197q73 0 124.5 45t82.5 118.5t43 160.5q11 82 2.5 155t-46.5 118t-116 45q-75 0 -127 -42.5t-82 -115t-42 -160.5q-12 -81 -3.5 -155.5t47 -121.5t117.5 -47z
" />
    <glyph glyph-name="Aringacute" unicode="&#x1fa;" horiz-adv-x="1421" 
d="M1072 1912l-78 -142q49 -23 75.5 -71t16.5 -111q-13 -89 -80.5 -144t-152.5 -55q-84 0 -134 56.5t-37 146.5q10 69 58.5 119.5t114.5 66.5l51 134h166zM978 1586q6 42 -18 70.5t-65 28.5q-38 0 -71.5 -28.5t-40.5 -70.5q-6 -40 19 -71.5t65 -31.5t72 31.5t39 71.5zM-16 0
l717 1446h303l287 -1446h-287l-63 335h-503l-165 -335h-289zM541 590h369l-98 574z" />
    <glyph glyph-name="aringacute" unicode="&#x1fb;" horiz-adv-x="1114" 
d="M870 1500l-79 -142q50 -23 76 -71t16 -111q-13 -89 -80 -144t-153 -55q-84 0 -134 56.5t-37 146.5q10 69 58.5 119.5t114.5 66.5l51 134h167zM775 1174q6 42 -17.5 70.5t-65.5 28.5q-38 0 -71.5 -28.5t-39.5 -70.5q-6 -40 19 -71.5t64 -31.5q40 0 72.5 31.5t38.5 71.5z
M347 -20q-97 0 -168.5 37t-106 107.5t-20.5 171.5q25 170 162.5 258.5t404.5 91.5l124 2l9 62q10 73 -28 110.5t-115 36.5q-60 -1 -121.5 -31t-92.5 -100h-239q21 107 91 180t174.5 110.5t230.5 37.5q154 0 242 -41t119.5 -114.5t17.5 -171.5l-108 -727h-241l1 175
q-68 -112 -150 -153.5t-186 -41.5zM471 172q39 0 76.5 14.5t69 39t53.5 55.5t27 64l23 153l-100 -2q-69 -1 -131.5 -17.5t-105.5 -53.5t-53 -100q-9 -72 32 -112.5t109 -40.5z" />
    <glyph glyph-name="AEacute" unicode="&#x1fc;" horiz-adv-x="2032" 
d="M-73 0l963 1446h1156l-38 -243h-664l-52 -355h577l-36 -240h-577l-53 -364h685l-36 -244h-1015l50 338h-452l-219 -338h-289zM582 590h342l99 665zM1342 1567l241 291h303l-331 -291h-213z" />
    <glyph glyph-name="aeacute" unicode="&#x1fd;" horiz-adv-x="1788" 
d="M349 -20q-96 0 -168 37t-107.5 107.5t-21.5 171.5q24 170 161 258.5t406 91.5l125 2l8 62q10 73 -27.5 110.5t-116.5 36.5q-60 -1 -120.5 -31t-91.5 -100h-241q20 107 89.5 180t173.5 110.5t231 37.5q128 0 211 -34.5t121 -96.5q65 63 149 97t182 34q155 0 249.5 -66.5
t130.5 -185t13 -273.5l-12 -79h-673q-13 -79 3 -137.5t59.5 -90t110.5 -31.5q72 0 130.5 32t91.5 105h259q-33 -110 -113 -188t-184 -119t-210 -41q-139 0 -238.5 58t-146.5 164q-34 -70 -94.5 -119.5t-145.5 -76t-193 -26.5zM474 172q60 0 108.5 28.5t81 72t39.5 87.5
l19 138l-101 -2q-69 -1 -132 -17.5t-106 -53.5t-52 -100q-10 -72 32 -112.5t111 -40.5zM1044 624h406q9 62 -5.5 114t-55 82t-108.5 30q-64 0 -114 -32.5t-82.5 -84.5t-40.5 -109zM873 1155l241 291h303l-331 -291h-213z" />
    <glyph glyph-name="Oslashacute" unicode="&#x1fe;" horiz-adv-x="1521" 
d="M91 -27l-107 131l187 172q-37 87 -46.5 198.5t9.5 244.5q34 231 139 398.5t264 258t356 90.5q133 0 235 -41t172 -120l183 166l104 -129l-195 -182q37 -87 46.5 -198t-9.5 -242q-34 -229 -137.5 -395t-262 -255.5t-356.5 -89.5q-131 0 -232.5 40t-172.5 113zM710 215
q127 0 210 86t125 269q20 79 30 159.5t12 167.5l-591 -564q57 -118 214 -118zM475 538l594 566q-27 67 -79.5 98.5t-130.5 31.5q-133 0 -219.5 -96t-130.5 -298q-17 -75 -25 -150.5t-9 -151.5zM792 1567l241 291h303l-331 -291h-213z" />
    <glyph glyph-name="oslashacute" unicode="&#x1ff;" horiz-adv-x="1129" 
d="M87 -15l-97 103l1013 958l95 -102zM473 -20q-147 0 -247 65t-143 184t-19 282q23 163 101 285t198 190t268 68q150 0 249 -66.5t141 -188.5t18 -288q-23 -156 -98.5 -275.5t-194 -187.5t-273.5 -68zM509 197q73 0 124 45t82.5 118.5t42.5 160.5q12 82 3.5 155t-46.5 118
t-116 45q-75 0 -127 -42.5t-82.5 -115t-42.5 -160.5q-11 -81 -2.5 -155.5t46.5 -121.5t118 -47zM448 1155l241 291h303l-331 -291h-213z" />
    <glyph glyph-name="uni0200" unicode="&#x200;" horiz-adv-x="1421" 
d="M-16 0l717 1446h303l287 -1446h-287l-63 335h-503l-165 -335h-289zM541 590h369l-98 574zM575 1567l-265 291h268l201 -291h-204zM924 1567l-213 291h260l157 -291h-204z" />
    <glyph glyph-name="uni0201" unicode="&#x201;" horiz-adv-x="1237" 
d="M452 -20q-97 0 -168.5 37t-106 107.5t-20.5 171.5q25 170 162.5 258.5t404.5 91.5l124 2l9 62q10 73 -28 110.5t-115 36.5q-60 -1 -121.5 -31t-92.5 -100h-239q21 107 91 180t174.5 110.5t230.5 37.5q154 0 242 -41t119.5 -114.5t17.5 -171.5l-108 -727h-241l1 175
q-68 -112 -150 -153.5t-186 -41.5zM576 172q39 0 76.5 14.5t69 39t53.5 55.5t27 64l23 153l-100 -2q-69 -1 -131.5 -17.5t-105.5 -53.5t-53 -100q-9 -72 32 -112.5t109 -40.5zM483 1155l-265 291h268l201 -291h-204zM832 1155l-213 291h260l157 -291h-204z" />
    <glyph glyph-name="uni0202" unicode="&#x202;" horiz-adv-x="1421" 
d="M-16 0l717 1446h303l287 -1446h-287l-63 335h-503l-165 -335h-289zM541 590h369l-98 574zM537 1575q34 81 91 138t130 87t154 30q83 0 148.5 -31.5t107.5 -88.5t55 -135h-173q-19 44 -55.5 77t-101.5 33q-45 0 -79 -16t-60 -41.5t-45 -52.5h-172z" />
    <glyph glyph-name="uni0203" unicode="&#x203;" horiz-adv-x="1132" 
d="M347 -20q-97 0 -168.5 37t-106 107.5t-20.5 171.5q25 170 162.5 258.5t404.5 91.5l124 2l9 62q10 73 -28 110.5t-115 36.5q-60 -1 -121.5 -31t-92.5 -100h-239q21 107 91 180t174.5 110.5t230.5 37.5q154 0 242 -41t119.5 -114.5t17.5 -171.5l-108 -727h-241l1 175
q-68 -112 -150 -153.5t-186 -41.5zM471 172q39 0 76.5 14.5t69 39t53.5 55.5t27 64l23 153l-100 -2q-69 -1 -131.5 -17.5t-105.5 -53.5t-53 -100q-9 -72 32 -112.5t109 -40.5zM323 1163q34 81 91 138t130 87t154 30q83 0 148.5 -31.5t107.5 -88.5t55 -135h-173
q-19 44 -55.5 77t-101.5 33q-45 0 -79 -16t-60 -41.5t-45 -52.5h-172z" />
    <glyph glyph-name="uni0204" unicode="&#x204;" horiz-adv-x="1255" 
d="M89 0l215 1446h968l-38 -246h-677l-51 -351h585l-35 -241h-588l-53 -359l689 -1l-38 -248h-977zM489 1567l-265 291h268l201 -291h-204zM838 1567l-213 291h260l157 -291h-204z" />
    <glyph glyph-name="uni0205" unicode="&#x205;" horiz-adv-x="1126" 
d="M506 -20q-149 0 -253 64.5t-149.5 182.5t-21.5 278q22 155 98.5 279.5t196.5 197t274 72.5q155 0 249.5 -66.5t130.5 -185t13 -273.5l-13 -79h-672q-13 -79 3 -137.5t59.5 -90t110.5 -31.5q72 0 130.5 32t90.5 105h260q-33 -110 -113 -188t-184 -119t-210 -41zM382 624
h406q10 62 -5 114t-55 82t-108 30q-64 0 -114.5 -32.5t-82.5 -84.5t-41 -109zM371 1155l-265 291h268l201 -291h-204zM720 1155l-213 291h260l157 -291h-204z" />
    <glyph glyph-name="uni0206" unicode="&#x206;" horiz-adv-x="1255" 
d="M89 0l215 1446h968l-38 -246h-677l-51 -351h585l-35 -241h-588l-53 -359l689 -1l-38 -248h-977zM452 1575q34 81 91 138t130 87t154 30q83 0 148.5 -31.5t107.5 -88.5t55 -135h-173q-19 44 -55.5 77t-101.5 33q-45 0 -79 -16t-60 -41.5t-45 -52.5h-172z" />
    <glyph glyph-name="uni0207" unicode="&#x207;" horiz-adv-x="1126" 
d="M506 -20q-149 0 -253 64.5t-149.5 182.5t-21.5 278q22 155 98.5 279.5t196.5 197t274 72.5q155 0 249.5 -66.5t130.5 -185t13 -273.5l-13 -79h-672q-13 -79 3 -137.5t59.5 -90t110.5 -31.5q72 0 130.5 32t90.5 105h260q-33 -110 -113 -188t-184 -119t-210 -41zM382 624
h406q10 62 -5 114t-55 82t-108 30q-64 0 -114.5 -32.5t-82.5 -84.5t-41 -109zM333 1163q34 81 91 138t130 87t154 30q83 0 148.5 -31.5t107.5 -88.5t55 -135h-173q-19 44 -55.5 77t-101.5 33q-45 0 -79 -16t-60 -41.5t-45 -52.5h-172z" />
    <glyph glyph-name="uni0208" unicode="&#x208;" horiz-adv-x="623" 
d="M89 0l214 1446h289l-213 -1446h-290zM171 1567l-265 291h268l201 -291h-204zM520 1567l-213 291h260l157 -291h-204z" />
    <glyph glyph-name="uni0209" unicode="&#x209;" horiz-adv-x="548" 
d="M52 0l154 1034h290l-154 -1034h-290zM76 1155l-265 291h268l201 -291h-204zM425 1155l-213 291h260l157 -291h-204z" />
    <glyph glyph-name="uni020A" unicode="&#x20a;" horiz-adv-x="623" 
d="M89 0l214 1446h289l-213 -1446h-290zM134 1575q34 81 91 138t130 87t154 30q83 0 148.5 -31.5t107.5 -88.5t55 -135h-173q-19 44 -55.5 77t-101.5 33q-45 0 -79 -16t-60 -41.5t-45 -52.5h-172z" />
    <glyph glyph-name="uni020B" unicode="&#x20b;" horiz-adv-x="548" 
d="M52 0l154 1034h290l-154 -1034h-290zM39 1163q34 81 91 138t130 87t154 30q83 0 148.5 -31.5t107.5 -88.5t55 -135h-173q-19 44 -55.5 77t-101.5 33q-45 0 -79 -16t-60 -41.5t-45 -52.5h-172z" />
    <glyph glyph-name="uni020C" unicode="&#x20c;" horiz-adv-x="1491" 
d="M666 -20q-200 0 -332.5 89t-187 254.5t-20.5 395.5q35 231 140 398.5t264.5 258t355.5 90.5t327.5 -90t186.5 -257.5t21 -398.5q-34 -229 -137.5 -395t-261.5 -255.5t-356 -89.5zM702 220q101 0 183 50.5t138.5 159.5t82.5 286q27 180 2.5 292.5t-91 165t-167.5 52.5
q-151 0 -260 -120t-149 -390q-26 -176 -0.5 -285.5t93 -160t168.5 -50.5zM592 1567l-265 291h268l201 -291h-204zM941 1567l-213 291h260l157 -291h-204z" />
    <glyph glyph-name="uni020D" unicode="&#x20d;" horiz-adv-x="1127" 
d="M485 -20q-148 0 -248 65t-142.5 184t-19.5 282q24 163 101.5 285t197.5 190t268 68q150 0 249.5 -66.5t141 -188.5t17.5 -288q-23 -156 -98.5 -275.5t-194 -187.5t-272.5 -68zM520 197q73 0 124.5 45t82.5 118.5t43 160.5q11 82 2.5 155t-46.5 118t-116 45
q-75 0 -127 -42.5t-82 -115t-42 -160.5q-12 -81 -3.5 -155.5t47 -121.5t117.5 -47zM351 1155l-265 291h268l201 -291h-204zM700 1155l-213 291h260l157 -291h-204z" />
    <glyph glyph-name="uni020E" unicode="&#x20e;" horiz-adv-x="1491" 
d="M666 -20q-200 0 -332.5 89t-187 254.5t-20.5 395.5q35 231 140 398.5t264.5 258t355.5 90.5t327.5 -90t186.5 -257.5t21 -398.5q-34 -229 -137.5 -395t-261.5 -255.5t-356 -89.5zM702 220q101 0 183 50.5t138.5 159.5t82.5 286q27 180 2.5 292.5t-91 165t-167.5 52.5
q-151 0 -260 -120t-149 -390q-26 -176 -0.5 -285.5t93 -160t168.5 -50.5zM555 1575q34 81 91 138t130 87t154 30q83 0 148.5 -31.5t107.5 -88.5t55 -135h-173q-19 44 -55.5 77t-101.5 33q-45 0 -79 -16t-60 -41.5t-45 -52.5h-172z" />
    <glyph glyph-name="uni020F" unicode="&#x20f;" horiz-adv-x="1127" 
d="M485 -20q-148 0 -248 65t-142.5 184t-19.5 282q24 163 101.5 285t197.5 190t268 68q150 0 249.5 -66.5t141 -188.5t17.5 -288q-23 -156 -98.5 -275.5t-194 -187.5t-272.5 -68zM520 197q73 0 124.5 45t82.5 118.5t43 160.5q11 82 2.5 155t-46.5 118t-116 45
q-75 0 -127 -42.5t-82 -115t-42 -160.5q-12 -81 -3.5 -155.5t47 -121.5t117.5 -47zM313 1163q34 81 91 138t130 87t154 30q83 0 148.5 -31.5t107.5 -88.5t55 -135h-173q-19 44 -55.5 77t-101.5 33q-45 0 -79 -16t-60 -41.5t-45 -52.5h-172z" />
    <glyph glyph-name="uni0210" unicode="&#x210;" horiz-adv-x="1365" 
d="M89 0l214 1446h594q169 0 268 -55t135.5 -152.5t17.5 -224.5q-17 -114 -63 -192.5t-109 -130.5t-134 -85l170 -606h-298l-145 557h-280l-82 -557h-288zM493 782h258q74 0 132 28.5t95 79t47 117.5q15 100 -40 158t-150 58h-277zM531 1567l-265 291h268l201 -291h-204z
M880 1567l-213 291h260l157 -291h-204z" />
    <glyph glyph-name="uni0211" unicode="&#x211;" horiz-adv-x="804" 
d="M53 0l145 1034h279l-34 -245q35 79 88 138.5t121.5 93t148.5 33.5q14 0 25.5 -1.5t16.5 -4.5l-39 -278q-8 4 -19.5 5t-20.5 2q-113 10 -184.5 -14.5t-109 -76t-47.5 -120.5l-80 -566h-290zM229 1155l-265 291h268l201 -291h-204zM578 1155l-213 291h260l157 -291h-204z
" />
    <glyph glyph-name="uni0212" unicode="&#x212;" horiz-adv-x="1365" 
d="M89 0l214 1446h594q169 0 268 -55t135.5 -152.5t17.5 -224.5q-17 -114 -63 -192.5t-109 -130.5t-134 -85l170 -606h-298l-145 557h-280l-82 -557h-288zM493 782h258q74 0 132 28.5t95 79t47 117.5q15 100 -40 158t-150 58h-277zM377 1575q34 81 91 138t130 87t154 30
q83 0 148.5 -31.5t107.5 -88.5t55 -135h-173q-19 44 -55.5 77t-101.5 33q-45 0 -79 -16t-60 -41.5t-45 -52.5h-172z" />
    <glyph glyph-name="uni0213" unicode="&#x213;" horiz-adv-x="804" 
d="M53 0l145 1034h279l-34 -245q35 79 88 138.5t121.5 93t148.5 33.5q14 0 25.5 -1.5t16.5 -4.5l-39 -278q-8 4 -19.5 5t-20.5 2q-113 10 -184.5 -14.5t-109 -76t-47.5 -120.5l-80 -566h-290zM191 1163q34 81 91 138t130 87t154 30q83 0 148.5 -31.5t107.5 -88.5t55 -135
h-173q-19 44 -55.5 77t-101.5 33q-45 0 -79 -16t-60 -41.5t-45 -52.5h-172z" />
    <glyph glyph-name="uni0214" unicode="&#x214;" horiz-adv-x="1425" 
d="M646 -20q-207 0 -320.5 70.5t-149 200.5t-8.5 310l130 885h295l-135 -907q-16 -108 8 -176.5t80.5 -101.5t136.5 -33q119 0 207 74t111 237l133 907h292l-131 -895q-27 -175 -101.5 -303.5t-208.5 -198t-339 -69.5zM584 1567l-265 291h268l201 -291h-204zM933 1567
l-213 291h260l157 -291h-204z" />
    <glyph glyph-name="uni0215" unicode="&#x215;" horiz-adv-x="1173" 
d="M422 -20q-70 0 -135 22t-114.5 65t-74.5 106t-13 146l100 715h291l-96 -678q-10 -72 28.5 -118t126.5 -46q82 0 136.5 44.5t65.5 124.5l95 673h288l-145 -1034h-219l-4 205q-31 -91 -86.5 -139.5t-120 -67t-123.5 -18.5zM375 1155l-265 291h268l201 -291h-204zM724 1155
l-213 291h260l157 -291h-204z" />
    <glyph glyph-name="uni0216" unicode="&#x216;" horiz-adv-x="1425" 
d="M646 -20q-207 0 -320.5 70.5t-149 200.5t-8.5 310l130 885h295l-135 -907q-16 -108 8 -176.5t80.5 -101.5t136.5 -33q119 0 207 74t111 237l133 907h292l-131 -895q-27 -175 -101.5 -303.5t-208.5 -198t-339 -69.5zM547 1575q34 81 91 138t130 87t154 30
q83 0 148.5 -31.5t107.5 -88.5t55 -135h-173q-19 44 -55.5 77t-101.5 33q-45 0 -79 -16t-60 -41.5t-45 -52.5h-172z" />
    <glyph glyph-name="uni0217" unicode="&#x217;" horiz-adv-x="1173" 
d="M422 -20q-70 0 -135 22t-114.5 65t-74.5 106t-13 146l100 715h291l-96 -678q-10 -72 28.5 -118t126.5 -46q82 0 136.5 44.5t65.5 124.5l95 673h288l-145 -1034h-219l-4 205q-31 -91 -86.5 -139.5t-120 -67t-123.5 -18.5zM338 1163q34 81 91 138t130 87t154 30
q83 0 148.5 -31.5t107.5 -88.5t55 -135h-173q-19 44 -55.5 77t-101.5 33q-45 0 -79 -16t-60 -41.5t-45 -52.5h-172z" />
    <glyph glyph-name="uni0218" unicode="&#x218;" horiz-adv-x="1379" 
d="M623 -20q-106 0 -204.5 26t-175 79t-119 135t-37.5 193h302q4 -66 38.5 -111t93 -69t134.5 -24q78 0 145 20t111.5 60.5t53.5 101.5q8 55 -19 90t-78 57t-118 36l-237 51q-158 31 -238.5 130.5t-59.5 265.5q19 136 107 235.5t221 153.5t288 54q168 0 283.5 -63
t173.5 -163t51 -212h-296q4 76 -26 121t-85.5 65t-129.5 20q-76 0 -135 -22.5t-94.5 -62.5t-42.5 -92q-9 -63 26.5 -102t143.5 -64l234 -51q129 -26 199.5 -77t100 -115t32.5 -130.5t-5 -122.5q-16 -117 -102.5 -210.5t-224.5 -148t-311 -54.5zM413 -440l110 149l-77 10
l26 187h246l-23 -156l-180 -190h-102z" />
    <glyph glyph-name="uni0219" unicode="&#x219;" horiz-adv-x="1037" 
d="M457 -20q-106 0 -198.5 35.5t-150 112t-59.5 198.5h251q5 -55 34.5 -87t70.5 -45.5t79 -13.5q81 0 134 26.5t61 81.5q6 42 -20 67t-93 38l-171 38q-131 29 -202.5 98.5t-54.5 197.5q12 93 71 167t160 117t240 43q188 0 288.5 -84t80.5 -237h-242q-2 60 -44.5 92.5
t-113.5 32.5q-72 0 -123.5 -27t-58.5 -82q-6 -41 29.5 -64.5t114.5 -40.5l158 -38q82 -21 130.5 -57.5t72 -79.5t29 -86.5t-0.5 -78.5q-14 -103 -78 -175.5t-166 -110.5t-228 -38zM258 -440l110 149l-77 10l26 187h246l-23 -156l-180 -190h-102z" />
    <glyph glyph-name="uni021A" unicode="&#x21a;" horiz-adv-x="1206" 
d="M380 0l174 1186h-421l39 260h1125l-39 -260h-414l-176 -1186h-288zM340 -439l110 149l-77 10l26 187h246l-23 -156l-180 -190h-102z" />
    <glyph glyph-name="uni021B" unicode="&#x21b;" horiz-adv-x="820" 
d="M481 -11q-134 0 -202 35t-87.5 98t-7.5 146l83 563h-163l31 203h172l92 312h233l-46 -311h224l-31 -204h-223l-80 -548q-8 -57 12.5 -73t64.5 -16h135l-27 -180q-21 -9 -63.5 -17t-116.5 -8zM203 -428l110 149l-77 10l26 187h246l-23 -156l-180 -190h-102z" />
    <glyph glyph-name="uni0237" unicode="&#x237;" horiz-adv-x="573" 
d="M-25 -332q-78 0 -100.5 12.5t-22.5 16.5l28 195l78 8q61 8 88.5 34t33.5 76l152 1024h289l-151 -1027q-26 -169 -120.5 -254t-274.5 -85z" />
    <glyph glyph-name="uni0259" unicode="&#x259;" horiz-adv-x="1126" 
d="M475 -20q-153 0 -248.5 67t-131 185t-12.5 273l12 79h673q13 79 -3.5 137.5t-59.5 90t-110 31.5q-72 0 -130.5 -32t-91.5 -105h-260q33 110 113 188t184.5 119t209.5 41q150 0 254 -64t149.5 -182t21.5 -279q-23 -155 -99 -279.5t-196 -197t-275 -72.5zM507 184
q64 0 114.5 33t82.5 84.5t40 109.5h-406q-9 -63 5.5 -114.5t55 -82t108.5 -30.5z" />
    <glyph glyph-name="uni02BB" unicode="&#x2bb;" horiz-adv-x="509" 
d="M155 907l38 248q9 61 39.5 117t76.5 98t101.5 62t114.5 7l-14 -85l-22 -3q-43 -5 -86.5 -42t-51.5 -92l-3 -18l138 -12l-41 -280h-290z" />
    <glyph glyph-name="uni02BC" unicode="&#x2bc;" horiz-adv-x="581" 
d="M155 912l26 86l22 2q43 6 91 43t65 91l5 18l-133 12l83 280h283l-74 -248q-17 -61 -55.5 -117t-90 -98t-109 -61.5t-113.5 -7.5z" />
    <glyph glyph-name="circumflex" unicode="&#x2c6;" horiz-adv-x="744" 
d="M107 1155l267 259h199l244 -259h-226l-122 140l-148 -140h-214z" />
    <glyph glyph-name="caron" unicode="&#x2c7;" horiz-adv-x="760" 
d="M366 1155l-220 261h214l121 -151l150 151h225l-289 -261h-201z" />
    <glyph glyph-name="breve" unicode="&#x2d8;" horiz-adv-x="747" 
d="M460 1156q-81 0 -146 29.5t-106 86.5t-51 139h172q11 -28 30 -53t48.5 -41.5t74.5 -16.5q65 0 111 33.5t77 77.5h173q-35 -78 -93 -135.5t-132 -88.5t-158 -31z" />
    <glyph glyph-name="dotaccent" unicode="&#x2d9;" horiz-adv-x="296" 
d="M108 1208l35 238h274l-36 -238h-273z" />
    <glyph glyph-name="ring" unicode="&#x2da;" horiz-adv-x="504" 
d="M329 1120q-89 0 -141 64t-38 157q9 58 45 106t88.5 76t110.5 28q88 0 140.5 -62.5t38.5 -151.5q-8 -61 -44 -110t-88.5 -78t-111.5 -29zM345 1234q40 0 72 31t39 71q6 43 -17.5 71t-64.5 28q-39 0 -72.5 -28t-40.5 -71q-6 -40 19 -71t65 -31z" />
    <glyph glyph-name="ogonek" unicode="&#x2db;" horiz-adv-x="499" 
d="M127 -336q-100 0 -150.5 42t-38.5 122q8 55 51.5 101.5t161.5 85.5l202 -5q-109 -39 -152.5 -72t-50.5 -74q-3 -32 11 -48t50 -16q45 0 80.5 13.5t66.5 30.5l-20 -132q-30 -17 -88 -32.5t-123 -15.5z" />
    <glyph glyph-name="tilde" unicode="&#x2dc;" horiz-adv-x="815" 
d="M206 1196l-24 141q42 39 89 65.5t114 26.5q54 0 101 -15t90 -30.5t88 -15.5q50 0 94 22.5t77 47.5l13 -163q-34 -25 -88.5 -48t-120.5 -23q-54 0 -96.5 14t-83.5 28.5t-90 14.5t-84.5 -16t-78.5 -49z" />
    <glyph glyph-name="hungarumlaut" unicode="&#x2dd;" horiz-adv-x="797" 
d="M448 1155l202 291h268l-265 -291h-205zM100 1155l157 291h259l-212 -291h-204z" />
    <glyph glyph-name="gravecomb" unicode="&#x300;" 
d="M475 1155l-308 291h299l220 -291h-211z" />
    <glyph glyph-name="acutecomb" unicode="&#x301;" 
d="M100 1155l241 291h303l-331 -291h-213z" />
    <glyph glyph-name="uni0302" unicode="&#x302;" 
d="M107 1155l267 259h199l244 -259h-226l-122 140l-148 -140h-214z" />
    <glyph glyph-name="tildecomb" unicode="&#x303;" 
d="M206 1196l-24 141q42 39 89 65.5t114 26.5q54 0 101 -15t90 -30.5t88 -15.5q50 0 94 22.5t77 47.5l13 -163q-34 -25 -88.5 -48t-120.5 -23q-54 0 -96.5 14t-83.5 28.5t-90 14.5t-84.5 -16t-78.5 -49z" />
    <glyph glyph-name="uni0304" unicode="&#x304;" 
d="M138 1205l28 187h688l-28 -187h-688z" />
    <glyph glyph-name="uni0306" unicode="&#x306;" 
d="M460 1156q-81 0 -146 29.5t-106 86.5t-51 139h172q11 -28 30 -53t48.5 -41.5t74.5 -16.5q65 0 111 33.5t77 77.5h173q-35 -78 -93 -135.5t-132 -88.5t-158 -31z" />
    <glyph glyph-name="uni0307" unicode="&#x307;" 
d="M108 1208l35 238h274l-36 -238h-273z" />
    <glyph glyph-name="uni0308" unicode="&#x308;" 
d="M547 1208l36 238h273l-35 -238h-274zM106 1208l36 238h273l-35 -238h-274z" />
    <glyph glyph-name="hookabovecomb" unicode="&#x309;" 
d="M746 1141l-51 108q41 25 59 58.5t3 67.5q-13 29 -50.5 31t-75.5 -22l-52 106q99 59 184 45t118 -85q41 -85 7 -167t-142 -142z" />
    <glyph glyph-name="uni030A" unicode="&#x30a;" 
d="M329 1120q-89 0 -141 64t-38 157q9 58 45 106t88.5 76t110.5 28q88 0 140.5 -62.5t38.5 -151.5q-8 -61 -44 -110t-88.5 -78t-111.5 -29zM345 1234q40 0 72 31t39 71q6 43 -17.5 71t-64.5 28q-39 0 -72.5 -28t-40.5 -71q-6 -40 19 -71t65 -31z" />
    <glyph glyph-name="uni030B" unicode="&#x30b;" 
d="M448 1155l202 291h268l-265 -291h-205zM100 1155l157 291h259l-212 -291h-204z" />
    <glyph glyph-name="uni030C" unicode="&#x30c;" 
d="M366 1155l-220 261h214l121 -151l150 151h225l-289 -261h-201z" />
    <glyph glyph-name="uni030F" unicode="&#x30f;" 
d="M406 1155l-265 291h268l201 -291h-204zM755 1155l-213 291h260l157 -291h-204z" />
    <glyph glyph-name="uni0311" unicode="&#x311;" 
d="M111 1163q34 81 91 138t130 87t154 30q83 0 148.5 -31.5t107.5 -88.5t55 -135h-173q-19 44 -55.5 77t-101.5 33q-45 0 -79 -16t-60 -41.5t-45 -52.5h-172z" />
    <glyph glyph-name="uni0312" unicode="&#x312;" 
d="M551 1155l28 202l135 156h110l-137 -170h99l-27 -188h-208z" />
    <glyph glyph-name="uni031B" unicode="&#x31b;" 
d="M55 911l22 148q48 -1 83 2.5t59.5 22t43.5 61t36 121.5h191q-23 -142 -69.5 -225.5t-133.5 -114.5t-232 -15z" />
    <glyph glyph-name="dotbelowcomb" unicode="&#x323;" 
d="M-119 -398l36 238h273l-35 -238h-274z" />
    <glyph glyph-name="uni0326" unicode="&#x326;" 
d="M-129 -440l110 149l-77 10l26 187h246l-23 -156l-180 -190h-102z" />
    <glyph glyph-name="uni0327" unicode="&#x327;" 
d="M122 -425q-61 0 -116.5 12t-100.5 42l54 98q27 -19 63.5 -34t79.5 -15q46 0 73.5 16.5t31.5 45.5q6 39 -28 60t-125 22q-12 0 -16 3.5t4 15.5l96 169h126l-59 -117q72 -2 112 -26t53.5 -59.5t8.5 -70.5q-7 -51 -45 -87.5t-94 -55.5t-118 -19z" />
    <glyph glyph-name="uni0328" unicode="&#x328;" 
d="M127 -336q-100 0 -150.5 42t-38.5 122q8 55 51.5 101.5t161.5 85.5l202 -5q-109 -39 -152.5 -72t-50.5 -74q-3 -32 11 -48t50 -16q45 0 80.5 13.5t66.5 30.5l-20 -132q-30 -17 -88 -32.5t-123 -15.5z" />
    <glyph glyph-name="pi" unicode="&#x3c0;" horiz-adv-x="1353" 
d="M88 0q29 84 58.5 186t55 211.5t43.5 215.5t25 198q2 20 -15 20h-160l24 203h1243l-24 -203h-190l-74 -831h-280l74 831h-316q-7 -97 -26.5 -211.5t-46.5 -229.5t-57.5 -216.5t-61.5 -173.5h-272z" />
    <glyph glyph-name="uni1E0C" unicode="&#x1e0c;" horiz-adv-x="1419" 
d="M90 0l207 1446q11 0 69 -0.5t132 -0.5q143 0 272 -11.5t237 -44t187 -95.5t122.5 -165.5t43.5 -253.5q0 -86 -15 -183.5t-50.5 -195.5t-97.5 -187t-156 -158.5t-224.5 -110t-304.5 -40.5h-422zM417 236h122q126 0 223 49.5t164 136.5t101 201.5t34 246.5q0 121 -43 195.5
t-123.5 109.5t-194.5 35h-140zM325 -398l36 238h273l-35 -238h-274z" />
    <glyph glyph-name="uni1E0D" unicode="&#x1e0d;" horiz-adv-x="1198" 
d="M432 -20q-204 0 -297.5 143.5t-58.5 399.5q34 243 157 387t318 144q53 0 98.5 -12.5t81.5 -34.5t61.5 -51t39.5 -62l81 592h291l-204 -1486h-210l-4 212q-19 -43 -49.5 -84t-73.5 -74.5t-100 -53.5t-131 -20zM525 190q105 0 168 77t89 260q13 106 -0.5 176t-54.5 104.5
t-111 34.5q-92 0 -162.5 -72.5t-93.5 -242.5q-23 -173 22.5 -255t142.5 -82zM326 -398l36 238h273l-35 -238h-274z" />
    <glyph glyph-name="uni1E24" unicode="&#x1e24;" horiz-adv-x="1515" 
d="M89 0l204 1446h290l-82 -580h612l81 580h290l-204 -1446h-290l88 621h-612l-87 -621h-290zM488 -398l36 238h273l-35 -238h-274z" />
    <glyph glyph-name="uni1E25" unicode="&#x1e25;" horiz-adv-x="1174" 
d="M57 0l216 1486h288l-85 -588q43 54 115 98t192 44q95 0 169.5 -40.5t112 -113.5t22.5 -171l-104 -715h-289l97 674q10 66 -33.5 103t-111.5 37q-47 0 -91 -17t-74.5 -50t-36.5 -81l-98 -666h-289zM333 -398l36 238h273l-35 -238h-274z" />
    <glyph glyph-name="uni1E44" unicode="&#x1e44;" horiz-adv-x="1546" 
d="M89 0l215 1446h287l494 -957l140 957h290l-215 -1446h-260l-515 995l-146 -995h-290zM797 1620l35 238h274l-36 -238h-273z" />
    <glyph glyph-name="uni1E45" unicode="&#x1e45;" horiz-adv-x="1169" 
d="M52 0l155 1034h282l-18 -133q35 38 76.5 70t98.5 52t136 20q92 0 165.5 -43.5t111.5 -123t22 -187.5l-103 -689h-289l97 654q12 77 -30.5 118.5t-108.5 41.5q-46 0 -91 -16.5t-76.5 -48.5t-38.5 -80l-100 -669h-289zM562 1208l35 238h274l-36 -238h-273z" />
    <glyph glyph-name="uni1E5A" unicode="&#x1e5a;" horiz-adv-x="1365" 
d="M89 0l214 1446h594q169 0 268 -55t135.5 -152.5t17.5 -224.5q-17 -114 -63 -192.5t-109 -130.5t-134 -85l170 -606h-298l-145 557h-280l-82 -557h-288zM493 782h258q74 0 132 28.5t95 79t47 117.5q15 100 -40 158t-150 58h-277zM418 -398l36 238h273l-35 -238h-274z" />
    <glyph glyph-name="uni1E5B" unicode="&#x1e5b;" horiz-adv-x="804" 
d="M53 0l145 1034h279l-34 -245q35 79 88 138.5t121.5 93t148.5 33.5q14 0 25.5 -1.5t16.5 -4.5l-39 -278q-8 4 -19.5 5t-20.5 2q-113 10 -184.5 -14.5t-109 -76t-47.5 -120.5l-80 -566h-290zM-3 -398l36 238h273l-35 -238h-274z" />
    <glyph glyph-name="uni1E62" unicode="&#x1e62;" horiz-adv-x="1379" 
d="M623 -20q-106 0 -204.5 26t-175 79t-119 135t-37.5 193h302q4 -66 38.5 -111t93 -69t134.5 -24q78 0 145 20t111.5 60.5t53.5 101.5q8 55 -19 90t-78 57t-118 36l-237 51q-158 31 -238.5 130.5t-59.5 265.5q19 136 107 235.5t221 153.5t288 54q168 0 283.5 -63
t173.5 -163t51 -212h-296q4 76 -26 121t-85.5 65t-129.5 20q-76 0 -135 -22.5t-94.5 -62.5t-42.5 -92q-9 -63 26.5 -102t143.5 -64l234 -51q129 -26 199.5 -77t100 -115t32.5 -130.5t-5 -122.5q-16 -117 -102.5 -210.5t-224.5 -148t-311 -54.5zM417 -398l36 238h273
l-35 -238h-274z" />
    <glyph glyph-name="uni1E63" unicode="&#x1e63;" horiz-adv-x="1037" 
d="M457 -20q-106 0 -198.5 35.5t-150 112t-59.5 198.5h251q5 -55 34.5 -87t70.5 -45.5t79 -13.5q81 0 134 26.5t61 81.5q6 42 -20 67t-93 38l-171 38q-131 29 -202.5 98.5t-54.5 197.5q12 93 71 167t160 117t240 43q188 0 288.5 -84t80.5 -237h-242q-2 60 -44.5 92.5
t-113.5 32.5q-72 0 -123.5 -27t-58.5 -82q-6 -41 29.5 -64.5t114.5 -40.5l158 -38q82 -21 130.5 -57.5t72 -79.5t29 -86.5t-0.5 -78.5q-14 -103 -78 -175.5t-166 -110.5t-228 -38zM262 -398l36 238h273l-35 -238h-274z" />
    <glyph glyph-name="uni1E6C" unicode="&#x1e6c;" horiz-adv-x="1206" 
d="M380 0l174 1186h-421l39 260h1125l-39 -260h-414l-176 -1186h-288zM344 -397l36 238h273l-35 -238h-274z" />
    <glyph glyph-name="uni1E6D" unicode="&#x1e6d;" horiz-adv-x="820" 
d="M481 -11q-134 0 -202 35t-87.5 98t-7.5 146l83 563h-163l31 203h172l92 312h233l-46 -311h224l-31 -204h-223l-80 -548q-8 -57 12.5 -73t64.5 -16h135l-27 -180q-21 -9 -63.5 -17t-116.5 -8zM207 -386l36 238h273l-35 -238h-274z" />
    <glyph glyph-name="Wgrave" unicode="&#x1e80;" horiz-adv-x="1886" 
d="M370 0l-200 1446h283l118 -955l398 955h208l123 -955l397 955h282l-630 -1446h-229l-122 945l-403 -945h-225zM977 1567l-308 291h299l220 -291h-211z" />
    <glyph glyph-name="wgrave" unicode="&#x1e81;" horiz-adv-x="1535" 
d="M275 0l-172 1034h255l95 -641h7l278 641h205l91 -641h7l279 641h259l-485 -1034h-226l-94 626l-278 -626h-221zM752 1155l-308 291h299l220 -291h-211z" />
    <glyph glyph-name="Wacute" unicode="&#x1e82;" horiz-adv-x="1886" 
d="M370 0l-200 1446h283l118 -955l398 955h208l123 -955l397 955h282l-630 -1446h-229l-122 945l-403 -945h-225zM976 1567l241 291h303l-331 -291h-213z" />
    <glyph glyph-name="wacute" unicode="&#x1e83;" horiz-adv-x="1535" 
d="M275 0l-172 1034h255l95 -641h7l278 641h205l91 -641h7l279 641h259l-485 -1034h-226l-94 626l-278 -626h-221zM751 1155l241 291h303l-331 -291h-213z" />
    <glyph glyph-name="Wdieresis" unicode="&#x1e84;" horiz-adv-x="1886" 
d="M370 0l-200 1446h283l118 -955l398 955h208l123 -955l397 955h282l-630 -1446h-229l-122 945l-403 -945h-225zM1179 1620l36 238h273l-35 -238h-274zM738 1620l36 238h273l-35 -238h-274z" />
    <glyph glyph-name="wdieresis" unicode="&#x1e85;" horiz-adv-x="1535" 
d="M275 0l-172 1034h255l95 -641h7l278 641h205l91 -641h7l279 641h259l-485 -1034h-226l-94 626l-278 -626h-221zM954 1208l36 238h273l-35 -238h-274zM513 1208l36 238h273l-35 -238h-274z" />
    <glyph glyph-name="uni1E92" unicode="&#x1e92;" horiz-adv-x="1322" 
d="M35 0l22 142l865 1060h-661l38 244h1073l-20 -136l-878 -1063h712l-37 -247h-1114zM412 -398l36 238h273l-35 -238h-274z" />
    <glyph glyph-name="uni1E93" unicode="&#x1e93;" horiz-adv-x="978" 
d="M-8 0l21 163l589 667h-461l28 204h815l-20 -163l-589 -667h496l-29 -204h-850zM202 -398l36 238h273l-35 -238h-274z" />
    <glyph glyph-name="uni1EA0" unicode="&#x1ea0;" horiz-adv-x="1421" 
d="M-16 0l717 1446h303l287 -1446h-287l-63 335h-503l-165 -335h-289zM541 590h369l-98 574zM444 -398l36 238h273l-35 -238h-274z" />
    <glyph glyph-name="uni1EA1" unicode="&#x1ea1;" horiz-adv-x="1132" 
d="M347 -20q-97 0 -168.5 37t-106 107.5t-20.5 171.5q25 170 162.5 258.5t404.5 91.5l124 2l9 62q10 73 -28 110.5t-115 36.5q-60 -1 -121.5 -31t-92.5 -100h-239q21 107 91 180t174.5 110.5t230.5 37.5q154 0 242 -41t119.5 -114.5t17.5 -171.5l-108 -727h-241l1 175
q-68 -112 -150 -153.5t-186 -41.5zM471 172q39 0 76.5 14.5t69 39t53.5 55.5t27 64l23 153l-100 -2q-69 -1 -131.5 -17.5t-105.5 -53.5t-53 -100q-9 -72 32 -112.5t109 -40.5zM279 -398l36 238h273l-35 -238h-274z" />
    <glyph glyph-name="uni1EA2" unicode="&#x1ea2;" horiz-adv-x="1421" 
d="M-16 0l717 1446h303l287 -1446h-287l-63 335h-503l-165 -335h-289zM541 590h369l-98 574zM939 1545l-51 108q41 25 59 58.5t3 67.5q-13 29 -50.5 31t-75.5 -22l-52 106q99 59 184 45t118 -85q41 -85 7 -167t-142 -142z" />
    <glyph glyph-name="uni1EA3" unicode="&#x1ea3;" horiz-adv-x="1132" 
d="M347 -20q-97 0 -168.5 37t-106 107.5t-20.5 171.5q25 170 162.5 258.5t404.5 91.5l124 2l9 62q10 73 -28 110.5t-115 36.5q-60 -1 -121.5 -31t-92.5 -100h-239q21 107 91 180t174.5 110.5t230.5 37.5q154 0 242 -41t119.5 -114.5t17.5 -171.5l-108 -727h-241l1 175
q-68 -112 -150 -153.5t-186 -41.5zM471 172q39 0 76.5 14.5t69 39t53.5 55.5t27 64l23 153l-100 -2q-69 -1 -131.5 -17.5t-105.5 -53.5t-53 -100q-9 -72 32 -112.5t109 -40.5zM724 1133l-51 108q41 25 59 58.5t3 67.5q-13 29 -50.5 31t-75.5 -22l-52 106q99 59 184 45
t118 -85q41 -85 7 -167t-142 -142z" />
    <glyph glyph-name="uni1EA4" unicode="&#x1ea4;" horiz-adv-x="1421" 
d="M-16 0l717 1446h303l287 -1446h-287l-63 335h-503l-165 -335h-289zM541 590h369l-98 574zM515 1567l267 259h199l244 -259h-226l-122 140l-148 -140h-214zM1117 1816l129 242h230l-206 -242h-153z" />
    <glyph glyph-name="uni1EA5" unicode="&#x1ea5;" horiz-adv-x="1118" 
d="M347 -20q-97 0 -168.5 37t-106 107.5t-20.5 171.5q25 170 162.5 258.5t404.5 91.5l124 2l9 62q10 73 -28 110.5t-115 36.5q-60 -1 -121.5 -31t-92.5 -100h-239q21 107 91 180t174.5 110.5t230.5 37.5q154 0 242 -41t119.5 -114.5t17.5 -171.5l-108 -727h-241l1 175
q-68 -112 -150 -153.5t-186 -41.5zM471 172q39 0 76.5 14.5t69 39t53.5 55.5t27 64l23 153l-100 -2q-69 -1 -131.5 -17.5t-105.5 -53.5t-53 -100q-9 -72 32 -112.5t109 -40.5zM315 1155l267 259h199l244 -259h-226l-122 140l-148 -140h-214zM917 1404l129 242h230l-206 -242
h-153z" />
    <glyph glyph-name="uni1EA6" unicode="&#x1ea6;" horiz-adv-x="1421" 
d="M-16 0l717 1446h303l287 -1446h-287l-63 335h-503l-165 -335h-289zM541 590h369l-98 574zM514 1567l267 259h199l244 -259h-226l-122 140l-148 -140h-214zM1187 1812l-154 241h220l82 -241h-148z" />
    <glyph glyph-name="uni1EA7" unicode="&#x1ea7;" horiz-adv-x="1108" 
d="M347 -20q-97 0 -168.5 37t-106 107.5t-20.5 171.5q25 170 162.5 258.5t404.5 91.5l124 2l9 62q10 73 -28 110.5t-115 36.5q-60 -1 -121.5 -31t-92.5 -100h-239q21 107 91 180t174.5 110.5t230.5 37.5q154 0 242 -41t119.5 -114.5t17.5 -171.5l-108 -727h-241l1 175
q-68 -112 -150 -153.5t-186 -41.5zM471 172q39 0 76.5 14.5t69 39t53.5 55.5t27 64l23 153l-100 -2q-69 -1 -131.5 -17.5t-105.5 -53.5t-53 -100q-9 -72 32 -112.5t109 -40.5zM299 1155l267 259h199l244 -259h-226l-122 140l-148 -140h-214zM972 1400l-154 241h220l82 -241
h-148z" />
    <glyph glyph-name="uni1EA8" unicode="&#x1ea8;" horiz-adv-x="1421" 
d="M-16 0l717 1446h303l287 -1446h-287l-63 335h-503l-165 -335h-289zM541 590h369l-98 574zM507 1567l267 259h199l244 -259h-226l-122 140l-148 -140h-214zM1153 1734l-52 108q42 25 60 58t3 67q-13 30 -50.5 32t-76.5 -22l-51 106q99 59 183.5 44.5t118.5 -85.5
q41 -84 7 -166t-142 -142z" />
    <glyph glyph-name="uni1EA9" unicode="&#x1ea9;" horiz-adv-x="1127" 
d="M347 -20q-97 0 -168.5 37t-106 107.5t-20.5 171.5q25 170 162.5 258.5t404.5 91.5l124 2l9 62q10 73 -28 110.5t-115 36.5q-60 -1 -121.5 -31t-92.5 -100h-239q21 107 91 180t174.5 110.5t230.5 37.5q154 0 242 -41t119.5 -114.5t17.5 -171.5l-108 -727h-241l1 175
q-68 -112 -150 -153.5t-186 -41.5zM471 172q39 0 76.5 14.5t69 39t53.5 55.5t27 64l23 153l-100 -2q-69 -1 -131.5 -17.5t-105.5 -53.5t-53 -100q-9 -72 32 -112.5t109 -40.5zM307 1155l267 259h199l244 -259h-226l-122 140l-148 -140h-214zM953 1322l-52 108q42 25 60 58
t3 67q-13 30 -50.5 32t-76.5 -22l-51 106q99 59 183.5 44.5t118.5 -85.5q41 -84 7 -166t-142 -142z" />
    <glyph glyph-name="uni1EAA" unicode="&#x1eaa;" horiz-adv-x="1421" 
d="M-16 0l717 1446h303l287 -1446h-287l-63 335h-503l-165 -335h-289zM541 590h369l-98 574zM536 1567l266 259h200l243 -259h-226l-122 140l-147 -140h-214zM608 1921l-24 141q42 39 89 65.5t114 26.5q54 0 101 -15t90.5 -30.5t87.5 -15.5q50 0 94 22.5t78 47.5l12 -163
q-34 -25 -88.5 -48t-120.5 -23q-54 0 -96 14t-83.5 28.5t-90.5 14.5t-84.5 -16t-78.5 -49z" />
    <glyph glyph-name="uni1EAB" unicode="&#x1eab;" horiz-adv-x="1132" 
d="M347 -20q-97 0 -168.5 37t-106 107.5t-20.5 171.5q25 170 162.5 258.5t404.5 91.5l124 2l9 62q10 73 -28 110.5t-115 36.5q-60 -1 -121.5 -31t-92.5 -100h-239q21 107 91 180t174.5 110.5t230.5 37.5q154 0 242 -41t119.5 -114.5t17.5 -171.5l-108 -727h-241l1 175
q-68 -112 -150 -153.5t-186 -41.5zM471 172q39 0 76.5 14.5t69 39t53.5 55.5t27 64l23 153l-100 -2q-69 -1 -131.5 -17.5t-105.5 -53.5t-53 -100q-9 -72 32 -112.5t109 -40.5zM321 1155l266 259h200l243 -259h-226l-122 140l-147 -140h-214zM393 1509l-24 141q42 39 89 65.5
t114 26.5q54 0 101 -15t90.5 -30.5t87.5 -15.5q50 0 94 22.5t78 47.5l12 -163q-34 -25 -88.5 -48t-120.5 -23q-54 0 -96 14t-83.5 28.5t-90.5 14.5t-84.5 -16t-78.5 -49z" />
    <glyph glyph-name="uni1EAC" unicode="&#x1eac;" horiz-adv-x="1421" 
d="M-16 0l717 1446h303l287 -1446h-287l-63 335h-503l-165 -335h-289zM541 590h369l-98 574zM444 -398l36 238h273l-35 -238h-274zM514 1567l267 259h199l244 -259h-226l-122 140l-148 -140h-214z" />
    <glyph glyph-name="uni1EAD" unicode="&#x1ead;" horiz-adv-x="1132" 
d="M347 -20q-97 0 -168.5 37t-106 107.5t-20.5 171.5q25 170 162.5 258.5t404.5 91.5l124 2l9 62q10 73 -28 110.5t-115 36.5q-60 -1 -121.5 -31t-92.5 -100h-239q21 107 91 180t174.5 110.5t230.5 37.5q154 0 242 -41t119.5 -114.5t17.5 -171.5l-108 -727h-241l1 175
q-68 -112 -150 -153.5t-186 -41.5zM471 172q39 0 76.5 14.5t69 39t53.5 55.5t27 64l23 153l-100 -2q-69 -1 -131.5 -17.5t-105.5 -53.5t-53 -100q-9 -72 32 -112.5t109 -40.5zM279 -398l36 238h273l-35 -238h-274zM301 1155l267 259h199l244 -259h-226l-122 140l-148 -140
h-214z" />
    <glyph glyph-name="uni1EAE" unicode="&#x1eae;" horiz-adv-x="1421" 
d="M-16 0l717 1446h303l287 -1446h-287l-63 335h-503l-165 -335h-289zM541 590h369l-98 574zM922 1568q-81 0 -146 29.5t-106 86.5t-51 139h172q11 -28 30 -53t48.5 -41.5t74.5 -16.5q65 0 111 33.5t77 77.5h173q-35 -78 -93 -135.5t-132 -88.5t-158 -31zM884 1906l129 241
h230l-205 -241h-154z" />
    <glyph glyph-name="uni1EAF" unicode="&#x1eaf;" horiz-adv-x="1132" 
d="M347 -20q-97 0 -168.5 37t-106 107.5t-20.5 171.5q25 170 162.5 258.5t404.5 91.5l124 2l9 62q10 73 -28 110.5t-115 36.5q-60 -1 -121.5 -31t-92.5 -100h-239q21 107 91 180t174.5 110.5t230.5 37.5q154 0 242 -41t119.5 -114.5t17.5 -171.5l-108 -727h-241l1 175
q-68 -112 -150 -153.5t-186 -41.5zM471 172q39 0 76.5 14.5t69 39t53.5 55.5t27 64l23 153l-100 -2q-69 -1 -131.5 -17.5t-105.5 -53.5t-53 -100q-9 -72 32 -112.5t109 -40.5zM709 1156q-81 0 -146 29.5t-106 86.5t-51 139h172q11 -28 30 -53t48.5 -41.5t74.5 -16.5
q65 0 111 33.5t77 77.5h173q-35 -78 -93 -135.5t-132 -88.5t-158 -31zM671 1494l129 241h230l-205 -241h-154z" />
    <glyph glyph-name="uni1EB0" unicode="&#x1eb0;" horiz-adv-x="1421" 
d="M-16 0l717 1446h303l287 -1446h-287l-63 335h-503l-165 -335h-289zM541 590h369l-98 574zM920 1568q-81 0 -146 29.5t-106 86.5t-51 139h172q11 -28 30 -53t48.5 -41.5t74.5 -16.5q65 0 111 33.5t77 77.5h173q-35 -78 -93 -135.5t-132 -88.5t-158 -31zM883 1905l-154 241
h221l81 -241h-148z" />
    <glyph glyph-name="uni1EB1" unicode="&#x1eb1;" horiz-adv-x="1132" 
d="M347 -20q-97 0 -168.5 37t-106 107.5t-20.5 171.5q25 170 162.5 258.5t404.5 91.5l124 2l9 62q10 73 -28 110.5t-115 36.5q-60 -1 -121.5 -31t-92.5 -100h-239q21 107 91 180t174.5 110.5t230.5 37.5q154 0 242 -41t119.5 -114.5t17.5 -171.5l-108 -727h-241l1 175
q-68 -112 -150 -153.5t-186 -41.5zM471 172q39 0 76.5 14.5t69 39t53.5 55.5t27 64l23 153l-100 -2q-69 -1 -131.5 -17.5t-105.5 -53.5t-53 -100q-9 -72 32 -112.5t109 -40.5zM707 1156q-81 0 -146 29.5t-106 86.5t-51 139h172q11 -28 30 -53t48.5 -41.5t74.5 -16.5
q65 0 111 33.5t77 77.5h173q-35 -78 -93 -135.5t-132 -88.5t-158 -31zM670 1493l-154 241h221l81 -241h-148z" />
    <glyph glyph-name="uni1EB2" unicode="&#x1eb2;" horiz-adv-x="1421" 
d="M-16 0l717 1446h303l287 -1446h-287l-63 335h-503l-165 -335h-289zM541 590h369l-98 574zM882 1568q-81 0 -146 29.5t-106 86.5t-51 139h172q11 -28 30 -53t48.5 -41.5t74.5 -16.5q65 0 111 33.5t77 77.5h173q-35 -78 -93 -135.5t-132 -88.5t-158 -31zM940 1783l-52 109
q42 25 60 58t3 67q-13 30 -50.5 31.5t-76.5 -21.5l-51 106q79 47 152 47q109 0 150 -88q41 -85 7 -166.5t-142 -142.5z" />
    <glyph glyph-name="uni1EB3" unicode="&#x1eb3;" horiz-adv-x="1132" 
d="M347 -20q-97 0 -168.5 37t-106 107.5t-20.5 171.5q25 170 162.5 258.5t404.5 91.5l124 2l9 62q10 73 -28 110.5t-115 36.5q-60 -1 -121.5 -31t-92.5 -100h-239q21 107 91 180t174.5 110.5t230.5 37.5q154 0 242 -41t119.5 -114.5t17.5 -171.5l-108 -727h-241l1 175
q-68 -112 -150 -153.5t-186 -41.5zM471 172q39 0 76.5 14.5t69 39t53.5 55.5t27 64l23 153l-100 -2q-69 -1 -131.5 -17.5t-105.5 -53.5t-53 -100q-9 -72 32 -112.5t109 -40.5zM696 1156q-81 0 -146 29.5t-106 86.5t-51 139h172q11 -28 30 -53t48.5 -41.5t74.5 -16.5
q65 0 111 33.5t77 77.5h173q-35 -78 -93 -135.5t-132 -88.5t-158 -31zM754 1371l-52 109q42 25 60 58t3 67q-13 30 -50.5 31.5t-76.5 -21.5l-51 106q79 47 152 47q109 0 150 -88q41 -85 7 -166.5t-142 -142.5z" />
    <glyph glyph-name="uni1EB4" unicode="&#x1eb4;" horiz-adv-x="1421" 
d="M-16 0l717 1446h303l287 -1446h-287l-63 335h-503l-165 -335h-289zM541 590h369l-98 574zM920 1568q-82 0 -146.5 29.5t-105.5 86.5t-52 139h172q12 -28 30.5 -53t48.5 -41.5t74 -16.5q65 0 111 33.5t78 77.5h172q-35 -78 -92.5 -135.5t-132 -88.5t-157.5 -31zM631 1924
l-24 141q42 38 89 65t114 27q54 0 101 -15.5t90.5 -30.5t87.5 -15q50 0 94 22.5t78 46.5l12 -162q-34 -26 -88.5 -48.5t-120.5 -22.5q-54 0 -96 14t-83.5 28t-90.5 14t-84.5 -16t-78.5 -48z" />
    <glyph glyph-name="uni1EB5" unicode="&#x1eb5;" horiz-adv-x="1132" 
d="M347 -20q-97 0 -168.5 37t-106 107.5t-20.5 171.5q25 170 162.5 258.5t404.5 91.5l124 2l9 62q10 73 -28 110.5t-115 36.5q-60 -1 -121.5 -31t-92.5 -100h-239q21 107 91 180t174.5 110.5t230.5 37.5q154 0 242 -41t119.5 -114.5t17.5 -171.5l-108 -727h-241l1 175
q-68 -112 -150 -153.5t-186 -41.5zM471 172q39 0 76.5 14.5t69 39t53.5 55.5t27 64l23 153l-100 -2q-69 -1 -131.5 -17.5t-105.5 -53.5t-53 -100q-9 -72 32 -112.5t109 -40.5zM703 1156q-82 0 -146.5 29.5t-105.5 86.5t-52 139h172q12 -28 30.5 -53t48.5 -41.5t74 -16.5
q65 0 111 33.5t78 77.5h172q-35 -78 -92.5 -135.5t-132 -88.5t-157.5 -31zM414 1512l-24 141q42 38 89 65t114 27q54 0 101 -15.5t90.5 -30.5t87.5 -15q50 0 94 22.5t78 46.5l12 -162q-34 -26 -88.5 -48.5t-120.5 -22.5q-54 0 -96 14t-83.5 28t-90.5 14t-84.5 -16t-78.5 -48
z" />
    <glyph glyph-name="uni1EB6" unicode="&#x1eb6;" horiz-adv-x="1421" 
d="M-16 0l717 1446h303l287 -1446h-287l-63 335h-503l-165 -335h-289zM541 590h369l-98 574zM444 -398l36 238h273l-35 -238h-274zM869 1568q-81 0 -146 29.5t-106 86.5t-51 139h172q11 -28 30 -53t48.5 -41.5t74.5 -16.5q65 0 111 33.5t77 77.5h173q-35 -78 -93 -135.5
t-132 -88.5t-158 -31z" />
    <glyph glyph-name="uni1EB7" unicode="&#x1eb7;" horiz-adv-x="1114" 
d="M347 -20q-97 0 -168.5 37t-106 107.5t-20.5 171.5q25 170 162.5 258.5t404.5 91.5l124 2l9 62q10 73 -28 110.5t-115 36.5q-60 -1 -121.5 -31t-92.5 -100h-239q21 107 91 180t174.5 110.5t230.5 37.5q154 0 242 -41t119.5 -114.5t17.5 -171.5l-108 -727h-241l1 175
q-68 -112 -150 -153.5t-186 -41.5zM471 172q39 0 76.5 14.5t69 39t53.5 55.5t27 64l23 153l-100 -2q-69 -1 -131.5 -17.5t-105.5 -53.5t-53 -100q-9 -72 32 -112.5t109 -40.5zM279 -398l36 238h273l-35 -238h-274zM654 1155q-81 0 -146 29.5t-106 86.5t-51 139h172
q11 -28 30 -53t48.5 -41.5t74.5 -16.5q65 0 111 33.5t77 77.5h173q-35 -78 -93 -135.5t-132 -88.5t-158 -31z" />
    <glyph glyph-name="uni1EB8" unicode="&#x1eb8;" horiz-adv-x="1255" 
d="M89 0l215 1446h968l-38 -246h-677l-51 -351h585l-35 -241h-588l-53 -359l689 -1l-38 -248h-977zM386 -398l36 238h273l-35 -238h-274z" />
    <glyph glyph-name="uni1EB9" unicode="&#x1eb9;" horiz-adv-x="1126" 
d="M506 -20q-149 0 -253 64.5t-149.5 182.5t-21.5 278q22 155 98.5 279.5t196.5 197t274 72.5q155 0 249.5 -66.5t130.5 -185t13 -273.5l-13 -79h-672q-13 -79 3 -137.5t59.5 -90t110.5 -31.5q72 0 130.5 32t90.5 105h260q-33 -110 -113 -188t-184 -119t-210 -41zM382 624
h406q10 62 -5 114t-55 82t-108 30q-64 0 -114.5 -32.5t-82.5 -84.5t-41 -109zM309 -398l36 238h273l-35 -238h-274z" />
    <glyph glyph-name="uni1EBA" unicode="&#x1eba;" horiz-adv-x="1255" 
d="M89 0l215 1446h968l-38 -246h-677l-51 -351h585l-35 -241h-588l-53 -359l689 -1l-38 -248h-977zM853 1545l-51 108q41 25 59 58.5t3 67.5q-13 29 -50.5 31t-75.5 -22l-52 106q99 59 184 45t118 -85q41 -85 7 -167t-142 -142z" />
    <glyph glyph-name="uni1EBB" unicode="&#x1ebb;" horiz-adv-x="1126" 
d="M506 -20q-149 0 -253 64.5t-149.5 182.5t-21.5 278q22 155 98.5 279.5t196.5 197t274 72.5q155 0 249.5 -66.5t130.5 -185t13 -273.5l-13 -79h-672q-13 -79 3 -137.5t59.5 -90t110.5 -31.5q72 0 130.5 32t90.5 105h260q-33 -110 -113 -188t-184 -119t-210 -41zM382 624
h406q10 62 -5 114t-55 82t-108 30q-64 0 -114.5 -32.5t-82.5 -84.5t-41 -109zM734 1133l-51 108q41 25 59 58.5t3 67.5q-13 29 -50.5 31t-75.5 -22l-52 106q99 59 184 45t118 -85q41 -85 7 -167t-142 -142z" />
    <glyph glyph-name="uni1EBC" unicode="&#x1ebc;" horiz-adv-x="1255" 
d="M89 0l215 1446h968l-38 -246h-677l-51 -351h585l-35 -241h-588l-53 -359l689 -1l-38 -248h-977zM504 1608l-24 141q42 39 89 65.5t114 26.5q54 0 101 -15t90 -30.5t88 -15.5q50 0 94 22.5t77 47.5l13 -163q-34 -25 -88.5 -48t-120.5 -23q-54 0 -96.5 14t-83.5 28.5
t-90 14.5t-84.5 -16t-78.5 -49z" />
    <glyph glyph-name="uni1EBD" unicode="&#x1ebd;" horiz-adv-x="1126" 
d="M506 -20q-149 0 -253 64.5t-149.5 182.5t-21.5 278q22 155 98.5 279.5t196.5 197t274 72.5q155 0 249.5 -66.5t130.5 -185t13 -273.5l-13 -79h-672q-13 -79 3 -137.5t59.5 -90t110.5 -31.5q72 0 130.5 32t90.5 105h260q-33 -110 -113 -188t-184 -119t-210 -41zM382 624
h406q10 62 -5 114t-55 82t-108 30q-64 0 -114.5 -32.5t-82.5 -84.5t-41 -109zM385 1196l-24 141q42 39 89 65.5t114 26.5q54 0 101 -15t90 -30.5t88 -15.5q50 0 94 22.5t77 47.5l13 -163q-34 -25 -88.5 -48t-120.5 -23q-54 0 -96.5 14t-83.5 28.5t-90 14.5t-84.5 -16
t-78.5 -49z" />
    <glyph glyph-name="uni1EBE" unicode="&#x1ebe;" horiz-adv-x="1255" 
d="M89 0l215 1446h968l-38 -246h-677l-51 -351h585l-35 -241h-588l-53 -359l689 -1l-38 -248h-977zM430 1567l267 259h199l244 -259h-226l-122 140l-148 -140h-214zM1032 1816l129 242h230l-206 -242h-153z" />
    <glyph glyph-name="uni1EBF" unicode="&#x1ebf;" horiz-adv-x="1126" 
d="M506 -20q-149 0 -253 64.5t-149.5 182.5t-21.5 278q22 155 98.5 279.5t196.5 197t274 72.5q155 0 249.5 -66.5t130.5 -185t13 -273.5l-13 -79h-672q-13 -79 3 -137.5t59.5 -90t110.5 -31.5q72 0 130.5 32t90.5 105h260q-33 -110 -113 -188t-184 -119t-210 -41zM382 624
h406q10 62 -5 114t-55 82t-108 30q-64 0 -114.5 -32.5t-82.5 -84.5t-41 -109zM311 1155l267 259h199l244 -259h-226l-122 140l-148 -140h-214zM913 1404l129 242h230l-206 -242h-153z" />
    <glyph glyph-name="uni1EC0" unicode="&#x1ec0;" horiz-adv-x="1255" 
d="M89 0l215 1446h968l-38 -246h-677l-51 -351h585l-35 -241h-588l-53 -359l689 -1l-38 -248h-977zM428 1567l267 259h199l244 -259h-226l-122 140l-148 -140h-214zM1101 1812l-154 241h220l82 -241h-148z" />
    <glyph glyph-name="uni1EC1" unicode="&#x1ec1;" horiz-adv-x="1096" 
d="M506 -20q-149 0 -253 64.5t-149.5 182.5t-21.5 278q22 155 98.5 279.5t196.5 197t274 72.5q155 0 249.5 -66.5t130.5 -185t13 -273.5l-13 -79h-672q-13 -79 3 -137.5t59.5 -90t110.5 -31.5q72 0 130.5 32t90.5 105h260q-33 -110 -113 -188t-184 -119t-210 -41zM382 624
h406q10 62 -5 114t-55 82t-108 30q-64 0 -114.5 -32.5t-82.5 -84.5t-41 -109zM291 1155l267 259h199l244 -259h-226l-122 140l-148 -140h-214zM964 1400l-154 241h220l82 -241h-148z" />
    <glyph glyph-name="uni1EC2" unicode="&#x1ec2;" horiz-adv-x="1255" 
d="M89 0l215 1446h968l-38 -246h-677l-51 -351h585l-35 -241h-588l-53 -359l689 -1l-38 -248h-977zM421 1567l267 259h199l244 -259h-226l-122 140l-148 -140h-214zM1067 1734l-52 108q42 25 60 58t3 67q-13 30 -50.5 32t-76.5 -22l-51 106q99 59 183.5 44.5t118.5 -85.5
q41 -84 7 -166t-142 -142z" />
    <glyph glyph-name="uni1EC3" unicode="&#x1ec3;" horiz-adv-x="1126" 
d="M506 -20q-149 0 -253 64.5t-149.5 182.5t-21.5 278q22 155 98.5 279.5t196.5 197t274 72.5q155 0 249.5 -66.5t130.5 -185t13 -273.5l-13 -79h-672q-13 -79 3 -137.5t59.5 -90t110.5 -31.5q72 0 130.5 32t90.5 105h260q-33 -110 -113 -188t-184 -119t-210 -41zM382 624
h406q10 62 -5 114t-55 82t-108 30q-64 0 -114.5 -32.5t-82.5 -84.5t-41 -109zM303 1155l267 259h199l244 -259h-226l-122 140l-148 -140h-214zM949 1322l-52 108q42 25 60 58t3 67q-13 30 -50.5 32t-76.5 -22l-51 106q99 59 183.5 44.5t118.5 -85.5q41 -84 7 -166t-142 -142
z" />
    <glyph glyph-name="uni1EC4" unicode="&#x1ec4;" horiz-adv-x="1255" 
d="M89 0l215 1446h968l-38 -246h-677l-51 -351h585l-35 -241h-588l-53 -359l689 -1l-38 -248h-977zM450 1567l266 259h200l243 -259h-226l-122 140l-147 -140h-214zM522 1921l-24 141q42 39 89 65.5t114 26.5q54 0 101 -15t90.5 -30.5t87.5 -15.5q50 0 94 22.5t78 47.5
l12 -163q-34 -25 -88.5 -48t-120.5 -23q-54 0 -96 14t-83.5 28.5t-90.5 14.5t-84.5 -16t-78.5 -49z" />
    <glyph glyph-name="uni1EC5" unicode="&#x1ec5;" horiz-adv-x="1126" 
d="M506 -20q-149 0 -253 64.5t-149.5 182.5t-21.5 278q22 155 98.5 279.5t196.5 197t274 72.5q155 0 249.5 -66.5t130.5 -185t13 -273.5l-13 -79h-672q-13 -79 3 -137.5t59.5 -90t110.5 -31.5q72 0 130.5 32t90.5 105h260q-33 -110 -113 -188t-184 -119t-210 -41zM382 624
h406q10 62 -5 114t-55 82t-108 30q-64 0 -114.5 -32.5t-82.5 -84.5t-41 -109zM332 1155l266 259h200l243 -259h-226l-122 140l-147 -140h-214zM404 1509l-24 141q42 39 89 65.5t114 26.5q54 0 101 -15t90.5 -30.5t87.5 -15.5q50 0 94 22.5t78 47.5l12 -163
q-34 -25 -88.5 -48t-120.5 -23q-54 0 -96 14t-83.5 28.5t-90.5 14.5t-84.5 -16t-78.5 -49z" />
    <glyph glyph-name="uni1EC6" unicode="&#x1ec6;" horiz-adv-x="1255" 
d="M89 0l215 1446h968l-38 -246h-677l-51 -351h585l-35 -241h-588l-53 -359l689 -1l-38 -248h-977zM386 -398l36 238h273l-35 -238h-274zM429 1567l267 259h199l244 -259h-226l-122 140l-148 -140h-214z" />
    <glyph glyph-name="uni1EC7" unicode="&#x1ec7;" horiz-adv-x="1126" 
d="M506 -20q-149 0 -253 64.5t-149.5 182.5t-21.5 278q22 155 98.5 279.5t196.5 197t274 72.5q155 0 249.5 -66.5t130.5 -185t13 -273.5l-13 -79h-672q-13 -79 3 -137.5t59.5 -90t110.5 -31.5q72 0 130.5 32t90.5 105h260q-33 -110 -113 -188t-184 -119t-210 -41zM382 624
h406q10 62 -5 114t-55 82t-108 30q-64 0 -114.5 -32.5t-82.5 -84.5t-41 -109zM309 -398l36 238h273l-35 -238h-274zM310 1155l267 259h199l244 -259h-226l-122 140l-148 -140h-214z" />
    <glyph glyph-name="uni1EC8" unicode="&#x1ec8;" horiz-adv-x="623" 
d="M89 0l214 1446h289l-213 -1446h-290zM535 1545l-51 108q41 25 59 58.5t3 67.5q-13 29 -50.5 31t-75.5 -22l-52 106q99 59 184 45t118 -85q41 -85 7 -167t-142 -142z" />
    <glyph glyph-name="uni1EC9" unicode="&#x1ec9;" horiz-adv-x="538" 
d="M52 0l154 1034h290l-154 -1034h-290zM444 1133l-51 108q41 25 59 58.5t3 67.5q-13 29 -50.5 31t-75.5 -22l-52 106q99 59 184 45t118 -85q41 -85 7 -167t-142 -142z" />
    <glyph glyph-name="uni1ECA" unicode="&#x1eca;" horiz-adv-x="623" 
d="M89 0l214 1446h289l-213 -1446h-290zM55 -398l36 238h273l-35 -238h-274z" />
    <glyph glyph-name="uni1ECB" unicode="&#x1ecb;" horiz-adv-x="534" 
d="M55 0l146 1034h277l-146 -1034h-277zM219 1183l37 263h282l-37 -263h-282zM-1 -398l36 238h273l-35 -238h-274z" />
    <glyph glyph-name="uni1ECC" unicode="&#x1ecc;" horiz-adv-x="1491" 
d="M666 -20q-200 0 -332.5 89t-187 254.5t-20.5 395.5q35 231 140 398.5t264.5 258t355.5 90.5t327.5 -90t186.5 -257.5t21 -398.5q-34 -229 -137.5 -395t-261.5 -255.5t-356 -89.5zM702 220q101 0 183 50.5t138.5 159.5t82.5 286q27 180 2.5 292.5t-91 165t-167.5 52.5
q-151 0 -260 -120t-149 -390q-26 -176 -0.5 -285.5t93 -160t168.5 -50.5zM476 -398l36 238h273l-35 -238h-274z" />
    <glyph glyph-name="uni1ECD" unicode="&#x1ecd;" horiz-adv-x="1127" 
d="M485 -20q-148 0 -248 65t-142.5 184t-19.5 282q24 163 101.5 285t197.5 190t268 68q150 0 249.5 -66.5t141 -188.5t17.5 -288q-23 -156 -98.5 -275.5t-194 -187.5t-272.5 -68zM520 197q73 0 124.5 45t82.5 118.5t43 160.5q11 82 2.5 155t-46.5 118t-116 45
q-75 0 -127 -42.5t-82 -115t-42 -160.5q-12 -81 -3.5 -155.5t47 -121.5t117.5 -47zM281 -398l36 238h273l-35 -238h-274z" />
    <glyph glyph-name="uni1ECE" unicode="&#x1ece;" horiz-adv-x="1491" 
d="M666 -20q-200 0 -332.5 89t-187 254.5t-20.5 395.5q35 231 140 398.5t264.5 258t355.5 90.5t327.5 -90t186.5 -257.5t21 -398.5q-34 -229 -137.5 -395t-261.5 -255.5t-356 -89.5zM702 220q101 0 183 50.5t138.5 159.5t82.5 286q27 180 2.5 292.5t-91 165t-167.5 52.5
q-151 0 -260 -120t-149 -390q-26 -176 -0.5 -285.5t93 -160t168.5 -50.5zM956 1545l-51 108q41 25 59 58.5t3 67.5q-13 29 -50.5 31t-75.5 -22l-52 106q99 59 184 45t118 -85q41 -85 7 -167t-142 -142z" />
    <glyph glyph-name="uni1ECF" unicode="&#x1ecf;" horiz-adv-x="1127" 
d="M485 -20q-148 0 -248 65t-142.5 184t-19.5 282q24 163 101.5 285t197.5 190t268 68q150 0 249.5 -66.5t141 -188.5t17.5 -288q-23 -156 -98.5 -275.5t-194 -187.5t-272.5 -68zM520 197q73 0 124.5 45t82.5 118.5t43 160.5q11 82 2.5 155t-46.5 118t-116 45
q-75 0 -127 -42.5t-82 -115t-42 -160.5q-12 -81 -3.5 -155.5t47 -121.5t117.5 -47zM715 1133l-51 108q41 25 59 58.5t3 67.5q-13 29 -50.5 31t-75.5 -22l-52 106q99 59 184 45t118 -85q41 -85 7 -167t-142 -142z" />
    <glyph glyph-name="uni1ED0" unicode="&#x1ed0;" horiz-adv-x="1491" 
d="M666 -20q-200 0 -332.5 89t-187 254.5t-20.5 395.5q35 231 140 398.5t264.5 258t355.5 90.5t327.5 -90t186.5 -257.5t21 -398.5q-34 -229 -137.5 -395t-261.5 -255.5t-356 -89.5zM702 220q101 0 183 50.5t138.5 159.5t82.5 286q27 180 2.5 292.5t-91 165t-167.5 52.5
q-151 0 -260 -120t-149 -390q-26 -176 -0.5 -285.5t93 -160t168.5 -50.5zM533 1567l267 259h199l244 -259h-226l-122 140l-148 -140h-214zM1135 1816l129 242h230l-206 -242h-153z" />
    <glyph glyph-name="uni1ED1" unicode="&#x1ed1;" horiz-adv-x="1063" 
d="M485 -20q-148 0 -248 65t-142.5 184t-19.5 282q24 163 101.5 285t197.5 190t268 68q150 0 249.5 -66.5t141 -188.5t17.5 -288q-23 -156 -98.5 -275.5t-194 -187.5t-272.5 -68zM520 197q73 0 124.5 45t82.5 118.5t43 160.5q11 82 2.5 155t-46.5 118t-116 45
q-75 0 -127 -42.5t-82 -115t-42 -160.5q-12 -81 -3.5 -155.5t47 -121.5t117.5 -47zM278 1155l267 259h199l244 -259h-226l-122 140l-148 -140h-214zM880 1404l129 242h230l-206 -242h-153z" />
    <glyph glyph-name="uni1ED2" unicode="&#x1ed2;" horiz-adv-x="1491" 
d="M666 -20q-200 0 -332.5 89t-187 254.5t-20.5 395.5q35 231 140 398.5t264.5 258t355.5 90.5t327.5 -90t186.5 -257.5t21 -398.5q-34 -229 -137.5 -395t-261.5 -255.5t-356 -89.5zM702 220q101 0 183 50.5t138.5 159.5t82.5 286q27 180 2.5 292.5t-91 165t-167.5 52.5
q-151 0 -260 -120t-149 -390q-26 -176 -0.5 -285.5t93 -160t168.5 -50.5zM531 1567l267 259h199l244 -259h-226l-122 140l-148 -140h-214zM1204 1812l-154 241h220l82 -241h-148z" />
    <glyph glyph-name="uni1ED3" unicode="&#x1ed3;" horiz-adv-x="1127" 
d="M485 -20q-148 0 -248 65t-142.5 184t-19.5 282q24 163 101.5 285t197.5 190t268 68q150 0 249.5 -66.5t141 -188.5t17.5 -288q-23 -156 -98.5 -275.5t-194 -187.5t-272.5 -68zM520 197q73 0 124.5 45t82.5 118.5t43 160.5q11 82 2.5 155t-46.5 118t-116 45
q-75 0 -127 -42.5t-82 -115t-42 -160.5q-12 -81 -3.5 -155.5t47 -121.5t117.5 -47zM289 1155l267 259h199l244 -259h-226l-122 140l-148 -140h-214zM962 1400l-154 241h220l82 -241h-148z" />
    <glyph glyph-name="uni1ED4" unicode="&#x1ed4;" horiz-adv-x="1491" 
d="M666 -20q-200 0 -332.5 89t-187 254.5t-20.5 395.5q35 231 140 398.5t264.5 258t355.5 90.5t327.5 -90t186.5 -257.5t21 -398.5q-34 -229 -137.5 -395t-261.5 -255.5t-356 -89.5zM702 220q101 0 183 50.5t138.5 159.5t82.5 286q27 180 2.5 292.5t-91 165t-167.5 52.5
q-151 0 -260 -120t-149 -390q-26 -176 -0.5 -285.5t93 -160t168.5 -50.5zM525 1567l267 259h199l244 -259h-226l-122 140l-148 -140h-214zM1171 1734l-52 108q42 25 60 58t3 67q-13 30 -50.5 32t-76.5 -22l-51 106q99 59 183.5 44.5t118.5 -85.5q41 -84 7 -166t-142 -142z
" />
    <glyph glyph-name="uni1ED5" unicode="&#x1ed5;" horiz-adv-x="1127" 
d="M485 -20q-148 0 -248 65t-142.5 184t-19.5 282q24 163 101.5 285t197.5 190t268 68q150 0 249.5 -66.5t141 -188.5t17.5 -288q-23 -156 -98.5 -275.5t-194 -187.5t-272.5 -68zM520 197q73 0 124.5 45t82.5 118.5t43 160.5q11 82 2.5 155t-46.5 118t-116 45
q-75 0 -127 -42.5t-82 -115t-42 -160.5q-12 -81 -3.5 -155.5t47 -121.5t117.5 -47zM283 1155l267 259h199l244 -259h-226l-122 140l-148 -140h-214zM929 1322l-52 108q42 25 60 58t3 67q-13 30 -50.5 32t-76.5 -22l-51 106q99 59 183.5 44.5t118.5 -85.5q41 -84 7 -166
t-142 -142z" />
    <glyph glyph-name="uni1ED6" unicode="&#x1ed6;" horiz-adv-x="1491" 
d="M666 -20q-200 0 -332.5 89t-187 254.5t-20.5 395.5q35 231 140 398.5t264.5 258t355.5 90.5t327.5 -90t186.5 -257.5t21 -398.5q-34 -229 -137.5 -395t-261.5 -255.5t-356 -89.5zM702 220q101 0 183 50.5t138.5 159.5t82.5 286q27 180 2.5 292.5t-91 165t-167.5 52.5
q-151 0 -260 -120t-149 -390q-26 -176 -0.5 -285.5t93 -160t168.5 -50.5zM554 1567l266 259h200l243 -259h-226l-122 140l-147 -140h-214zM626 1921l-24 141q42 39 89 65.5t114 26.5q54 0 101 -15t90.5 -30.5t87.5 -15.5q50 0 94 22.5t78 47.5l12 -163q-34 -25 -88.5 -48
t-120.5 -23q-54 0 -96 14t-83.5 28.5t-90.5 14.5t-84.5 -16t-78.5 -49z" />
    <glyph glyph-name="uni1ED7" unicode="&#x1ed7;" horiz-adv-x="1127" 
d="M485 -20q-148 0 -248 65t-142.5 184t-19.5 282q24 163 101.5 285t197.5 190t268 68q150 0 249.5 -66.5t141 -188.5t17.5 -288q-23 -156 -98.5 -275.5t-194 -187.5t-272.5 -68zM520 197q73 0 124.5 45t82.5 118.5t43 160.5q11 82 2.5 155t-46.5 118t-116 45
q-75 0 -127 -42.5t-82 -115t-42 -160.5q-12 -81 -3.5 -155.5t47 -121.5t117.5 -47zM312 1155l266 259h200l243 -259h-226l-122 140l-147 -140h-214zM384 1509l-24 141q42 39 89 65.5t114 26.5q54 0 101 -15t90.5 -30.5t87.5 -15.5q50 0 94 22.5t78 47.5l12 -163
q-34 -25 -88.5 -48t-120.5 -23q-54 0 -96 14t-83.5 28.5t-90.5 14.5t-84.5 -16t-78.5 -49z" />
    <glyph glyph-name="uni1ED8" unicode="&#x1ed8;" horiz-adv-x="1491" 
d="M666 -20q-200 0 -332.5 89t-187 254.5t-20.5 395.5q35 231 140 398.5t264.5 258t355.5 90.5t327.5 -90t186.5 -257.5t21 -398.5q-34 -229 -137.5 -395t-261.5 -255.5t-356 -89.5zM702 220q101 0 183 50.5t138.5 159.5t82.5 286q27 180 2.5 292.5t-91 165t-167.5 52.5
q-151 0 -260 -120t-149 -390q-26 -176 -0.5 -285.5t93 -160t168.5 -50.5zM476 -398l36 238h273l-35 -238h-274zM532 1567l267 259h199l244 -259h-226l-122 140l-148 -140h-214z" />
    <glyph glyph-name="uni1ED9" unicode="&#x1ed9;" horiz-adv-x="1127" 
d="M485 -20q-148 0 -248 65t-142.5 184t-19.5 282q24 163 101.5 285t197.5 190t268 68q150 0 249.5 -66.5t141 -188.5t17.5 -288q-23 -156 -98.5 -275.5t-194 -187.5t-272.5 -68zM520 197q73 0 124.5 45t82.5 118.5t43 160.5q11 82 2.5 155t-46.5 118t-116 45
q-75 0 -127 -42.5t-82 -115t-42 -160.5q-12 -81 -3.5 -155.5t47 -121.5t117.5 -47zM281 -398l36 238h273l-35 -238h-274zM290 1155l267 259h199l244 -259h-226l-122 140l-148 -140h-214z" />
    <glyph glyph-name="uni1EDA" unicode="&#x1eda;" horiz-adv-x="1634" 
d="M666 -20q-200 0 -332.5 89t-187 254.5t-20.5 395.5q35 231 140 398.5t264.5 258t355.5 90.5q144 0 254 -49t180 -142q55 0 91.5 11.5t62 56.5t46.5 142h188q-18 -119 -54 -197t-97 -117.5t-159 -45.5q28 -82 34.5 -184t-11.5 -221q-34 -229 -137.5 -395t-261.5 -255.5
t-356 -89.5zM702 220q101 0 183 50.5t138.5 159.5t82.5 286q27 180 2.5 292.5t-91 165t-167.5 52.5q-151 0 -260 -120t-149 -390q-26 -176 -0.5 -285.5t93 -160t168.5 -50.5zM773 1567l241 291h303l-331 -291h-213z" />
    <glyph glyph-name="uni1EDB" unicode="&#x1edb;" horiz-adv-x="1267" 
d="M537 1155l241 291h303l-331 -291h-213zM485 -20q-148 0 -248 65t-142.5 184t-19.5 282q24 163 101.5 285t197.5 190t268 68q113 0 197.5 -38.5t136.5 -109.5q53 7 85 50t57 157h188q-26 -164 -85 -251t-179 -104q14 -52 16 -113.5t-8 -133.5q-23 -156 -98.5 -275.5
t-194 -187.5t-272.5 -68zM520 197q73 0 124.5 45t82.5 118.5t43 160.5q11 82 2.5 155t-46.5 118t-116 45q-75 0 -127 -42.5t-82 -115t-42 -160.5q-12 -81 -3.5 -155.5t47 -121.5t117.5 -47z" />
    <glyph glyph-name="uni1EDC" unicode="&#x1edc;" horiz-adv-x="1634" 
d="M666 -20q-200 0 -332.5 89t-187 254.5t-20.5 395.5q35 231 140 398.5t264.5 258t355.5 90.5q144 0 254 -49t180 -142q55 0 91.5 11.5t62 56.5t46.5 142h188q-18 -119 -54 -197t-97 -117.5t-159 -45.5q28 -82 34.5 -184t-11.5 -221q-34 -229 -137.5 -395t-261.5 -255.5
t-356 -89.5zM702 220q101 0 183 50.5t138.5 159.5t82.5 286q27 180 2.5 292.5t-91 165t-167.5 52.5q-151 0 -260 -120t-149 -390q-26 -176 -0.5 -285.5t93 -160t168.5 -50.5zM774 1567l-308 291h299l220 -291h-211z" />
    <glyph glyph-name="uni1EDD" unicode="&#x1edd;" horiz-adv-x="1298" 
d="M559 1155l-308 291h299l220 -291h-211zM516 -20q-148 0 -248 65t-142.5 184t-19.5 282q24 163 101.5 285t197.5 190t268 68q113 0 197.5 -38.5t136.5 -109.5q53 7 85 50t57 157h188q-26 -164 -85 -251t-179 -104q14 -52 16 -113.5t-8 -133.5q-23 -156 -98.5 -275.5
t-194 -187.5t-272.5 -68zM551 197q73 0 124.5 45t82.5 118.5t43 160.5q11 82 2.5 155t-46.5 118t-116 45q-75 0 -127 -42.5t-82 -115t-42 -160.5q-12 -81 -3.5 -155.5t47 -121.5t117.5 -47z" />
    <glyph glyph-name="uni1EDE" unicode="&#x1ede;" horiz-adv-x="1634" 
d="M666 -20q-200 0 -332.5 89t-187 254.5t-20.5 395.5q35 231 140 398.5t264.5 258t355.5 90.5q144 0 254 -49t180 -142q55 0 91.5 11.5t62 56.5t46.5 142h188q-18 -119 -54 -197t-97 -117.5t-159 -45.5q28 -82 34.5 -184t-11.5 -221q-34 -229 -137.5 -395t-261.5 -255.5
t-356 -89.5zM702 220q101 0 183 50.5t138.5 159.5t82.5 286q27 180 2.5 292.5t-91 165t-167.5 52.5q-151 0 -260 -120t-149 -390q-26 -176 -0.5 -285.5t93 -160t168.5 -50.5zM956 1545l-51 108q41 25 59 58.5t3 67.5q-13 29 -50.5 31t-75.5 -22l-52 106q99 59 184 45
t118 -85q41 -85 7 -167t-142 -142z" />
    <glyph glyph-name="uni1EDF" unicode="&#x1edf;" horiz-adv-x="1267" 
d="M713 1133l-51 108q41 25 59 58.5t3 67.5q-13 29 -50.5 31t-75.5 -22l-52 106q99 59 184 45t118 -85q41 -85 7 -167t-142 -142zM485 -20q-148 0 -248 65t-142.5 184t-19.5 282q24 163 101.5 285t197.5 190t268 68q113 0 197.5 -38.5t136.5 -109.5q53 7 85 50t57 157h188
q-26 -164 -85 -251t-179 -104q14 -52 16 -113.5t-8 -133.5q-23 -156 -98.5 -275.5t-194 -187.5t-272.5 -68zM520 197q73 0 124.5 45t82.5 118.5t43 160.5q11 82 2.5 155t-46.5 118t-116 45q-75 0 -127 -42.5t-82 -115t-42 -160.5q-12 -81 -3.5 -155.5t47 -121.5t117.5 -47z
" />
    <glyph glyph-name="uni1EE0" unicode="&#x1ee0;" horiz-adv-x="1634" 
d="M666 -20q-200 0 -332.5 89t-187 254.5t-20.5 395.5q35 231 140 398.5t264.5 258t355.5 90.5q144 0 254 -49t180 -142q55 0 91.5 11.5t62 56.5t46.5 142h188q-18 -119 -54 -197t-97 -117.5t-159 -45.5q28 -82 34.5 -184t-11.5 -221q-34 -229 -137.5 -395t-261.5 -255.5
t-356 -89.5zM702 220q101 0 183 50.5t138.5 159.5t82.5 286q27 180 2.5 292.5t-91 165t-167.5 52.5q-151 0 -260 -120t-149 -390q-26 -176 -0.5 -285.5t93 -160t168.5 -50.5zM607 1608l-24 141q42 39 89 65.5t114 26.5q54 0 101 -15t90 -30.5t88 -15.5q50 0 94 22.5t77 47.5
l13 -163q-34 -25 -88.5 -48t-120.5 -23q-54 0 -96.5 14t-83.5 28.5t-90 14.5t-84.5 -16t-78.5 -49z" />
    <glyph glyph-name="uni1EE1" unicode="&#x1ee1;" horiz-adv-x="1267" 
d="M365 1196l-24 141q42 39 89 65.5t114 26.5q54 0 101 -15t90 -30.5t88 -15.5q50 0 94 22.5t77 47.5l13 -163q-34 -25 -88.5 -48t-120.5 -23q-54 0 -96.5 14t-83.5 28.5t-90 14.5t-84.5 -16t-78.5 -49zM485 -20q-148 0 -248 65t-142.5 184t-19.5 282q24 163 101.5 285
t197.5 190t268 68q113 0 197.5 -38.5t136.5 -109.5q53 7 85 50t57 157h188q-26 -164 -85 -251t-179 -104q14 -52 16 -113.5t-8 -133.5q-23 -156 -98.5 -275.5t-194 -187.5t-272.5 -68zM520 197q73 0 124.5 45t82.5 118.5t43 160.5q11 82 2.5 155t-46.5 118t-116 45
q-75 0 -127 -42.5t-82 -115t-42 -160.5q-12 -81 -3.5 -155.5t47 -121.5t117.5 -47z" />
    <glyph glyph-name="uni1EE2" unicode="&#x1ee2;" horiz-adv-x="1634" 
d="M666 -20q-200 0 -332.5 89t-187 254.5t-20.5 395.5q35 231 140 398.5t264.5 258t355.5 90.5q144 0 254 -49t180 -142q55 0 91.5 11.5t62 56.5t46.5 142h188q-18 -119 -54 -197t-97 -117.5t-159 -45.5q28 -82 34.5 -184t-11.5 -221q-34 -229 -137.5 -395t-261.5 -255.5
t-356 -89.5zM702 220q101 0 183 50.5t138.5 159.5t82.5 286q27 180 2.5 292.5t-91 165t-167.5 52.5q-151 0 -260 -120t-149 -390q-26 -176 -0.5 -285.5t93 -160t168.5 -50.5zM476 -398l36 238h273l-35 -238h-274z" />
    <glyph glyph-name="uni1EE3" unicode="&#x1ee3;" horiz-adv-x="1267" 
d="M265 -398l36 238h273l-35 -238h-274zM485 -20q-148 0 -248 65t-142.5 184t-19.5 282q24 163 101.5 285t197.5 190t268 68q113 0 197.5 -38.5t136.5 -109.5q53 7 85 50t57 157h188q-26 -164 -85 -251t-179 -104q14 -52 16 -113.5t-8 -133.5q-23 -156 -98.5 -275.5
t-194 -187.5t-272.5 -68zM520 197q73 0 124.5 45t82.5 118.5t43 160.5q11 82 2.5 155t-46.5 118t-116 45q-75 0 -127 -42.5t-82 -115t-42 -160.5q-12 -81 -3.5 -155.5t47 -121.5t117.5 -47z" />
    <glyph glyph-name="uni1EE4" unicode="&#x1ee4;" horiz-adv-x="1425" 
d="M646 -20q-207 0 -320.5 70.5t-149 200.5t-8.5 310l130 885h295l-135 -907q-16 -108 8 -176.5t80.5 -101.5t136.5 -33q119 0 207 74t111 237l133 907h292l-131 -895q-27 -175 -101.5 -303.5t-208.5 -198t-339 -69.5zM453 -397l36 238h273l-35 -238h-274z" />
    <glyph glyph-name="uni1EE5" unicode="&#x1ee5;" horiz-adv-x="1173" 
d="M422 -20q-70 0 -135 22t-114.5 65t-74.5 106t-13 146l100 715h291l-96 -678q-10 -72 28.5 -118t126.5 -46q82 0 136.5 44.5t65.5 124.5l95 673h288l-145 -1034h-219l-4 205q-31 -91 -86.5 -139.5t-120 -67t-123.5 -18.5zM307 -398l36 238h273l-35 -238h-274z" />
    <glyph glyph-name="uni1EE6" unicode="&#x1ee6;" horiz-adv-x="1425" 
d="M646 -20q-207 0 -320.5 70.5t-149 200.5t-8.5 310l130 885h295l-135 -907q-16 -108 8 -176.5t80.5 -101.5t136.5 -33q119 0 207 74t111 237l133 907h292l-131 -895q-27 -175 -101.5 -303.5t-208.5 -198t-339 -69.5zM948 1545l-51 108q41 25 59 58.5t3 67.5
q-13 29 -50.5 31t-75.5 -22l-52 106q99 59 184 45t118 -85q41 -85 7 -167t-142 -142z" />
    <glyph glyph-name="uni1EE7" unicode="&#x1ee7;" horiz-adv-x="1173" 
d="M422 -20q-70 0 -135 22t-114.5 65t-74.5 106t-13 146l100 715h291l-96 -678q-10 -72 28.5 -118t126.5 -46q82 0 136.5 44.5t65.5 124.5l95 673h288l-145 -1034h-219l-4 205q-31 -91 -86.5 -139.5t-120 -67t-123.5 -18.5zM739 1133l-51 108q41 25 59 58.5t3 67.5
q-13 29 -50.5 31t-75.5 -22l-52 106q99 59 184 45t118 -85q41 -85 7 -167t-142 -142z" />
    <glyph glyph-name="uni1EE8" unicode="&#x1ee8;" horiz-adv-x="1687" 
d="M1319 1131l22 145q48 -1 83 2.5t60.5 22.5t44.5 62t36 122h188q-22 -142 -68.5 -225.5t-133.5 -114.5t-232 -14zM646 -20q-207 0 -320.5 70.5t-149 200.5t-8.5 310l130 885h295l-135 -907q-16 -108 8 -176.5t80.5 -101.5t136.5 -33q119 0 207 74t111 237l133 907h292
l-131 -895q-27 -175 -101.5 -303.5t-208.5 -198t-339 -69.5zM767 1567l241 291h303l-331 -291h-213z" />
    <glyph glyph-name="uni1EE9" unicode="&#x1ee9;" horiz-adv-x="1387" 
d="M1022 758l21 146q48 -1 83.5 2.5t60.5 22.5t44.5 62t36.5 122h188q-23 -142 -69.5 -225.5t-133 -114.5t-231.5 -15zM422 -20q-69 0 -134 22t-115 65t-75 106t-13 146l100 715h291l-95 -678q-11 -72 28 -118t126 -46q82 0 137 44.5t66 124.5l95 673h288l-146 -1034h-218
l-5 205q-31 -91 -86.5 -139.5t-120 -67t-123.5 -18.5zM561 1155l241 291h303l-330 -291h-214z" />
    <glyph glyph-name="uni1EEA" unicode="&#x1eea;" horiz-adv-x="1687" 
d="M1319 1131l22 145q48 -1 83 2.5t60.5 22.5t44.5 62t36 122h188q-22 -142 -68.5 -225.5t-133.5 -114.5t-232 -14zM646 -20q-207 0 -320.5 70.5t-149 200.5t-8.5 310l130 885h295l-135 -907q-16 -108 8 -176.5t80.5 -101.5t136.5 -33q119 0 207 74t111 237l133 907h292
l-131 -895q-27 -175 -101.5 -303.5t-208.5 -198t-339 -69.5zM762 1567l-309 291h300l219 -291h-210z" />
    <glyph glyph-name="uni1EEB" unicode="&#x1eeb;" horiz-adv-x="1412" 
d="M584 1155l-308 291h299l220 -291h-211zM442 -20q-69 0 -134 22t-115 65t-75 106t-13 146l100 715h291l-95 -678q-11 -72 28 -118t126 -46q82 0 137 44.5t66 124.5l95 673h288l-19 -131q46 1 76.5 17t52.5 60.5t42 132.5h188q-21 -132 -62.5 -214t-117.5 -117t-200 -28
l-106 -754h-218l-5 205q-31 -91 -86.5 -139.5t-120 -67t-123.5 -18.5z" />
    <glyph glyph-name="uni1EEC" unicode="&#x1eec;" horiz-adv-x="1687" 
d="M1319 1131l22 145q48 -1 83 2.5t60.5 22.5t44.5 62t36 122h188q-22 -142 -68.5 -225.5t-133.5 -114.5t-232 -14zM646 -20q-207 0 -320.5 70.5t-149 200.5t-8.5 310l130 885h295l-135 -907q-16 -108 8 -176.5t80.5 -101.5t136.5 -33q119 0 207 74t111 237l133 907h292
l-131 -895q-27 -175 -101.5 -303.5t-208.5 -198t-339 -69.5zM942 1545l-52 108q42 25 60 58.5t3 67.5q-13 30 -50.5 31.5t-76.5 -22.5l-51 106q98 59 183 45t119 -85q41 -85 7 -167t-142 -142z" />
    <glyph glyph-name="uni1EED" unicode="&#x1eed;" horiz-adv-x="1392" 
d="M750 1133l-51 108q41 25 59 58.5t3 67.5q-13 29 -50.5 31t-75.5 -22l-52 106q99 59 184 45t118 -85q41 -85 7 -167t-142 -142zM422 -20q-69 0 -134 22t-115 65t-75 106t-13 146l100 715h291l-95 -678q-11 -72 28 -118t126 -46q82 0 137 44.5t66 124.5l95 673h288
l-19 -131q46 1 76.5 17t52.5 60.5t42 132.5h188q-21 -132 -62.5 -214t-117.5 -117t-200 -28l-106 -754h-218l-5 205q-31 -91 -86.5 -139.5t-120 -67t-123.5 -18.5z" />
    <glyph glyph-name="uni1EEE" unicode="&#x1eee;" horiz-adv-x="1678" 
d="M1319 1131l22 145q48 -1 83 2.5t60.5 22.5t44.5 62t36 122h188q-22 -142 -68.5 -225.5t-133.5 -114.5t-232 -14zM646 -20q-207 0 -320.5 70.5t-149 200.5t-8.5 310l130 885h295l-135 -907q-16 -108 8 -176.5t80.5 -101.5t136.5 -33q119 0 207 74t111 237l133 907h292
l-131 -895q-27 -175 -101.5 -303.5t-208.5 -198t-339 -69.5zM595 1608l-24 141q42 39 88.5 65.5t114.5 26.5q54 0 101 -15t90 -30.5t87 -15.5q51 0 95 22.5t77 47.5l13 -163q-34 -25 -88.5 -48t-120.5 -23q-54 0 -96.5 14t-83.5 28.5t-90 14.5t-84.5 -16t-78.5 -49z" />
    <glyph glyph-name="uni1EEF" unicode="&#x1eef;" horiz-adv-x="1392" 
d="M400 1196l-24 141q42 39 89 65.5t114 26.5q54 0 101 -15t90 -30.5t88 -15.5q50 0 94 22.5t77 47.5l13 -163q-34 -25 -88.5 -48t-120.5 -23q-54 0 -96.5 14t-83.5 28.5t-90 14.5t-84.5 -16t-78.5 -49zM422 -20q-69 0 -134 22t-115 65t-75 106t-13 146l100 715h291
l-95 -678q-11 -72 28 -118t126 -46q82 0 137 44.5t66 124.5l95 673h288l-19 -131q46 1 76.5 17t52.5 60.5t42 132.5h188q-21 -132 -62.5 -214t-117.5 -117t-200 -28l-106 -754h-218l-5 205q-31 -91 -86.5 -139.5t-120 -67t-123.5 -18.5z" />
    <glyph glyph-name="uni1EF0" unicode="&#x1ef0;" horiz-adv-x="1687" 
d="M1319 1131l22 145q48 -1 83 2.5t60.5 22.5t44.5 62t36 122h188q-22 -142 -68.5 -225.5t-133.5 -114.5t-232 -14zM646 -20q-207 0 -320.5 70.5t-149 200.5t-8.5 310l130 885h295l-135 -907q-16 -108 8 -176.5t80.5 -101.5t136.5 -33q119 0 207 74t111 237l133 907h292
l-131 -895q-27 -175 -101.5 -303.5t-208.5 -198t-339 -69.5zM436 -396l35 237h274l-36 -237h-273z" />
    <glyph glyph-name="uni1EF1" unicode="&#x1ef1;" horiz-adv-x="1392" 
d="M307 -398l36 238h273l-35 -238h-274zM422 -20q-69 0 -134 22t-115 65t-75 106t-13 146l100 715h291l-95 -678q-11 -72 28 -118t126 -46q82 0 137 44.5t66 124.5l95 673h288l-19 -131q46 1 76.5 17t52.5 60.5t42 132.5h188q-21 -132 -62.5 -214t-117.5 -117t-200 -28
l-106 -754h-218l-5 205q-31 -91 -86.5 -139.5t-120 -67t-123.5 -18.5z" />
    <glyph glyph-name="Ygrave" unicode="&#x1ef2;" horiz-adv-x="1304" 
d="M424 0l88 609l-362 837h312l235 -586l402 586h316l-613 -838l-91 -608h-287zM673 1568l-308 291h299l220 -291h-211z" />
    <glyph glyph-name="ygrave" unicode="&#x1ef3;" horiz-adv-x="1099" 
d="M152 -330q-103 0 -143 17.5l-40 17.5l27 186l99 -4q87 -5 132.5 13.5t64 44.5t26.5 41l26 57l-244 991h285l138 -674l341 674h282l-558 -1040q-74 -132 -144 -202t-141.5 -96t-150.5 -26zM520 1155l-308 291h299l220 -291h-211z" />
    <glyph glyph-name="uni1EF4" unicode="&#x1ef4;" horiz-adv-x="1304" 
d="M424 0l88 609l-362 837h312l235 -586l402 586h316l-613 -838l-91 -608h-287zM374 -398l36 238h273l-35 -238h-274z" />
    <glyph glyph-name="uni1EF5" unicode="&#x1ef5;" horiz-adv-x="1099" 
d="M152 -330q-103 0 -143 17.5l-40 17.5l27 186l99 -4q87 -5 132.5 13.5t64 44.5t26.5 41l26 57l-244 991h285l138 -674l341 674h282l-558 -1040q-74 -132 -144 -202t-141.5 -96t-150.5 -26zM597 -358l36 238h273l-35 -238h-274z" />
    <glyph glyph-name="uni1EF6" unicode="&#x1ef6;" horiz-adv-x="1304" 
d="M424 0l88 609l-362 837h312l235 -586l402 586h316l-613 -838l-91 -608h-287zM855 1546l-51 108q41 25 59 58.5t3 67.5q-13 29 -50.5 31t-75.5 -22l-52 106q99 59 184 45t118 -85q41 -85 7 -167t-142 -142z" />
    <glyph glyph-name="uni1EF7" unicode="&#x1ef7;" horiz-adv-x="1099" 
d="M152 -330q-103 0 -143 17.5l-40 17.5l27 186l99 -4q87 -5 132.5 13.5t64 44.5t26.5 41l26 57l-244 991h285l138 -674l341 674h282l-558 -1040q-74 -132 -144 -202t-141.5 -96t-150.5 -26zM701 1133l-51 108q41 25 59 58.5t3 67.5q-13 29 -50.5 31t-75.5 -22l-52 106
q99 59 184 45t118 -85q41 -85 7 -167t-142 -142z" />
    <glyph glyph-name="uni1EF8" unicode="&#x1ef8;" horiz-adv-x="1304" 
d="M424 0l88 609l-362 837h312l235 -586l402 586h316l-613 -838l-91 -608h-287zM506 1609l-24 141q42 39 89 65.5t114 26.5q54 0 101 -15t90 -30.5t88 -15.5q50 0 94 22.5t77 47.5l13 -163q-34 -25 -88.5 -48t-120.5 -23q-54 0 -96.5 14t-83.5 28.5t-90 14.5t-84.5 -16
t-78.5 -49z" />
    <glyph glyph-name="uni1EF9" unicode="&#x1ef9;" horiz-adv-x="1099" 
d="M152 -330q-103 0 -143 17.5l-40 17.5l27 186l99 -4q87 -5 132.5 13.5t64 44.5t26.5 41l26 57l-244 991h285l138 -674l341 674h282l-558 -1040q-74 -132 -144 -202t-141.5 -96t-150.5 -26zM352 1196l-24 141q42 39 89 65.5t114 26.5q54 0 101 -15t90 -30.5t88 -15.5
q50 0 94 22.5t77 47.5l13 -163q-34 -25 -88.5 -48t-120.5 -23q-54 0 -96.5 14t-83.5 28.5t-90 14.5t-84.5 -16t-78.5 -49z" />
    <glyph glyph-name="endash" unicode="&#x2013;" horiz-adv-x="1163" 
d="M102 390l32 213l921 1l-32 -213z" />
    <glyph glyph-name="emdash" unicode="&#x2014;" horiz-adv-x="2298" 
d="M342 390l31 213l1576 1l-30 -213z" />
    <glyph glyph-name="quoteleft" unicode="&#x2018;" horiz-adv-x="528" 
d="M130 896l37 250l247 317h107l-155 -275l100 -9l-43 -283h-293z" />
    <glyph glyph-name="quoteright" unicode="&#x2019;" horiz-adv-x="526" 
d="M152 884l155 272l-100 10l43 280h293l-37 -247l-247 -315h-107z" />
    <glyph glyph-name="quotesinglbase" unicode="&#x201a;" horiz-adv-x="574" 
d="M-18 -277l160 272l-105 9l43 283h311l-38 -249l-257 -315h-114z" />
    <glyph glyph-name="quotedblleft" unicode="&#x201c;" horiz-adv-x="961" 
d="M565 910l38 250l246 318h108l-155 -275l100 -10l-43 -283h-294zM132 910l37 250l247 318h108l-156 -275l100 -10l-42 -283h-294z" />
    <glyph glyph-name="quotedblright" unicode="&#x201d;" horiz-adv-x="956" 
d="M581 884l155 272l-100 10l43 280h293l-37 -247l-247 -315h-107zM152 884l155 272l-100 10l43 280h293l-37 -247l-247 -315h-107z" />
    <glyph glyph-name="quotedblbase" unicode="&#x201e;" horiz-adv-x="1017" 
d="M425 -277l160 272l-105 9l43 283h311l-38 -249l-257 -315h-114zM-18 -277l160 272l-105 9l43 283h311l-38 -249l-257 -315h-114z" />
    <glyph glyph-name="dagger" unicode="&#x2020;" horiz-adv-x="1020" 
d="M239 -322l215 1096l-361 -42l38 254l339 -37l28 497h280l-120 -497l353 37l-39 -254l-351 42l-106 -1096h-276z" />
    <glyph glyph-name="daggerdbl" unicode="&#x2021;" horiz-adv-x="1024" 
d="M241 -322l117 471l-353 -39l39 255l345 -41l63 422l-358 -41l36 253l341 -38l32 526h279l-123 -526l351 38l-37 -253l-348 41l-62 -422l361 41l-39 -255l-342 39l-21 -471h-281z" />
    <glyph glyph-name="bullet" unicode="&#x2022;" horiz-adv-x="712" 
d="M376 484q-69 0 -126 34t-91 91.5t-34 126.5t34 125.5t91 90.5t126 34t126 -34t91 -90.5t34 -125.5t-34 -126.5t-91 -91.5t-126 -34z" />
    <glyph glyph-name="ellipsis" unicode="&#x2026;" horiz-adv-x="1787" 
d="M1276 0l49 318h314l-48 -318h-315zM26 0l49 318h314l-48 -318h-315zM651 0l49 318h314l-48 -318h-315z" />
    <glyph glyph-name="perthousand" unicode="&#x2030;" horiz-adv-x="2505" 
d="M385 -8l-167 3l1166 1467h164zM449 648q-86 0 -150.5 43.5t-100.5 119t-36 170.5q0 64 24 147t73.5 160.5t125.5 128.5t179 51q84 0 147 -44.5t98.5 -121t35.5 -172.5q0 -78 -26.5 -162.5t-78 -157t-124.5 -117.5t-167 -45zM467 796q55 0 90 39.5t55.5 98.5t29 119.5
t8.5 102.5q0 78 -25.5 121.5t-83.5 43.5q-52 0 -87.5 -40t-56.5 -100t-30 -121t-9 -102q0 -76 25.5 -119t83.5 -43zM1227 -20q-85 0 -149.5 43.5t-100 119t-35.5 169.5q0 80 27.5 165.5t80 159t126.5 119.5t166 46q85 0 148.5 -45t99 -121t35.5 -172q0 -78 -27 -162.5
t-78 -157.5t-125 -118.5t-168 -45.5zM1245 130q55 0 90 39t55.5 98t29 119.5t8.5 101.5q0 78 -25.5 121.5t-83.5 43.5q-51 0 -86.5 -40.5t-56.5 -100t-29.5 -120.5t-8.5 -101q0 -75 24.5 -118t82.5 -43zM1989 -20q-86 0 -150.5 43.5t-99.5 119t-35 169.5q0 79 27.5 164.5
t79.5 159.5t126 120t167 46q85 0 148 -45t98.5 -121t35.5 -172q0 -78 -27 -162.5t-78.5 -157.5t-124.5 -118.5t-167 -45.5zM2007 130q55 0 90 40t55 99t28.5 120t8.5 102q0 77 -25 119.5t-83 42.5q-52 0 -87 -39.5t-56 -99t-30 -120t-9 -101.5q0 -76 25 -119.5t83 -43.5z
" />
    <glyph glyph-name="guilsinglleft" unicode="&#x2039;" horiz-adv-x="611" 
d="M272 129l-173 373l287 389h153l-214 -389l100 -373h-153z" />
    <glyph glyph-name="guilsinglright" unicode="&#x203a;" horiz-adv-x="610" 
d="M71 129l211 373l-98 389h153l170 -389l-285 -373h-151z" />
    <glyph glyph-name="fraction" unicode="&#x2044;" horiz-adv-x="454" 
d="M-240 -8l-167 3l1166 1467h164z" />
    <glyph glyph-name="uni2070" unicode="&#x2070;" horiz-adv-x="787" 
d="M400 752q-162 0 -236.5 120.5t-41.5 345.5q31 227 140.5 348.5t269.5 121.5q159 0 233.5 -121t42.5 -348q-32 -226 -139.5 -346.5t-268.5 -120.5zM420 902q80 0 126.5 73t69.5 243q25 174 -1.5 250t-104.5 76q-77 0 -126 -76.5t-73 -249.5q-24 -170 3.5 -243t105.5 -73z
" />
    <glyph glyph-name="uni2074" unicode="&#x2074;" horiz-adv-x="801" 
d="M451 760l31 202h-407l23 151l483 557h179l-81 -554h135l-23 -154h-137l-29 -202h-174zM266 1116h239l48 332z" />
    <glyph glyph-name="uni2075" unicode="&#x2075;" horiz-adv-x="824" 
d="M432 746q-132 0 -224.5 60.5t-122.5 153.5l155 85q27 -64 71 -107.5t123 -43.5q80 0 133.5 43.5t62.5 113.5q10 66 -30.5 110t-116.5 44q-40 0 -76 -11.5t-86 -48.5q-9 -3 -12.5 -3t-12.5 5l-123 61l105 462h573l-28 -151h-421l-48 -219q53 28 99 41t99 13q89 0 155 -35
t97.5 -100.5t17.5 -161.5q-19 -143 -125 -227t-265 -84z" />
    <glyph glyph-name="uni2076" unicode="&#x2076;" horiz-adv-x="805" 
d="M424 756q-172 0 -252.5 123t-51.5 328q31 225 149 355t294 130q83 0 149.5 -31t103.5 -89.5t29 -141.5h-166q-8 57 -42 87t-92 30q-94 0 -152 -81.5t-64 -214.5q38 45 95.5 69.5t119.5 24.5q135 0 207.5 -75.5t54.5 -202.5q-12 -89 -65 -159.5t-134.5 -111t-182.5 -40.5z
M438 897q62 0 113 45.5t61 116.5q11 75 -27.5 112t-103.5 37q-37 0 -74.5 -17t-63 -43.5t-30.5 -54.5q-13 -91 22 -143.5t103 -52.5z" />
    <glyph glyph-name="uni2077" unicode="&#x2077;" horiz-adv-x="727" 
d="M202 760q17 74 68.5 197.5t139.5 271t215 290.5h-471l22 151h662l-24 -151q-61 -68 -128 -164.5t-127.5 -204t-104 -210t-57.5 -180.5h-195z" />
    <glyph glyph-name="uni2078" unicode="&#x2078;" horiz-adv-x="837" 
d="M425 755q-161 0 -249.5 72t-71.5 193q7 53 39 99.5t75 79t85 40.5q-51 27 -82 75.5t-21 119.5q18 124 119 190t238 66t219 -66t65 -190q-10 -71 -54.5 -119.5t-102.5 -75.5q40 -8 74 -40.5t52.5 -79t11.5 -99.5q-17 -121 -125.5 -193t-271.5 -72zM445 893q77 0 126 36
t57 97q9 59 -29.5 97t-116.5 38q-76 0 -125.5 -38t-58.5 -97q-8 -61 31 -97t116 -36zM503 1311q60 0 104 33.5t52 93.5q9 59 -25.5 93.5t-94.5 34.5q-59 0 -103.5 -34.5t-52.5 -93.5q-8 -60 26.5 -93.5t93.5 -33.5z" />
    <glyph glyph-name="uni2079" unicode="&#x2079;" horiz-adv-x="764" 
d="M384 756q-84 0 -151.5 33t-104.5 92.5t-31 139.5h173q4 -54 37 -87t90 -33q94 0 162.5 71t80.5 235q-34 -51 -91.5 -81t-131.5 -30q-136 0 -212.5 77.5t-57.5 209.5q13 90 64.5 159.5t132.5 109.5t182 40q171 0 251.5 -121.5t50.5 -327.5q-34 -243 -151.5 -365
t-292.5 -122zM468 1242q38 0 75.5 17.5t63.5 44t29 54.5q13 92 -21.5 143.5t-102.5 51.5q-62 0 -110 -44.5t-58 -116.5q-9 -71 25.5 -110.5t98.5 -39.5z" />
    <glyph glyph-name="colonmonetary" unicode="&#x20a1;" horiz-adv-x="1412" 
d="M658 -20q-181 0 -304 79.5t-183 226t-50 347.5q8 168 59 318.5t145.5 266.5t232 182t315.5 66q157 0 270 -62t173.5 -174.5t59.5 -262.5h-303q-2 75 -30 133.5t-81.5 92t-134.5 33.5q-99 0 -170.5 -51t-118.5 -137.5t-71.5 -194.5t-31.5 -223q-13 -208 52.5 -304
t197.5 -96q80 0 143.5 38.5t108.5 102t69 139.5h303q-28 -103 -77.5 -196.5t-127 -166.5t-187 -115t-259.5 -42zM418 -122l320 1682h129l-320 -1682h-129zM649 -122l320 1682h129l-320 -1682h-129z" />
    <glyph glyph-name="franc" unicode="&#x20a3;" horiz-adv-x="1225" 
d="M58 0l214 1446h1005l-38 -243h-676l-55 -374h499l-35 -237h-499l-87 -592h-328zM-77 238l23 159l786 1l-23 -160h-786z" />
    <glyph glyph-name="lira" unicode="&#x20a4;" horiz-adv-x="1268" 
d="M-32 0l36 242h66q62 0 112 40.5t73 127.5q4 13 7 29t6 36q2 14 -15 14h-202l24 158h197l2 134h-180l24 160h156l5 79q6 156 79.5 254.5t186.5 145t239 46.5q90 0 175.5 -32t150 -95.5t88.5 -159.5l-263 -78q-14 56 -45 94.5t-97 38.5q-68 0 -118 -44.5t-62 -124.5
q-2 -18 -2 -44.5t-1 -58.5q0 -21 18 -21h258l-23 -159l-253 -1l-3 -134h237l-24 -158h-242q-13 -44 -34.5 -88.5t-52 -85t-70.5 -71.5h264q87 0 144.5 36.5t97.5 123.5l235 -54q-69 -170 -198 -260t-295 -90h-701z" />
    <glyph glyph-name="uni20A6" unicode="&#x20a6;" horiz-adv-x="1740" 
d="M72 0l424 1446h283l337 -957l275 957h287l-424 -1446h-257l-351 995l-288 -995h-286zM9 462l21 144l1701 1l-21 -144zM71 881l22 144l1701 1l-22 -144z" />
    <glyph glyph-name="uni20A9" unicode="&#x20a9;" horiz-adv-x="2205" 
d="M411 0l19 1446h280l-26 -955l522 955h206l-22 -955l523 955h277l-826 -1446h-226l22 945l-527 -945h-222zM55 743l24 158l2138 1l-23 -158zM103 1042l25 158l2139 1l-24 -158z" />
    <glyph glyph-name="dong" unicode="&#x20ab;" horiz-adv-x="1051" 
d="M363 249q-95 0 -162 48.5t-95 144.5t-7 240q21 136 82.5 236.5t147.5 156.5t181 56q64 0 108.5 -21.5t81.5 -64.5q12 -10 19.5 -8t10.5 20l58 388h241l-176 -1180h-237l17 106q-34 -31 -72 -59t-86.5 -45.5t-111.5 -17.5zM52 0l21 141h765l-21 -141h-765zM480 405
q44 0 81 19.5t61 51.5t29 68l50 348q-26 38 -57.5 58t-77.5 20q-76 0 -136 -66.5t-82 -218.5q-15 -101 -2 -163t48 -89.5t86 -27.5zM534 1206l20 129h576l-20 -129h-576z" />
    <glyph glyph-name="Euro" unicode="&#x20ac;" horiz-adv-x="1277" 
d="M678 -20q-179 0 -301 95t-173 265t-18 395t133.5 389t249 253t327.5 89q136 0 241 -53.5t166 -146.5l-220 -153q-36 47 -80 84t-115 37q-136 0 -232.5 -118.5t-135.5 -385.5q-27 -176 -4 -287t84.5 -164t152.5 -53q47 0 95.5 19t91.5 48t73 61l129 -168
q-87 -88 -208.5 -147t-255.5 -59zM-3 482l23 159l827 1l-24 -160h-826zM46 808l23 157l827 1l-23 -158h-827z" />
    <glyph glyph-name="uni20B9" unicode="&#x20b9;" horiz-adv-x="1261" 
d="M607 0l-124 634h-425l32 211h411q132 0 200 54.5t86 171.5q17 114 -37 167t-171 53h-424l23 155h472q252 0 377.5 -100t98.5 -284q-14 -98 -60.5 -172.5t-113.5 -124.5t-142 -77q-16 -5 -10 -29l164 -659h-357zM114 1002l21 144l1162 1l-23 -144zM158 1302l21 144l1162 1
l-21 -144z" />
    <glyph glyph-name="uni20BA" unicode="&#x20ba;" horiz-adv-x="1280" 
d="M185 0l214 1446h329l-177 -1202h66q109 4 206.5 83.5t175.5 232.5l246 -55q-51 -104 -122 -195.5t-165.5 -161.5t-217 -109t-277.5 -39h-278zM89 378l-31 154l838 296l32 -154zM108 693l-31 154l841 296l33 -152z" />
    <glyph glyph-name="uni2113" unicode="&#x2113;" horiz-adv-x="1124" 
d="M534 -17q-176 0 -261.5 85.5t-92.5 250.5l-104 -73l-48 160l175 122l64 451q36 251 166 369t310 118q122 0 189.5 -47.5t90 -128t8.5 -177.5q-15 -107 -64.5 -198t-124 -171.5t-165 -155.5t-185.5 -150q-22 -134 1 -187t115 -53q75 0 148 42.5t154 130.5l89 -111
q-23 -41 -61.5 -89t-94.5 -91t-133 -70t-176 -27zM519 692q57 49 111.5 102.5t99.5 113t75.5 123.5t40.5 133q9 60 -10.5 93.5t-72.5 33.5q-68 0 -121.5 -70t-79.5 -255z" />
    <glyph glyph-name="uni2116" unicode="&#x2116;" horiz-adv-x="2301" 
d="M89 0l215 1446h287l494 -957l140 957h290l-215 -1446h-260l-515 995l-146 -995h-290zM1961 795q-136 0 -204.5 93.5t-48.5 238.5q14 101 63.5 177t123.5 118.5t162 42.5q136 0 205.5 -94.5t48.5 -243.5q-13 -97 -61.5 -172t-122.5 -117.5t-166 -42.5zM1979 923
q63 0 101.5 53t52.5 156q15 103 -8.5 155.5t-85.5 52.5t-99.5 -52.5t-52.5 -155.5t8.5 -156t83.5 -53z" />
    <glyph glyph-name="uni2117" unicode="&#x2117;" horiz-adv-x="1618" 
d="M721 -20q-149 0 -271.5 57.5t-206.5 159.5t-120 237t-13 290q22 153 98 287.5t190.5 236.5t253.5 160t288 58q150 0 272 -58t206.5 -160t120.5 -236.5t14 -287.5q-24 -155 -100.5 -290t-190.5 -237t-253 -159.5t-288 -57.5zM746 143q119 0 224.5 40.5t190 116.5
t141 183.5t76.5 240.5q19 132 -5.5 238.5t-86.5 183.5t-156 118.5t-213 41.5q-120 0 -226.5 -41.5t-190.5 -118.5t-140 -183.5t-75 -238.5q-27 -177 23.5 -307.5t163.5 -202t274 -71.5zM498 336l114 772h335q81 0 144.5 -26t95 -80t18.5 -139q-19 -124 -105 -188.5
t-208 -64.5h-170l-41 -274h-183zM741 744h149q49 0 84 29.5t43 85.5q10 62 -21 87t-80 25h-140z" />
    <glyph glyph-name="uni2120" unicode="&#x2120;" horiz-adv-x="2012" 
d="M931 0l134 904h263l102 -644l295 644h260l-133 -904h-182l102 691l-310 -691h-141l-107 688l-101 -688h-182zM378 -12q-88 0 -166 28.5t-125.5 88.5t-43.5 153h189q4 -61 49.5 -94t116.5 -33q73 0 129.5 28t64.5 85q7 52 -32.5 77t-101.5 38l-148 32q-99 19 -149.5 81
t-36.5 166q12 86 66.5 148t138 95.5t179.5 33.5q105 0 177.5 -39.5t108.5 -102t32 -132.5h-185q3 47 -16 75.5t-53.5 41.5t-80.5 13q-49 0 -85.5 -14.5t-59 -39.5t-26.5 -58q-5 -39 16.5 -63.5t90.5 -39.5l146 -32q80 -16 124.5 -48t63 -72t20 -81.5t-3.5 -77.5
q-10 -73 -64 -131t-140 -92t-195 -34z" />
    <glyph glyph-name="trademark" unicode="&#x2122;" horiz-adv-x="1886" 
d="M805 0l134 904h263l102 -644l295 644h261l-133 -904h-182l101 691l-310 -691h-141l-106 688l-102 -688h-182zM227 0l109 741h-264l25 163h702l-23 -163h-260l-110 -741h-179z" />
    <glyph glyph-name="uni2126" unicode="&#x2126;" horiz-adv-x="1499" 
d="M43 0l38 252h266q-27 25 -60 63t-65 89t-56 115t-33.5 142t3.5 169q19 127 81 247t161 216.5t230.5 153.5t290.5 57q162 0 275.5 -60t180.5 -158t90.5 -217t5.5 -237q-13 -89 -42.5 -165t-76.5 -144.5t-114 -135t-156 -135.5h273l-38 -252h-571l34 221q48 32 102.5 82.5
t106 120.5t91 162t57.5 209q17 111 6.5 198t-44 148t-88.5 92.5t-129 31.5q-72 0 -137.5 -30.5t-119.5 -91t-91.5 -149.5t-55.5 -206q-19 -129 -0.5 -233.5t68 -188t123.5 -145.5l-33 -221h-573z" />
    <glyph glyph-name="uni2153" unicode="&#x2153;" horiz-adv-x="1800" 
d="M199 552l101 681h-157l15 104q114 0 169.5 33t70.5 92h120l-136 -910h-183zM311 -8l-167 3l1166 1467h164zM1295 -20q-161 1 -239 79.5t-60 215.5h175q3 -77 43.5 -111.5t103.5 -34.5q81 0 132.5 36t60.5 92q8 59 -34.5 93t-116.5 37l-85 3l21 146l78 4q48 2 85 18
t60.5 44t28.5 62q6 50 -33.5 80t-107.5 30q-42 0 -79.5 -15t-65 -47.5t-38.5 -88.5h-174q14 99 68 163.5t136 97t177 32.5q100 0 174.5 -26.5t112 -80t25.5 -137.5q-10 -68 -55 -119t-136 -81q48 -13 85.5 -42t57 -72.5t10.5 -105.5q-13 -89 -72 -150t-147.5 -91.5
t-190.5 -30.5z" />
    <glyph glyph-name="uni2154" unicode="&#x2154;" horiz-adv-x="2112" 
d="M64 558l13 91l7 46q12 81 53 136.5t99.5 95t122 70t120.5 59.5t96 64t45 84q8 55 -24 89.5t-95 34.5q-67 0 -119 -40t-73 -119h-175q19 130 118.5 220.5t274.5 90.5q150 0 226.5 -76t58.5 -199q-12 -80 -52.5 -134.5t-97 -91t-118 -64.5t-117 -54t-92.5 -59t-44 -81
l-1 -9h452l-23 -154h-655zM623 -8l-167 3l1166 1467h164zM1607 -20q-161 1 -239 79.5t-60 215.5h175q3 -77 43.5 -111.5t103.5 -34.5q81 0 132.5 36t60.5 92q8 59 -34.5 93t-116.5 37l-85 3l21 146l78 4q48 2 85 18t60.5 44t28.5 62q6 50 -33.5 80t-107.5 30
q-42 0 -79.5 -15t-65 -47.5t-38.5 -88.5h-174q14 99 68 163.5t136 97t177 32.5q100 0 174.5 -26.5t112 -80t25.5 -137.5q-10 -68 -55 -119t-136 -81q48 -13 85.5 -42t57 -72.5t10.5 -105.5q-13 -89 -72 -150t-147.5 -91.5t-190.5 -30.5z" />
    <glyph glyph-name="oneeighth" unicode="&#x215b;" horiz-adv-x="1806" 
d="M199 552l101 681h-157l15 104q114 0 169.5 33t70.5 92h120l-136 -910h-183zM311 -8l-167 3l1166 1467h164zM1313 -21q-162 0 -250.5 72t-71.5 193q7 53 38.5 99.5t75 79t86.5 40.5q-52 27 -82.5 75.5t-21.5 119.5q18 124 119 190t238 66t219.5 -66t64.5 -190
q-9 -71 -53.5 -119.5t-103.5 -75.5q40 -8 74 -40.5t53 -79t11 -99.5q-16 -121 -125 -193t-271 -72zM1332 117q78 0 127 36t57 97q9 59 -30 97t-116 38t-126.5 -38t-58.5 -97q-8 -61 31.5 -97t115.5 -36zM1391 535q60 0 104 33.5t52 93.5q8 59 -26 93.5t-95 34.5
q-59 0 -103.5 -34.5t-51.5 -93.5q-9 -60 26 -93.5t94 -33.5z" />
    <glyph glyph-name="threeeighths" unicode="&#x215c;" horiz-adv-x="2054" 
d="M407 544q-161 1 -239 79.5t-60 215.5h175q3 -77 43.5 -111.5t103.5 -34.5q81 0 132.5 36t60.5 92q8 59 -34.5 93t-116.5 37l-85 3l21 146l78 4q48 2 85 18t60.5 44t28.5 62q6 50 -33.5 80t-107.5 30q-42 0 -79.5 -15t-65 -47.5t-38.5 -88.5h-174q14 99 68 163.5t136 97
t177 32.5q100 0 174.5 -26.5t112 -80t25.5 -137.5q-10 -68 -55 -119t-136 -81q48 -14 85.5 -42.5t57 -72t10.5 -105.5q-13 -89 -72 -150t-147.5 -91.5t-190.5 -30.5zM559 -8l-167 3l1166 1467h164zM1561 -21q-162 0 -250.5 72t-71.5 193q7 53 38.5 99.5t75 79t86.5 40.5
q-52 27 -82.5 75.5t-21.5 119.5q18 124 119 190t238 66t219.5 -66t64.5 -190q-9 -71 -53.5 -119.5t-103.5 -75.5q40 -8 74 -40.5t53 -79t11 -99.5q-16 -121 -125 -193t-271 -72zM1580 117q78 0 127 36t57 97q9 59 -30 97t-116 38t-126.5 -38t-58.5 -97q-8 -61 31.5 -97
t115.5 -36zM1639 535q60 0 104 33.5t52 93.5q8 59 -26 93.5t-95 34.5q-59 0 -103.5 -34.5t-51.5 -93.5q-9 -60 26 -93.5t94 -33.5z" />
    <glyph glyph-name="fiveeighths" unicode="&#x215d;" horiz-adv-x="2045" 
d="M432 538q-132 0 -224.5 60.5t-122.5 153.5l155 85q27 -64 71 -107.5t123 -43.5q80 0 133.5 43.5t62.5 113.5q10 66 -30.5 110t-116.5 44q-40 0 -76 -11.5t-86 -48.5q-9 -3 -12.5 -3t-12.5 5l-123 61l105 462h573l-28 -151h-421l-48 -219q53 28 99 41t99 13q89 0 155 -35
t97.5 -100.5t17.5 -161.5q-19 -143 -125 -227t-265 -84zM549 -8l-167 3l1166 1467h164zM1552 -21q-162 0 -250.5 72t-71.5 193q7 53 38.5 99.5t75 79t86.5 40.5q-52 27 -82.5 75.5t-21.5 119.5q18 124 119 190t238 66t219.5 -66t64.5 -190q-9 -71 -53.5 -119.5t-103.5 -75.5
q40 -8 74 -40.5t53 -79t11 -99.5q-16 -121 -125 -193t-271 -72zM1571 117q78 0 127 36t57 97q9 59 -30 97t-116 38t-126.5 -38t-58.5 -97q-8 -61 31.5 -97t115.5 -36zM1630 535q60 0 104 33.5t52 93.5q8 59 -26 93.5t-95 34.5q-59 0 -103.5 -34.5t-51.5 -93.5
q-9 -60 26 -93.5t94 -33.5z" />
    <glyph glyph-name="seveneighths" unicode="&#x215e;" horiz-adv-x="1879" 
d="M202 550q17 74 68.5 197.5t139.5 271t215 290.5h-471l22 151h662l-24 -151q-61 -68 -128 -164.5t-127.5 -204t-104 -210t-57.5 -180.5h-195zM383 -8l-167 3l1166 1467h164zM1386 -21q-162 0 -250.5 72t-71.5 193q7 53 38.5 99.5t75 79t86.5 40.5q-52 27 -82.5 75.5
t-21.5 119.5q18 124 119 190t238 66t219.5 -66t64.5 -190q-9 -71 -53.5 -119.5t-103.5 -75.5q40 -8 74 -40.5t53 -79t11 -99.5q-16 -121 -125 -193t-271 -72zM1405 117q78 0 127 36t57 97q9 59 -30 97t-116 38t-126.5 -38t-58.5 -97q-8 -61 31.5 -97t115.5 -36zM1464 535
q60 0 104 33.5t52 93.5q8 59 -26 93.5t-95 34.5q-59 0 -103.5 -34.5t-51.5 -93.5q-9 -60 26 -93.5t94 -33.5z" />
    <glyph glyph-name="partialdiff" unicode="&#x2202;" horiz-adv-x="1184" 
d="M480 -20q-150 0 -247.5 63t-138 170t-20.5 242q19 132 89 238t180.5 166.5t253.5 60.5q99 0 151 -27.5t98 -65.5q18 -15 24 -8t9 20q10 76 0 149.5t-44.5 132.5t-98.5 93.5t-161 34.5q-95 0 -160 -29t-116 -60l-54 172q33 28 94.5 59t143.5 53t176 22q169 0 286.5 -81.5
t166 -248t11.5 -420.5q-34 -224 -118 -389.5t-215.5 -256t-309.5 -90.5zM503 189h2q70 0 129.5 44t104.5 122t70 182q8 30 8 43t-8 27q-23 45 -76 80.5t-122 35.5q-66 0 -122 -37t-94 -100.5t-50 -143.5q-11 -79 7 -135t57.5 -87t93.5 -31z" />
    <glyph glyph-name="emptyset" unicode="&#x2205;" horiz-adv-x="1175" 
d="M138 243l-81 102l1017 845l78 -100zM544 275q-121 0 -212 61.5t-135 164t-26 227.5q14 93 60.5 174.5t116.5 143.5t155 97.5t175 35.5q121 0 212 -61.5t135.5 -163.5t25.5 -226q-18 -125 -93 -227.5t-184 -164t-230 -61.5zM565 410q85 0 161 43t128 115t66 160
q13 86 -18.5 158t-95 115t-148.5 43t-161 -43t-127.5 -115t-64.5 -158q-14 -88 17 -160t94 -115t149 -43z" />
    <glyph glyph-name="uni2206" unicode="&#x2206;" horiz-adv-x="1505" 
d="M-40 0l947 1446l492 -1446h-1439zM416 245h612l-202 664z" />
    <glyph glyph-name="product" unicode="&#x220f;" horiz-adv-x="1364" 
d="M129 0l178 1205h-173l36 241h1273l-36 -241h-175l-178 -1205h-297l178 1205h-331l-177 -1205h-298z" />
    <glyph glyph-name="summation" unicode="&#x2211;" horiz-adv-x="1121" 
d="M-15 0l25 177l483 540l-302 531l29 198h937l-35 -235h-545l279 -462l-458 -502h617l-38 -247h-992z" />
    <glyph glyph-name="minus" unicode="&#x2212;" horiz-adv-x="1155" 
d="M131 621l32 213h920l-32 -213h-920z" />
    <glyph glyph-name="uni2215" unicode="&#x2215;" horiz-adv-x="1198" 
d="M185 -8l-170 3l1060 1467h168z" />
    <glyph glyph-name="uni2219" unicode="&#x2219;" horiz-adv-x="701" 
d="M347 579q-61 0 -99 45.5t-28 108.5q9 64 60 109t114 45q62 0 99 -45t27 -109q-8 -63 -59 -108.5t-114 -45.5z" />
    <glyph glyph-name="radical" unicode="&#x221a;" horiz-adv-x="1343" 
d="M410 -322l-170 827l-162 -59l-35 165l393 137l157 -797l665 1700h241l-795 -1973h-294z" />
    <glyph glyph-name="infinity" unicode="&#x221e;" horiz-adv-x="1551" 
d="M371 182q-88 0 -155.5 43.5t-101.5 123t-18 187.5q16 107 73.5 187t143.5 124.5t187 44.5q76 0 126 -24t87 -64.5t74 -91.5q13 -17 21.5 -16.5t25.5 16.5q40 40 89.5 81.5t112 70t141.5 28.5q92 0 158.5 -42t98 -119t15.5 -182l-1 -4q-18 -115 -76.5 -196t-142 -124
t-174.5 -43q-76 0 -126.5 26t-88 71t-73.5 98q-9 13 -16 14.5t-21 -14.5l-46.5 -46.5t-77.5 -66t-105 -58.5t-130 -24zM415 364h5q40 0 80.5 21t75.5 51.5t59 59.5q20 23 20.5 35t-12.5 40q-34 67 -76 105.5t-102 38.5q-69 0 -119.5 -48.5t-62.5 -124.5q-11 -79 27.5 -128.5
t104.5 -49.5zM1091 364q47 0 83.5 26.5t59 67t28.5 82.5q10 69 -23 122t-103 53h-2q-62 0 -117.5 -45t-102.5 -93q-20 -21 -19.5 -39t8.5 -32q34 -62 69.5 -92.5t66.5 -40t52 -9.5z" />
    <glyph glyph-name="integral" unicode="&#x222b;" horiz-adv-x="928" 
d="M118 -343q-75 0 -123.5 13.5t-84.5 37.5l96 241q28 -16 58.5 -27.5t73.5 -11.5q56 0 95 45.5t57 164.5q19 130 32 271t23.5 282t21.5 270t26 234q38 247 147 370.5t295 123.5q77 0 127.5 -14t82.5 -38l-93 -241q-29 16 -60 28t-76 12q-58 0 -97 -45.5t-57 -160.5
q-19 -133 -32 -274t-23.5 -279.5t-21.5 -265t-26 -231.5q-25 -169 -83 -281.5t-147.5 -168t-210.5 -55.5z" />
    <glyph glyph-name="approxequal" unicode="&#x2248;" horiz-adv-x="1197" 
d="M229 716l-60 146q83 76 162 127.5t173 51.5q60 0 103.5 -18.5t80 -42.5t74 -42.5t84.5 -18.5q69 0 127 42t101 99l62 -145q-63 -87 -146 -133.5t-167 -46.5q-58 0 -102 18.5t-81.5 43t-76.5 42.5t-88 18q-74 0 -133 -44t-113 -97zM168 295l-62 147q84 76 162.5 127.5
t174.5 51.5q59 0 102.5 -19t80.5 -42.5t74 -42.5t83 -19q70 0 127.5 42.5t100.5 98.5l62 -145q-61 -86 -144.5 -133t-168.5 -47q-59 0 -102.5 18.5t-81 43t-76.5 43t-88 18.5q-74 0 -133.5 -44.5t-110.5 -97.5z" />
    <glyph glyph-name="notequal" unicode="&#x2260;" horiz-adv-x="1160" 
d="M243 68l575 1230h150l-568 -1230h-157zM162 811l32 213l921 1l-32 -213zM94 354l32 213h921l-32 -213h-921z" />
    <glyph glyph-name="lessequal" unicode="&#x2264;" horiz-adv-x="1156" 
d="M1007 402l-844 359l37 243l951 359l-38 -252l-617 -230l548 -227zM53 62l32 212l921 -1l-33 -211h-920z" />
    <glyph glyph-name="greaterequal" unicode="&#x2265;" horiz-adv-x="1160" 
d="M119 402l37 252l617 227l-549 230l37 252l846 -359l-35 -243zM53 62l32 211l921 1l-32 -212h-921z" />
    </font>
</defs>
</svg>
