<?xml version="1.0" standalone="no"?>
<!DOCTYPE svg PUBLIC "-//W3C//DTD SVG 1.1//EN" "http://www.w3.org/Graphics/SVG/1.1/DTD/svg11.dtd" >
<svg xmlns="http://www.w3.org/2000/svg" xmlns:xlink="http://www.w3.org/1999/xlink" version="1.1">
<metadata>
Created by FontForge 20190801 at Fri Apr 29 23:32:16 2022
 By www-data
Copyright 2015 The Public Sans Project Authors (https://github.com/uswds/public-sans)
</metadata>
<defs>
<font id="PublicSansBlack" horiz-adv-x="1170" >
  <font-face 
    font-family="PublicSansBlack"
    font-weight="900"
    font-stretch="normal"
    units-per-em="2000"
    panose-1="0 0 0 0 0 0 0 0 0 0"
    ascent="1600"
    descent="-400"
    x-height="1034"
    cap-height="1446"
    bbox="-389 -495 2692 2269"
    underline-thickness="140"
    underline-position="-440"
    unicode-range="U+000D-FB02"
  />
<missing-glyph horiz-adv-x="1262" 
d="M173 1652h918q36 0 36 -42v-1876q0 -56 -66 -56h-873q-31 0 -42 12t-11 36v1880q0 46 38 46zM1024 -111v1631q0 34 -29 34h-686zM237 1433v-1617q0 -19 9.5 -29.5t34.5 -10.5h671z" />
    <glyph glyph-name="fi" unicode="fi" horiz-adv-x="1364" 
d="M196 0v770h-166v264h166v138q0 128 84 201t226 73h276l2 -252h-120q-48 0 -67 -21.5t-19 -78.5v-60h196v-264h-188v-770h-390zM894 0v1034h370v-1034h-370zM894 1118v328h370v-328h-370z" />
    <glyph glyph-name="fl" unicode="fl" horiz-adv-x="1499" 
d="M196 0v770h-166v264h166v138q0 128 84 201t226 73h276l2 -252h-120q-48 0 -67 -21.5t-19 -78.5v-60h196v-264h-188v-770h-390zM1287 -22q-143 0 -223.5 30.5t-116.5 79.5t-44.5 108t-8.5 116v1174h381v-1122q0 -37 19 -70t98 -44l42 -4v-236q-35 -13 -72 -22.5t-75 -9.5z
" />
    <glyph glyph-name=".notdef" horiz-adv-x="1262" 
d="M173 1652h918q36 0 36 -42v-1876q0 -56 -66 -56h-873q-31 0 -42 12t-11 36v1880q0 46 38 46zM1024 -111v1631q0 34 -29 34h-686zM237 1433v-1617q0 -19 9.5 -29.5t34.5 -10.5h671z" />
    <glyph glyph-name="uni0000" horiz-adv-x="52" 
 />
    <glyph glyph-name="uni0000" horiz-adv-x="52" 
 />
    <glyph glyph-name="nonmarkingreturn" horiz-adv-x="666" 
 />
    <glyph glyph-name="CR" unicode="&#xd;" horiz-adv-x="484" 
 />
    <glyph glyph-name="space" unicode=" " horiz-adv-x="420" 
 />
    <glyph glyph-name="exclam" unicode="!" horiz-adv-x="620" 
d="M180 518l-110 928h450l-102 -928h-238zM90 0v384h410v-384h-410z" />
    <glyph glyph-name="quotedbl" unicode="&#x22;" horiz-adv-x="1058" 
d="M694 802l-92 644h366l-92 -644h-182zM182 802l-92 644h366l-92 -644h-182z" />
    <glyph glyph-name="numbersign" unicode="#" horiz-adv-x="1256" 
d="M828 -6l-190 24l210 1432l188 -18zM40 432v188h1092v-188h-1092zM390 -6l-188 24l210 1432l186 -18zM104 842v188h1092v-188h-1092z" />
    <glyph glyph-name="dollar" unicode="$" horiz-adv-x="1402" 
d="M734 -20q-288 0 -461 109.5t-193 350.5h404q17 -76 81.5 -119t166.5 -43q61 0 100.5 18.5t58.5 48.5t19 65q0 66 -45 89.5t-137 38.5l-226 38q-169 27 -273 134.5t-107 291.5q-2 146 80 249.5t220.5 158t305.5 54.5q177 0 307.5 -60t200 -163.5t62.5 -232.5h-394
q-6 66 -36 111t-132 45q-57 0 -95 -10.5t-61 -27t-32.5 -36.5t-9.5 -40q0 -49 32 -77.5t126 -48.5l226 -46q210 -43 305 -164t95 -304q0 -133 -71.5 -229.5t-203.5 -148.5t-313 -52zM566 -174v260h326v-260h-326zM566 1384v260h326v-260h-326z" />
    <glyph glyph-name="percent" unicode="%" horiz-adv-x="1942" 
d="M350 -8l977 1470h213l-972 -1470h-218zM468 652q-110 0 -198 57t-139 148.5t-51 196.5q0 107 52 201.5t140 153.5t196 59q107 0 194 -59t138.5 -153.5t51.5 -201.5q0 -105 -50.5 -196.5t-137.5 -148.5t-196 -57zM466 842q62 0 83 53.5t21 158.5q0 111 -22.5 168.5
t-81.5 57.5q-58 0 -81 -58t-23 -168q0 -105 22 -158.5t82 -53.5zM1456 -20q-110 0 -198 57.5t-139 149.5t-51 197q0 106 52 200.5t140 154t196 59.5t195.5 -59.5t139 -154t51.5 -200.5q0 -105 -50.5 -197t-138 -149.5t-197.5 -57.5zM1454 172q62 0 83 53.5t21 156.5
q0 111 -22.5 168.5t-81.5 57.5q-58 0 -80 -58t-22 -168q0 -103 21 -156.5t81 -53.5z" />
    <glyph glyph-name="ampersand" unicode="&#x26;" horiz-adv-x="1704" 
d="M594 -10q-175 0 -284 48t-159.5 132t-50.5 192q0 103 43 179.5t128.5 141t212.5 131.5q-47 54 -85 97.5t-60.5 90t-22.5 110.5q0 102 60 182.5t167.5 127t248.5 46.5q138 0 247.5 -41t173 -113t63.5 -166q0 -57 -24 -108.5t-65.5 -98t-95.5 -89.5t-115 -84l144 -170
q9 33 22 78t26.5 93t23.5 91h404q-35 -76 -89.5 -158.5t-110.5 -165t-96 -158.5l324 -378h-444l-108 124q-123 -79 -249.5 -106.5t-228.5 -27.5zM694 280q35 0 93.5 15.5t100.5 52.5l-218 250q-57 -33 -102.5 -86t-29.5 -122q10 -39 37 -63.5t59.5 -35.5t59.5 -11zM820 954
q44 31 71 59.5t39 56.5t12 58q0 39 -17.5 65.5t-47 39.5t-65.5 11q-51 -3 -82.5 -31.5t-31.5 -72.5q0 -18 7.5 -38.5t24 -45t44.5 -54.5z" />
    <glyph glyph-name="quotesingle" unicode="'" horiz-adv-x="546" 
d="M182 802l-92 644h366l-92 -644h-182z" />
    <glyph glyph-name="parenleft" unicode="(" horiz-adv-x="722" 
d="M386 -322q-85 141 -149.5 277t-100.5 282.5t-36 318.5q0 251 77.5 477t206.5 413h278q-105 -196 -165.5 -424t-60.5 -468q0 -229 58.5 -438.5t167.5 -437.5h-276z" />
    <glyph glyph-name="parenright" unicode=")" horiz-adv-x="722" 
d="M10 -322q110 228 168 437.5t58 438.5q0 240 -60.5 468t-165.5 424h278q129 -187 206.5 -413t77.5 -477q0 -172 -36 -318.5t-100.5 -282.5t-149.5 -277h-276z" />
    <glyph glyph-name="asterisk" unicode="*" horiz-adv-x="1090" 
d="M358 544l-198 140l222 258l-322 88l80 218l302 -138l-26 336h240l-34 -338l308 138l70 -220l-312 -84l218 -256l-200 -138l-174 292z" />
    <glyph glyph-name="plus" unicode="+" horiz-adv-x="1238" 
d="M482 220v1018h276v-1018h-276zM110 590v276h1018v-276h-1018z" />
    <glyph glyph-name="comma" unicode="," horiz-adv-x="618" 
d="M100 -306l120 294l-116 14v338h354v-300l-230 -346h-128z" />
    <glyph glyph-name="hyphen" unicode="-" horiz-adv-x="814" 
d="M117 376v274h580v-274h-580z" />
    <glyph glyph-name="period" unicode="." horiz-adv-x="620" 
d="M90 0v392h410v-392h-410z" />
    <glyph glyph-name="slash" unicode="/" horiz-adv-x="818" 
d="M20 0l510 1446h258l-510 -1446h-258z" />
    <glyph glyph-name="zero" unicode="0" horiz-adv-x="1349" 
d="M677 -22q-285 0 -441 195.5t-156 546.5q0 235 71.5 402t205 255.5t320.5 88.5q279 0 435.5 -196.5t156.5 -549.5q0 -351 -154 -546.5t-438 -195.5zM675 288q107 0 149 96.5t42 333.5q0 245 -43 347.5t-148 102.5q-106 0 -149.5 -103.5t-43.5 -346.5q0 -235 43 -332.5
t150 -97.5z" />
    <glyph glyph-name="one" unicode="1" horiz-adv-x="895" 
d="M319 0v1022h-239v204q119 0 199.5 28t125.5 77.5t55 114.5h250v-1446h-391z" />
    <glyph glyph-name="two" unicode="2" horiz-adv-x="1340" 
d="M102 0v172v88q0 109 40.5 188.5t107.5 138t147 101.5t160 78.5t147 69.5t107.5 73.5t40.5 92.5q0 65 -45 107.5t-125 42.5q-79 0 -146 -48t-90 -168h-366q0 150 66.5 270t201.5 190t342 70q178 0 305.5 -58t196 -161.5t68.5 -240.5q0 -108 -39 -185.5t-104 -131.5
t-142 -92.5t-154 -68.5t-142 -59t-104 -64t-39 -85v0h714v-320h-1148z" />
    <glyph glyph-name="three" unicode="3" horiz-adv-x="1393" 
d="M670 -22q-196 0 -327 59t-197 170.5t-66 268.5h368q22 -114 84 -153t138 -39q74 0 125.5 19.5t78 54t26.5 78.5q0 39 -24 70.5t-69 51t-107 22.5l-145 8v300l126 10q62 5 104.5 23t64.5 49t22 76t-29.5 73.5t-76.5 41.5t-100 13q-61 0 -107.5 -16.5t-75.5 -58.5t-37 -119
h-366q0 169 78.5 276.5t214 158.5t304.5 51q172 0 309.5 -40.5t217.5 -129t80 -232.5q0 -106 -57 -183.5t-197 -124.5q67 -18 132 -58.5t108 -108.5t43 -169q0 -113 -52 -196.5t-142 -138t-205.5 -81t-243.5 -26.5z" />
    <glyph glyph-name="four" unicode="4" horiz-adv-x="1363" 
d="M731 0l1 276h-652v304l646 866h376v-852h208v-318h-208v-276h-371zM434 594h302v402z" />
    <glyph glyph-name="five" unicode="5" horiz-adv-x="1412" 
d="M734 -22q-150 0 -279 41t-225 111.5t-150 159.5l290 196q43 -55 86.5 -101t99 -73.5t133.5 -27.5q107 0 172.5 51t65.5 123q0 45 -27 86t-78.5 66.5t-127.5 25.5q-31 0 -59 -5t-60.5 -16.5t-76.5 -30.5q-20 -9 -28 -8.5t-30 10.5l-263 142l67 718h988l-16 -312h-674
l-21 -240q87 24 147.5 37t136.5 13q157 0 275.5 -56t185 -161.5t66.5 -254.5q0 -155 -72.5 -265.5t-206.5 -169.5t-319 -59z" />
    <glyph glyph-name="six" unicode="6" horiz-adv-x="1389" 
d="M717 -22q-200 0 -343 90.5t-218.5 251t-75.5 370.5q0 243 79.5 417t224.5 266.5t341 92.5q150 0 277 -54t204.5 -155.5t77.5 -244.5h-351q-25 81 -73.5 117.5t-125.5 36.5q-82 0 -136.5 -47.5t-76 -123t-6.5 -159.5q39 24 86.5 38.5t99.5 21t104 6.5q151 0 264 -54.5
t176.5 -151.5t63.5 -224q0 -139 -76.5 -251t-210.5 -177.5t-305 -65.5zM700 266q52 0 97.5 24.5t74 67t28.5 96.5q0 62 -30 99t-75.5 53t-92.5 16q-45 0 -89 -19t-73 -44t-29 -43q0 -84 24 -139.5t67 -83t98 -27.5z" />
    <glyph glyph-name="seven" unicode="7" horiz-adv-x="1299" 
d="M345 0q0 78 24 202.5t79 278.5t146.5 321.5t227.5 331.5h-742v312h1139v-312q-61 -67 -125.5 -169t-124.5 -224.5t-107.5 -252.5t-74.5 -255.5t-24 -232.5h-418z" />
    <glyph glyph-name="eight" unicode="8" horiz-adv-x="1384" 
d="M692 -21q-183 0 -320.5 52.5t-214.5 149t-77 229.5q0 82 39.5 154t99.5 121t121 63q-79 42 -138.5 118t-59.5 182q0 136 72 229t196.5 141t281.5 48t281.5 -48t196.5 -141t72 -229q0 -106 -59 -182t-139 -118q61 -14 121 -63t99.5 -121t39.5 -154q0 -133 -76.5 -229.5
t-214.5 -149t-321 -52.5zM692 264q96 0 148 44t52 116q0 49 -23.5 86t-68 57.5t-108.5 20.5q-63 0 -108 -20.5t-68.5 -57.5t-23.5 -86q0 -72 52.5 -116t147.5 -44zM692 892q69 0 117.5 43.5t48.5 118.5t-48.5 118.5t-117.5 43.5t-117.5 -43.5t-48.5 -118.5t48.5 -118.5
t117.5 -43.5z" />
    <glyph glyph-name="nine" unicode="9" horiz-adv-x="1380" 
d="M653 -22q-149 0 -277.5 58t-207.5 161.5t-80 240.5h366q12 -70 59 -115t123 -45q82 0 148.5 33t101.5 110t22 209q-32 -33 -76.5 -55.5t-101.5 -34.5t-128 -12q-151 0 -269 56t-185.5 157t-67.5 237q0 140 74.5 250.5t206 174t303.5 63.5q200 0 342.5 -88.5t218 -247.5
t75.5 -370q0 -273 -80 -446t-225 -254.5t-342 -81.5zM678 828q45 0 89 19t73.5 44t29.5 43q0 85 -24 140t-67 81.5t-99 26.5q-51 0 -92.5 -23.5t-66.5 -65.5t-25 -97q0 -84 56.5 -126t125.5 -42z" />
    <glyph glyph-name="colon" unicode=":" horiz-adv-x="620" 
d="M90 640v384h410v-384h-410zM90 6v384h410v-384h-410z" />
    <glyph glyph-name="semicolon" unicode=";" horiz-adv-x="626" 
d="M90 -330l146 330h-140v386h410v-342l-262 -374h-154zM96 626v392h410v-392h-410z" />
    <glyph glyph-name="less" unicode="&#x3c;" horiz-adv-x="1212" 
d="M1102 144l-992 382v310l992 382v-320l-580 -220l580 -210v-324z" />
    <glyph glyph-name="equal" unicode="=" horiz-adv-x="1238" 
d="M110 778v276h1018v-276h-1018zM110 308v276h1018v-276h-1018z" />
    <glyph glyph-name="greater" unicode="&#x3e;" horiz-adv-x="1214" 
d="M110 144v324l582 210l-582 220v320l994 -382v-310z" />
    <glyph glyph-name="question" unicode="?" horiz-adv-x="1094" 
d="M366 524q0 108 30 185t74.5 132.5t89 99t74.5 83.5t30 86q0 47 -38.5 74.5t-89.5 27.5q-44 0 -84 -21t-73 -61t-55 -98l-324 70q65 179 201.5 271.5t338.5 92.5q151 0 264.5 -47t176.5 -123t63 -164q0 -94 -38 -157.5t-93.5 -111.5t-111 -94t-93.5 -103.5t-38 -141.5
h-304zM312 0v384h410v-384h-410z" />
    <glyph glyph-name="at" unicode="@" horiz-adv-x="1648" 
d="M829 -220q-181 0 -323.5 57t-242 157.5t-151.5 232.5t-52 283q0 158 55.5 298t161 248.5t256 170t340.5 61.5q136 0 264 -36t229.5 -112t161.5 -195t60 -285q0 -148 -48.5 -261t-136.5 -177t-205 -64q-92 0 -136 31.5t-62 52.5q-9 11 -13 10t-13 -12q-43 -48 -109 -79
t-143 -31q-90 0 -160.5 42.5t-111 120.5t-39.5 183q0 116 49 219t140.5 167t217.5 64q83 0 125.5 -25t76.5 -57q6 -6 11 -4t6 12l5 24h208l-70 -418q-10 -57 5.5 -77.5t40.5 -20.5q34 0 68.5 29.5t58 93t23.5 165.5q0 128 -41 214t-111.5 136.5t-161 72t-189.5 21.5
q-162 0 -275 -46t-183 -126t-102.5 -184t-32.5 -220q0 -139 41.5 -243.5t119 -174t185 -104t238.5 -34.5q91 0 153.5 15t110.5 41t96 58l105 -142q-66 -57 -196.5 -104.5t-303.5 -47.5zM792 348q50 0 89 30t61 77t22 97q0 39 -14 75t-42 59.5t-70 23.5q-44 0 -83 -27.5
t-63 -74t-24 -104.5t29.5 -107t94.5 -49z" />
    <glyph glyph-name="A" unicode="A" horiz-adv-x="1482" 
d="M30 0l512 1446h398l512 -1446h-384l-96 280h-456l-98 -280h-388zM598 612h286l-142 462z" />
    <glyph glyph-name="B" unicode="B" horiz-adv-x="1395" 
d="M135 0v1446h578q303 0 441.5 -98.5t138.5 -283.5q0 -100 -50 -177t-184 -143q95 -28 149.5 -71t79.5 -92t32 -97.5t7 -89.5q0 -202 -133.5 -298t-448.5 -96h-610zM524 292h235q86 0 129 46.5t43 103.5q0 40 -20 71.5t-56.5 50t-85.5 18.5h-245v-290zM524 882h245
q35 0 62.5 10t47 27.5t30 42t10.5 52.5q0 65 -47.5 102.5t-116.5 37.5h-231v-272z" />
    <glyph glyph-name="C" unicode="C" horiz-adv-x="1490" 
d="M777 -20q-209 0 -364.5 99t-241.5 271t-86 392t85 382.5t240.5 252t366.5 89.5q172 0 308 -67.5t220 -187t100 -275.5h-406q-11 67 -41 116t-78.5 75.5t-115.5 26.5q-73 0 -130 -38t-89.5 -129.5t-32.5 -250.5q0 -241 71 -342.5t181 -101.5q67 0 115.5 34t78.5 90.5
t41 123.5h406q-15 -112 -50.5 -213t-105 -179.5t-184.5 -123t-288 -44.5z" />
    <glyph glyph-name="D" unicode="D" horiz-adv-x="1488" 
d="M135 0v1446h80t148.5 0.5t164.5 0t127 -2.5q261 -9 426.5 -102t243.5 -251t78 -363q0 -211 -81 -375.5t-247 -258.5t-422 -94h-518zM524 306h141q74 0 150.5 41.5t129 135.5t52.5 251q0 133 -41.5 223.5t-116.5 136.5t-174 46h-141v-834z" />
    <glyph glyph-name="E" unicode="E" horiz-adv-x="1295" 
d="M135 0v1446h1068l-2 -322h-674v-240h564v-314h-567v-246h681v-324h-1070z" />
    <glyph glyph-name="F" unicode="F" horiz-adv-x="1263" 
d="M135 0v1446h1060l-2 -318h-669v-260h559v-310h-559v-558h-389z" />
    <glyph glyph-name="G" unicode="G" horiz-adv-x="1565" 
d="M769 -20q-206 0 -360 93.5t-239 260t-85 384.5q0 225 90.5 393.5t250 261.5t367.5 93q146 0 262 -44t198.5 -119.5t126.5 -170.5t46 -196h-407q-13 59 -42.5 106t-77.5 74.5t-116 27.5q-71 0 -133.5 -38.5t-101 -129t-38.5 -246.5q0 -133 27.5 -214.5t71 -124.5t94.5 -58
t97 -15q41 0 76 12t62 31.5t45.5 43.5t26.5 49l17 52h-252v262l662 -4v-764h-255v160q-36 -37 -86.5 -79t-128.5 -71.5t-198 -29.5z" />
    <glyph glyph-name="H" unicode="H" horiz-adv-x="1547" 
d="M135 0v1446h389v-548h499v548h389v-1446h-389v580h-499v-580h-389z" />
    <glyph glyph-name="I" unicode="I" horiz-adv-x="659" 
d="M135 0v1446h389v-1446h-389z" />
    <glyph glyph-name="J" unicode="J" horiz-adv-x="828" 
d="M292 -20q-61 0 -139 5.5t-123 14.5v350q27 -3 62 -6.5t66 -3.5q104 0 138 53t34 165v888h390v-988q0 -160 -34 -266t-126.5 -159t-267.5 -53z" />
    <glyph glyph-name="K" unicode="K" horiz-adv-x="1497" 
d="M135 0v1446h404v-584l418 584h437l-397 -552l462 -894h-418l-322 610l-180 -232v-378h-404z" />
    <glyph glyph-name="L" unicode="L" horiz-adv-x="1156" 
d="M135 0v1446h389v-1126h578v-320h-967z" />
    <glyph glyph-name="M" unicode="M" horiz-adv-x="1894" 
d="M135 0v1446h578l234 -882l236 882h576v-1446h-390v1048l-282 -1048h-280l-283 1048v-1048h-389z" />
    <glyph glyph-name="N" unicode="N" horiz-adv-x="1615" 
d="M135 0v1446h392l564 -806v806h389v-1446h-351l-605 862v-862h-389z" />
    <glyph glyph-name="O" unicode="O" horiz-adv-x="1570" 
d="M787 -20q-215 0 -372.5 91.5t-243.5 257.5t-86 391q0 226 87.5 393.5t245.5 260t369 92.5q210 0 367 -92.5t244 -260t87 -393.5q0 -224 -85.5 -390.5t-242.5 -258t-370 -91.5zM787 292q80 0 142.5 40.5t98 133t35.5 248.5q0 161 -35.5 257.5t-98 139.5t-142.5 43
t-142.5 -43t-98.5 -139.5t-36 -257.5q0 -156 36 -248.5t98.5 -133t142.5 -40.5z" />
    <glyph glyph-name="P" unicode="P" horiz-adv-x="1334" 
d="M135 0v1446h572q160 0 288.5 -57t203.5 -166.5t75 -266.5q0 -143 -63 -245.5t-179 -157.5t-275 -55h-233v-498h-389zM520 788h225q74 0 123 59t49 129q0 75 -53.5 128.5t-118.5 53.5h-225v-370z" />
    <glyph glyph-name="Q" unicode="Q" horiz-adv-x="1593" 
d="M1487 -250q-116 0 -205.5 15t-169 66t-165.5 159q-52 -6 -87 -8t-73 -2q-215 0 -372.5 91.5t-243.5 257.5t-86 391q0 226 87.5 393.5t245.5 260t369 92.5t368.5 -92.5t244.5 -260t87 -393.5q0 -175 -53 -315t-151 -245q13 -42 72 -74t132 -32v-304zM787 292
q129 0 202.5 94.5t73.5 329.5q0 242 -75 340t-201 98t-200.5 -98t-74.5 -340q0 -235 73 -329.5t202 -94.5z" />
    <glyph glyph-name="R" unicode="R" horiz-adv-x="1427" 
d="M135 0v1446h656q188 0 302.5 -62t166.5 -167.5t52 -236.5q0 -111 -29.5 -189.5t-81 -134t-118.5 -96.5l254 -560h-399l-210 498h-204v-498h-389zM524 788h223q75 0 124.5 59t49.5 129q0 75 -54 128.5t-120 53.5h-223v-370z" />
    <glyph glyph-name="S" unicode="S" horiz-adv-x="1424" 
d="M726 -20q-112 0 -221.5 28t-201 85t-150.5 143.5t-68 203.5h396q11 -51 44 -87t89.5 -55.5t135.5 -19.5q47 0 95 11.5t80.5 39t32.5 75.5q0 63 -52 86.5t-123 36.5l-247 44q-129 23 -221 77.5t-140.5 142.5t-48.5 211q0 146 81 249.5t220 158t312 54.5q189 0 321.5 -58
t203.5 -161t74 -237h-386q-6 55 -34 89t-75.5 50.5t-114.5 16.5q-108 0 -151 -38t-43 -82q0 -45 35.5 -76.5t126.5 -46.5l215 -35q151 -24 247.5 -84t142.5 -150t46 -206q0 -141 -81.5 -245.5t-221.5 -162.5t-318 -58z" />
    <glyph glyph-name="T" unicode="T" horiz-adv-x="1274" 
d="M440 0v1104h-410v342h1214v-342h-414v-1104h-390z" />
    <glyph glyph-name="U" unicode="U" horiz-adv-x="1491" 
d="M759 -20q-233 0 -369.5 78t-195.5 217t-59 323v848h394v-864q0 -150 69.5 -213t160.5 -63q60 0 112.5 27.5t85 88t32.5 160.5v864h394v-848q0 -184 -59 -323t-195.5 -217t-369.5 -78z" />
    <glyph glyph-name="V" unicode="V" horiz-adv-x="1464" 
d="M518 0l-488 1446h367l335 -990l334 990h368l-488 -1446h-428z" />
    <glyph glyph-name="W" unicode="W" horiz-adv-x="1964" 
d="M466 0l-436 1446h376l224 -776l216 776h272l224 -776l216 776h376l-432 -1446h-290l-230 786l-230 -786h-286z" />
    <glyph glyph-name="X" unicode="X" horiz-adv-x="1486" 
d="M30 0l472 730l-460 716h482l224 -392l222 392h408l-432 -660l510 -786h-486l-266 454l-260 -454h-414z" />
    <glyph glyph-name="Y" unicode="Y" horiz-adv-x="1444" 
d="M524 0v602l-509 844h420l286 -514l283 514h425l-515 -844v-602h-390z" />
    <glyph glyph-name="Z" unicode="Z" horiz-adv-x="1399" 
d="M90 0v178l681 948h-618v320h1178v-170l-695 -952h683v-324h-1229z" />
    <glyph glyph-name="bracketleft" unicode="[" horiz-adv-x="736" 
d="M120 -322v1768h536v-208h-226v-1352h226v-208h-536z" />
    <glyph glyph-name="backslash" unicode="\" horiz-adv-x="818" 
d="M530 0l-510 1446h258l510 -1446h-258z" />
    <glyph glyph-name="bracketright" unicode="]" horiz-adv-x="736" 
d="M80 -322v208h226v1352h-226v208h536v-1768h-536z" />
    <glyph glyph-name="asciicircum" unicode="^" horiz-adv-x="988" 
d="M664 234l-184 444l-184 -444h-246l324 748q20 45 63 61.5t86.5 2t64.5 -61.5l320 -750h-244z" />
    <glyph glyph-name="underscore" unicode="_" 
d="M110 -312v272h940v-272h-940z" />
    <glyph glyph-name="grave" unicode="`" horiz-adv-x="610" 
d="M328 1155l-317 291h383l206 -291h-272z" />
    <glyph glyph-name="a" unicode="a" horiz-adv-x="1157" 
d="M423 -20q-97 0 -178.5 38t-130 111.5t-48.5 180.5q0 168 133.5 261t415.5 93h80v44q0 50 -27.5 73t-86.5 21q-40 -1 -88 -19t-72 -71h-315q6 122 73 197.5t177 110t243 34.5q180 0 282 -41t144 -113.5t42 -167.5v-732h-322l-34 164q-46 -105 -114 -144.5t-174 -39.5z
M560 226q28 0 52.5 10t42.5 27.5t28.5 39.5t11.5 47v130h-62q-31 0 -79 -11.5t-85.5 -39.5t-37.5 -79q0 -58 39.5 -91t89.5 -33z" />
    <glyph glyph-name="b" unicode="b" horiz-adv-x="1238" 
d="M734 -20q-63 0 -113 16t-88.5 46t-66 73t-45.5 97l-46 -212h-275v1486h390v-570q24 40 57 66.5t71.5 42t78.5 22.5t79 7q191 0 296.5 -142.5t105.5 -387.5q0 -165 -51.5 -287t-150.5 -189.5t-242 -67.5zM642 252q66 0 113 59.5t47 212.5q0 144 -47 200t-113 56
q-45 0 -79.5 -25.5t-53.5 -82t-19 -148.5q0 -153 42 -212.5t110 -59.5z" />
    <glyph glyph-name="c" unicode="c" horiz-adv-x="1101" 
d="M581 -20q-148 0 -266 67t-186.5 187t-68.5 278q0 160 68 282t186 191t267 69q146 0 246.5 -62t153 -163t54.5 -217h-315q-4 29 -17 65t-41 62.5t-78 26.5q-75 0 -120.5 -62.5t-45.5 -187.5q0 -127 49 -197.5t125 -70.5q49 0 76.5 29.5t40 65.5t15.5 57h306
q0 -110 -53.5 -206t-153.5 -155t-242 -59z" />
    <glyph glyph-name="d" unicode="d" horiz-adv-x="1238" 
d="M504 -20q-214 0 -329 148.5t-115 395.5q0 163 47.5 282t137.5 183.5t217 64.5q39 0 79 -7t78.5 -22.5t71.5 -42t57 -66.5v570h390v-1486h-275l-46 212q-18 -54 -45.5 -97t-66 -73t-88.5 -46t-113 -16zM596 252q68 0 110 59.5t42 212.5q0 92 -19 148.5t-53 82t-80 25.5
q-66 0 -113 -56t-47 -200q0 -153 47 -212.5t113 -59.5z" />
    <glyph glyph-name="e" unicode="e" 
d="M608 -20q-161 0 -283.5 65.5t-190.5 183.5t-68 275q0 148 62.5 273t180 201t283.5 76q169 0 282 -70t169.5 -191.5t56.5 -274.5v-90h-652q-1 -62 19 -101t54.5 -57t76.5 -18q53 0 95.5 20t66.5 80h344q-16 -115 -91 -198.5t-182.5 -128.5t-222.5 -45zM446 646h295
q0 39 -17 72.5t-50 53.5t-82 20q-40 0 -73 -20t-53 -53.5t-20 -72.5z" />
    <glyph glyph-name="f" unicode="f" horiz-adv-x="794" 
d="M196 0v770h-166v264h166v138q0 128 84 201t226 73h276l2 -252h-120q-48 0 -67 -21.5t-19 -78.5v-60h196v-264h-188v-770h-390z" />
    <glyph glyph-name="g" unicode="g" horiz-adv-x="1268" 
d="M618 -342q-306 0 -456 69.5t-150 168.5q0 50 29 82.5t68 50.5t71 26t38 9q-15 8 -50 27t-65.5 54.5t-30.5 92.5q0 62 58.5 114t179.5 68q-112 50 -167 138t-55 170q0 104 73 176t192.5 109t260.5 37q111 0 179 -22t125 -52q29 11 69.5 26.5t87 33.5t93.5 37t90 37
l-2 -276l-176 -24q6 -22 9 -46.5t3 -33.5q0 -88 -57 -169.5t-169 -134t-276 -52.5q-24 0 -68 1.5t-70 4.5q-15 -3 -21.5 -6.5t-6.5 -11.5q0 -21 45 -25t121 -9q27 -1 83.5 -4t122.5 -8q215 -15 313.5 -102.5t98.5 -207.5q0 -150 -148 -249t-442 -99zM678 -138q102 0 132 18
t30 46q0 33 -34 53.5t-94 24.5l-188 12q-54 3 -83 -8.5t-40 -30t-11 -35.5q0 -49 70 -64.5t218 -15.5zM602 578q56 0 90 39t34 97q0 59 -34 102.5t-90 43.5q-55 0 -89.5 -43.5t-34.5 -102.5q0 -58 34.5 -97t89.5 -39z" />
    <glyph glyph-name="h" unicode="h" horiz-adv-x="1213" 
d="M100 0v1486h389v-599q24 30 56.5 64t84 58.5t132.5 24.5q97 0 179 -39.5t132 -116.5t50 -190v-688h-390v638q0 51 -39 76.5t-83 25.5q-28 0 -56.5 -12.5t-47 -36.5t-18.5 -58v-633h-389z" />
    <glyph glyph-name="i" unicode="i" horiz-adv-x="570" 
d="M100 0v1034h370v-1034h-370zM100 1118v328h370v-328h-370z" />
    <glyph glyph-name="j" unicode="j" horiz-adv-x="624" 
d="M117 -332q-78 0 -106.5 17l-28.5 17l-2 260l61 10q55 12 74.5 32.5t19.5 51.5v978h389v-978q0 -192 -100 -290t-307 -98zM135 1118v328h389v-328h-389z" />
    <glyph glyph-name="k" unicode="k" horiz-adv-x="1192" 
d="M100 0v1486h389v-800l284 348h407l-378 -428l380 -606h-378l-239 380l-76 -88v-292h-389z" />
    <glyph glyph-name="l" unicode="l" horiz-adv-x="705" 
d="M493 -22q-143 0 -223.5 30.5t-116.5 79.5t-44.5 108t-8.5 116v1174h381v-1122q0 -37 19 -70t98 -44l42 -4v-236q-35 -13 -72 -22.5t-75 -9.5z" />
    <glyph glyph-name="m" unicode="m" horiz-adv-x="1847" 
d="M100 0v1034h383v-143q51 68 135 115.5t205 47.5q50 0 102.5 -18.5t100 -54.5t81.5 -90q51 66 132 114.5t179 48.5q60 0 120 -21.5t109.5 -66t79.5 -113.5t30 -165v-688h-390v635q0 34 -18.5 58t-47 36.5t-58.5 12.5q-29 0 -57 -12.5t-46.5 -36.5t-18.5 -58v-635h-388v635
q0 34 -18 58t-46 36.5t-58 12.5q-29 0 -57 -12.5t-46.5 -36.5t-18.5 -58v-635h-389z" />
    <glyph glyph-name="n" unicode="n" horiz-adv-x="1215" 
d="M100 0v1034h385v-143q22 33 56 67t88 57t135 23q91 0 173.5 -35t135 -112t52.5 -203v-688h-390v635q0 51 -38 78t-82 27q-28 0 -57.5 -12t-49 -35.5t-19.5 -57.5v-635h-389z" />
    <glyph glyph-name="o" unicode="o" 
d="M584 -20q-160 0 -277.5 68t-182 187.5t-64.5 274.5q0 163 67.5 285.5t186 190.5t272.5 68q162 0 279.5 -70.5t181 -193.5t63.5 -280q0 -154 -64.5 -273.5t-182.5 -188t-279 -68.5zM586 262q62 0 93.5 42.5t42 103.5t10.5 116q0 56 -10.5 114.5t-42 98t-93.5 39.5
q-63 0 -94.5 -39.5t-42.5 -98t-11 -114.5q0 -55 11 -116t42.5 -103.5t94.5 -42.5z" />
    <glyph glyph-name="p" unicode="p" horiz-adv-x="1235" 
d="M100 -322v1356h391v-120q29 40 66.5 67t78.5 43t82 23t77 7q108 0 194 -57t136 -175.5t50 -301.5q0 -197 -59.5 -315.5t-156 -171.5t-206.5 -53q-32 0 -67.5 8t-71 25.5t-67.5 45t-58 67.5v-448h-389zM651 258q65 0 114.5 61.5t49.5 200.5q0 126 -49.5 193t-114.5 67
q-85 0 -123.5 -77.5t-38.5 -182.5q0 -63 17 -123.5t52.5 -99.5t92.5 -39z" />
    <glyph glyph-name="q" unicode="q" horiz-adv-x="1235" 
d="M746 -322v448q-25 -40 -57.5 -67.5t-68 -45t-71 -25.5t-67.5 -8q-110 0 -206.5 53t-156 171.5t-59.5 315.5q0 183 50 301.5t136 175.5t194 57q36 0 77 -7t82 -23t78.5 -43t66.5 -67v120h391v-1356h-389zM584 258q57 0 93 39t52.5 99.5t16.5 123.5q0 105 -38 182.5
t-124 77.5q-64 0 -114 -67t-50 -193q0 -139 50 -200.5t114 -61.5z" />
    <glyph glyph-name="r" unicode="r" horiz-adv-x="863" 
d="M100 0v1034h376v-286q24 83 68.5 152.5t113.5 111.5t165 42h11h4v-368q-3 1 -5.5 1t-7.5 1q-109 11 -175.5 -2t-101.5 -42.5t-47 -68t-12 -79.5v-496h-389z" />
    <glyph glyph-name="s" unicode="s" horiz-adv-x="1092" 
d="M556 -20q-108 0 -214 37t-183 118t-99 213h330q13 -50 46 -74t67 -31t51 -7q65 0 105 15.5t40 46.5q0 29 -27 45.5t-97 26.5l-153 24q-148 27 -239 102t-93 214q-1 96 53.5 174t160 124t256.5 46q212 0 336 -92t124 -250h-317q-11 47 -53 69.5t-95 22.5q-54 0 -91.5 -16
t-37.5 -46q0 -27 36 -43.5t119 -30.5l133 -24q100 -24 161.5 -65t94 -88.5t44.5 -93t12 -77.5q0 -111 -62.5 -186.5t-169 -114.5t-238.5 -39z" />
    <glyph glyph-name="t" unicode="t" horiz-adv-x="882" 
d="M606 -16q-163 0 -251.5 40.5t-122.5 108.5t-34 151v486h-168v264h182l100 322h274v-320h226v-266h-226l2 -468q0 -23 8.5 -35t22.5 -16.5t31 -4.5h162v-230q-21 -10 -67 -21t-139 -11z" />
    <glyph glyph-name="u" unicode="u" horiz-adv-x="1217" 
d="M481 -20q-63 0 -131 21.5t-127 63.5t-96 102.5t-37 138.5v728h390v-674q0 -45 33 -75.5t92 -30.5t92.5 30.5t33.5 75.5v674h386v-1034h-288l-46 212q-19 -103 -72 -152.5t-116.5 -64.5t-113.5 -15z" />
    <glyph glyph-name="v" unicode="v" horiz-adv-x="1070" 
d="M410 0l-402 1034h346l182 -528v0l174 528h353l-403 -1034h-250z" />
    <glyph glyph-name="w" unicode="w" horiz-adv-x="1593" 
d="M358 0l-349 1034h338l162 -502v0l151 502h271l147 -504v0l160 504h347l-364 -1034h-279l-154 502l-163 -502h-267z" />
    <glyph glyph-name="x" unicode="x" horiz-adv-x="1218" 
d="M10 0l396 540l-360 494h400l166 -224l164 224h400l-364 -494l396 -540h-400l-198 274l-200 -274h-400z" />
    <glyph glyph-name="y" unicode="y" horiz-adv-x="1177" 
d="M315 -330q-120 0 -172.5 22l-52.5 22v246l99 -6q76 -6 119.5 4.5t63.5 28t26 33.5t7 20l4 20l-401 974h382l196 -562l203 562h381l-404 -974q-67 -163 -137 -247t-147.5 -113.5t-166.5 -29.5z" />
    <glyph glyph-name="z" unicode="z" horiz-adv-x="1021" 
d="M50 0v206l444 562h-417v266h892v-206l-445 -562h447v-266h-921z" />
    <glyph glyph-name="braceleft" unicode="{" horiz-adv-x="872" 
d="M612 -322q-80 0 -162.5 28t-138 86.5t-55.5 151.5v384q0 47 -22.5 82t-72.5 54.5t-131 19.5v180q123 0 174.5 38.5t51.5 125.5v354q0 91 55.5 149.5t136.5 86.5t158 28h186v-208h-102q-62 0 -88 -15t-31 -39t-5 -50v-370q-3 -66 -39 -104.5t-86.5 -56.5t-96.5 -23
q-12 -1 -12.5 -5.5t12.5 -6.5q45 -4 95.5 -20.5t87 -59t39.5 -124.5v-374q0 -55 26 -79.5t98 -24.5h102v-208h-180z" />
    <glyph glyph-name="bar" unicode="|" horiz-adv-x="546" 
d="M135 -322v1974h276v-1974h-276z" />
    <glyph glyph-name="braceright" unicode="}" horiz-adv-x="862" 
d="M20 -322v208h102q72 0 98 24.5t26 79.5v374q3 82 39.5 124.5t87 59t95.5 20.5q14 2 13 6.5t-13 5.5q-46 5 -96.5 23t-86.5 56.5t-39 104.5v370q0 26 -5 50t-31 39t-88 15h-102v208h186q77 0 158 -28t136.5 -86.5t55.5 -149.5v-354q0 -87 51.5 -125.5t174.5 -38.5v-180
q-81 0 -130.5 -19.5t-72.5 -54.5t-23 -82v-384q0 -93 -55.5 -151.5t-138 -86.5t-162.5 -28h-180z" />
    <glyph glyph-name="asciitilde" unicode="~" horiz-adv-x="1304" 
d="M220 510l-110 184q89 95 171 156.5t187 61.5q65 0 114 -21t90 -48t80.5 -48t85.5 -21q69 0 127 49t97 119l112 -180q-63 -115 -152.5 -169.5t-175.5 -54.5q-61 0 -110.5 21t-93.5 49t-87 49t-93 21q-76 0 -132 -52.5t-110 -115.5z" />
    <glyph glyph-name="uni00A0" unicode="&#xa0;" horiz-adv-x="420" 
 />
    <glyph glyph-name="exclamdown" unicode="&#xa1;" horiz-adv-x="622" 
d="M70 -322l110 836h236l106 -836h-452zM90 650v384h410v-384h-410z" />
    <glyph glyph-name="cent" unicode="&#xa2;" horiz-adv-x="1155" 
d="M621 202q-148 0 -266 67t-186.5 187t-68.5 278q0 160 68 282t186 191t267 69q146 0 246.5 -62t153 -163t54.5 -217h-315q-4 29 -17 65t-41 62.5t-78 26.5q-75 0 -120.5 -62.5t-45.5 -187.5q0 -127 49 -197.5t125 -70.5q49 0 76.5 29.5t40 65.5t15.5 57h306
q0 -110 -53.5 -206t-153.5 -155t-242 -59zM500 0v382h244v-382h-244zM500 1064v382h244v-382h-244z" />
    <glyph glyph-name="sterling" unicode="&#xa3;" horiz-adv-x="1360" 
d="M50 0v318h62q74 0 118 32.5t44 111.5q0 45 -4.5 86.5t-13.5 119.5h-206v202h162l-10 194q-7 101 30.5 176t107 125.5t160.5 75.5t190 25q120 0 220.5 -37t176.5 -111t123 -184l-336 -96q-30 71 -55 99.5t-67 28.5q-30 0 -51.5 -14t-33 -41t-11.5 -65q0 -28 5 -67.5
t15 -108.5h266v-202h-238q2 -66 -1.5 -107.5t-18.5 -86.5q-10 -32 -23.5 -55t-35.5 -45.5t-57 -53.5h198q92 0 130 35.5t68 120.5l326 -64q-49 -204 -170 -308t-322 -104h-748z" />
    <glyph glyph-name="currency" unicode="&#xa4;" horiz-adv-x="1226" 
d="M202 178l-152 156l144 142q-36 60 -54 117.5t-18 132.5q0 131 60 234q10 20 -4 34l-128 128l152 158l146 -146q57 35 121.5 55.5t128.5 20.5q133 0 250 -68q13 -7 22 2l114 116l152 -156l-126 -124q36 -58 55 -120.5t19 -131.5q0 -64 -17 -128.5t-53 -117.5q-3 -7 0 -10
l122 -120l-152 -156l-124 126q-58 -36 -121 -56t-131 -20q-132 0 -242 64q-19 11 -34 -4zM602 488q69 0 123.5 33.5t85.5 88t31 118.5q0 63 -31 117.5t-85.5 88.5t-123.5 34q-68 0 -122.5 -34t-86 -88.5t-31.5 -117.5q0 -64 31.5 -118.5t86 -88t122.5 -33.5z" />
    <glyph glyph-name="yen" unicode="&#xa5;" horiz-adv-x="1404" 
d="M488 0v602l-518 844h504l280 -504l274 504h406l-504 -808v-638h-442zM196 186v196h1026v-196h-1026zM196 516v198h1026v-198h-1026z" />
    <glyph glyph-name="brokenbar" unicode="&#xa6;" horiz-adv-x="546" 
d="M135 824v828h276v-828h-276zM135 -322v828h276v-828h-276z" />
    <glyph glyph-name="section" unicode="&#xa7;" horiz-adv-x="1066" 
d="M526 -166q-130 0 -229 34t-164 87.5t-93 112.5l232 112q38 -43 91 -82.5t153 -39.5q63 0 102.5 19t39.5 59q0 30 -26 53.5t-98 50.5l-136 50q-177 66 -258.5 141.5t-81.5 202.5q0 92 41.5 158.5t116.5 105.5q-49 33 -79.5 69t-44.5 77t-14 88q0 94 51 169.5t147.5 120
t231.5 44.5q113 0 204.5 -33.5t154.5 -87t91 -113.5l-232 -110q-40 42 -89 81t-121 39q-45 0 -71.5 -19.5t-26.5 -52.5q0 -28 28 -44t46 -22l146 -54q177 -66 258.5 -141t81.5 -203q0 -90 -38.5 -154.5t-109.5 -109.5q92 -51 129 -110t37 -142q0 -105 -52.5 -185
t-157 -125.5t-260.5 -45.5zM584 552q32 -4 53 9.5t29.5 38t3.5 54.5q-6 29 -38 53.5t-98 48.5l-72 28q-37 -3 -58.5 -16t-30.5 -33t-9 -43q0 -34 26.5 -55t111.5 -53z" />
    <glyph glyph-name="dieresis" unicode="&#xa8;" horiz-adv-x="918" 
d="M546 1155l4 291h358l-4 -291h-358zM10 1155l4 291h358l-4 -291h-358z" />
    <glyph glyph-name="copyright" unicode="&#xa9;" horiz-adv-x="1686" 
d="M832 -20q-154 0 -288.5 57.5t-236.5 159.5t-159.5 237t-57.5 290q0 153 57.5 287.5t159.5 236.5t236.5 160t288.5 58t288.5 -58t237 -160t160.5 -236.5t58 -287.5q0 -155 -58 -290t-160.5 -237t-237 -159.5t-288.5 -57.5zM838 314q-119 0 -212 52t-146.5 144.5
t-53.5 213.5q0 124 54 217t147 145t211 52q110 0 187.5 -45.5t122 -113t56.5 -133.5l-262 -14q-4 36 -22 77t-74 41q-54 0 -86 -51t-32 -171q0 -126 36 -176t100 -50q65 0 96 37t58 91l184 -36q-5 -32 -28 -79t-66.5 -93t-110 -77t-159.5 -31zM832 178q119 0 216 38
t166.5 109.5t106.5 172.5t37 226q0 124 -37 224.5t-106.5 173t-166.5 111.5t-216 39q-121 0 -217.5 -39t-165 -111.5t-105 -173t-36.5 -224.5q0 -125 36.5 -226t105 -172.5t165 -109.5t217.5 -38z" />
    <glyph glyph-name="ordfeminine" unicode="&#xaa;" horiz-adv-x="809" 
d="M278 796q-104 0 -158 52t-54 134q0 99 95.5 163.5t257.5 64.5h48v40q0 47 -27 58.5t-44 11.5q-30 0 -59 -14.5t-46 -59.5l-210 40q39 89 106 134.5t215 45.5q172 -1 234 -54t62 -146v-138.5v-125.5q0 -7 0.5 -36.5t2 -62t4.5 -47.5l14 -48h-237l-15 56q-52 -33 -92 -50.5
t-97 -17.5zM375 940q44 0 73 24q8 8 13.5 15.5t5.5 22.5v88h-40q-53 0 -89.5 -25t-36.5 -67q0 -25 19 -41.5t55 -16.5z" />
    <glyph glyph-name="guillemotleft" unicode="&#xab;" horiz-adv-x="1080" 
d="M740 118l-216 384l214 400h202l-128 -400l128 -384h-200zM334 118l-214 384l212 400h202l-128 -400l128 -384h-200z" />
    <glyph glyph-name="logicalnot" unicode="&#xac;" horiz-adv-x="1238" 
d="M110 590v276h1018v-276h-1018zM816 274v492h312v-492h-312z" />
    <glyph glyph-name="uni00AD" unicode="&#xad;" horiz-adv-x="814" 
d="M117 376v274h580v-274h-580z" />
    <glyph glyph-name="registered" unicode="&#xae;" horiz-adv-x="1130" 
d="M556 536q-130 0 -235.5 62t-168 167.5t-62.5 234.5t62.5 235t168 168.5t235.5 62.5q128 0 233.5 -62.5t168 -168.5t62.5 -235t-62.5 -234.5t-168 -167.5t-233.5 -62zM556 674q95 0 165 40.5t108.5 113.5t38.5 172t-38.5 173t-108.5 114.5t-165 40.5q-97 0 -167.5 -40.5
t-108.5 -114.5t-38 -173t38 -172t108.5 -113.5t167.5 -40.5zM360 768v460h224q89 0 139.5 -33t50.5 -95q0 -43 -25.5 -75t-64.5 -49l92 -208h-154l-64 192h-58v-192h-140zM500 1052h82q21 0 33.5 12t12.5 30q0 21 -16 31.5t-36 10.5h-76v-84z" />
    <glyph glyph-name="macron" unicode="&#xaf;" horiz-adv-x="904" 
d="M42 1178v238h800v-238h-800z" />
    <glyph glyph-name="degree" unicode="&#xb0;" horiz-adv-x="968" 
d="M474 962q-102 0 -182 45t-126 125t-46 184q0 103 46 183.5t126 126.5t182 46q101 0 181 -46t126.5 -126.5t46.5 -183.5q0 -104 -46.5 -184t-126.5 -125t-181 -45zM472 1168q63 0 100.5 41t37.5 105q0 63 -37.5 103.5t-102.5 40.5q-63 0 -101 -40.5t-37 -103.5
q2 -64 39 -105t101 -41z" />
    <glyph glyph-name="plusminus" unicode="&#xb1;" horiz-adv-x="1238" 
d="M110 30v274h1018v-274h-1018zM758 1052h370v-276h-370v-370h-276v370h-372v276h372v372h276v-372z" />
    <glyph glyph-name="uni00B2" unicode="&#xb2;" horiz-adv-x="830" 
d="M53 748v108v55q0 80 34 135.5t88 94t114 66.5t114 52.5t88 52.5t34 66q0 41 -28.5 68t-78.5 27t-92 -30.5t-56 -105.5h-231q0 95 42 170t127 119t215 44q168 0 263 -80t95 -209q0 -79 -33 -132.5t-84.5 -88.5t-110 -59.5t-110 -45t-84.5 -45t-33 -60.5v0h449v-202h-722z
" />
    <glyph glyph-name="uni00B3" unicode="&#xb3;" horiz-adv-x="893" 
d="M430 736q-184 0 -277.5 82t-93.5 230h231q14 -71 53 -95.5t87 -24.5q70 0 107.5 27t37.5 68q0 37 -33.5 62.5t-92.5 28.5l-92 5v189l80 6q39 3 66 14.5t40.5 31t13.5 47.5q0 43 -40 61.5t-89 18.5q-38 0 -67.5 -10.5t-48 -36.5t-23.5 -74h-230q0 106 49.5 173.5
t134.5 99.5t192 32q108 0 194 -25.5t136.5 -80.5t50.5 -146q0 -67 -36 -116t-124 -78q64 -17 121 -66.5t57 -145.5q0 -95 -56 -156.5t-148 -91t-200 -29.5z" />
    <glyph glyph-name="acute" unicode="&#xb4;" horiz-adv-x="610" 
d="M10 1155l206 291h383l-317 -291h-272z" />
    <glyph glyph-name="uni00B5" unicode="&#xb5;" horiz-adv-x="1242" 
d="M90 -330v1390h399v-602q0 -32 16 -56t45 -37t67 -13q52 0 84.5 29t35.5 77v602h405l-8 -1060h-391v164q-19 -30 -49 -52t-66 -34q-31 -10 -67.5 -13t-71.5 3v-398h-399z" />
    <glyph glyph-name="paragraph" unicode="&#xb6;" horiz-adv-x="1270" 
d="M462 -166v766q-102 12 -194 59t-150 136.5t-58 228.5q0 120 55 215.5t160.5 151t256.5 55.5h648v-212h-128v-1400h-230v1400h-130v-1400h-230z" />
    <glyph glyph-name="periodcentered" unicode="&#xb7;" horiz-adv-x="572" 
d="M90 554v348h362v-348h-362z" />
    <glyph glyph-name="cedilla" unicode="&#xb8;" horiz-adv-x="622" 
d="M302 -438q-70 0 -138.5 12t-127.5 46l48 118q36 -19 81.5 -35.5t88.5 -16.5q41 0 66.5 14t25.5 38q0 36 -38.5 56t-139.5 20q-15 0 -21 4t1 20l74 172h158l-42 -114q82 0 131 -25.5t71 -63.5t22 -75q0 -52 -36 -90t-95.5 -59t-128.5 -21z" />
    <glyph glyph-name="uni00B9" unicode="&#xb9;" horiz-adv-x="543" 
d="M190 744v643h-151v128q113 0 171 39t68 100h158v-910h-246z" />
    <glyph glyph-name="ordmasculine" unicode="&#xba;" horiz-adv-x="801" 
d="M400 796q-100 0 -177 42.5t-120 117.5t-43 172q0 101 45 177t122 118.5t173 42.5q102 0 178.5 -43.5t119.5 -120t43 -174.5q0 -97 -43.5 -172t-120.5 -117.5t-177 -42.5zM400 952q50 0 72.5 43t22.5 137q0 96 -22.5 139t-72.5 43q-48 0 -71 -43t-23 -139q0 -94 23 -137
t71 -43z" />
    <glyph glyph-name="guillemotright" unicode="&#xbb;" horiz-adv-x="1080" 
d="M524 118l130 384l-130 400h204l212 -400l-214 -384h-202zM120 118l128 384l-128 400h202l212 -400l-214 -384h-200z" />
    <glyph glyph-name="onequarter" unicode="&#xbc;" horiz-adv-x="1733" 
d="M190 536v643h-151v128q113 0 171 39t68 100h158v-910h-246zM456 -8l-215 4l974 1466h213zM1329 3l1 174h-410v190l405 545h238v-536h131v-199h-131v-174h-234zM1142 376h190v253z" />
    <glyph glyph-name="onehalf" unicode="&#xbd;" horiz-adv-x="1866" 
d="M190 536v643h-151v128q113 0 171 39t68 100h158v-910h-246zM456 -8l-215 4l974 1466h213zM1089 0v108v55q0 80 34 135.5t88 94t114 66.5t114 52.5t88 52.5t34 66q0 41 -28.5 68t-78.5 27t-92 -30.5t-56 -105.5h-231q0 95 42 170t127 119t215 44q168 0 263 -80t95 -209
q0 -79 -33 -132.5t-84.5 -88.5t-110 -59.5t-110 -45t-84.5 -45t-33 -60.5v0h449v-202h-722z" />
    <glyph glyph-name="threequarters" unicode="&#xbe;" horiz-adv-x="1993" 
d="M430 526q-184 0 -277.5 82t-93.5 230h231q14 -71 53 -95.5t87 -24.5q70 0 107.5 27t37.5 68q0 37 -33.5 62.5t-92.5 28.5l-92 5v189l80 6q39 3 66 14.5t40.5 31t13.5 47.5q0 43 -40 61.5t-89 18.5q-38 0 -67.5 -10.5t-48 -36.5t-23.5 -74h-230q0 106 49.5 173.5
t134.5 99.5t192 32q108 0 194 -25.5t136.5 -80.5t50.5 -146q0 -67 -36 -116t-124 -78q64 -17 121 -66.5t57 -145.5q0 -95 -56 -156.5t-148 -91t-200 -29.5zM716 -8l-215 4l974 1466h213zM1589 3l1 174h-410v190l405 545h238v-536h131v-199h-131v-174h-234zM1402 376h190v253
z" />
    <glyph glyph-name="questiondown" unicode="&#xbf;" horiz-adv-x="1134" 
d="M574 -342q-171 0 -283 47t-166.5 123.5t-54.5 165.5q0 80 27 135.5t69 96t90 73t90 64.5t69 71.5t27 93.5h306q0 -74 -21.5 -130.5t-55.5 -100t-72 -78.5t-72 -67t-55.5 -64.5t-21.5 -71.5q0 -40 38.5 -67t89.5 -27q44 0 84.5 20.5t73.5 58.5t54 91l324 -68
q-64 -178 -200.5 -272t-339.5 -94zM392 650v384h410v-384h-410z" />
    <glyph glyph-name="Agrave" unicode="&#xc0;" horiz-adv-x="1482" 
d="M30 0l512 1446h398l512 -1446h-384l-96 280h-456l-98 -280h-388zM598 612h286l-142 462zM596 1567l-317 291h383l206 -291h-272z" />
    <glyph glyph-name="Aacute" unicode="&#xc1;" horiz-adv-x="1482" 
d="M30 0l512 1446h398l512 -1446h-384l-96 280h-456l-98 -280h-388zM598 612h286l-142 462zM607 1567l206 291h383l-317 -291h-272z" />
    <glyph glyph-name="Acircumflex" unicode="&#xc2;" horiz-adv-x="1482" 
d="M30 0l512 1446h398l512 -1446h-384l-96 280h-456l-98 -280h-388zM598 612h286l-142 462zM332 1567l276 291h264l268 -291h-278l-124 149l-142 -149h-264z" />
    <glyph glyph-name="Atilde" unicode="&#xc3;" horiz-adv-x="1482" 
d="M30 0l512 1446h398l512 -1446h-384l-96 280h-456l-98 -280h-388zM598 612h286l-142 462zM418 1577l-54 192q39 44 88.5 75.5t127.5 31.5q62 0 118.5 -16.5t108 -33.5t97.5 -17q59 0 108 28t82 54l40 -220q-36 -31 -96.5 -56t-131.5 -25q-58 0 -109 15t-101 29.5
t-106 14.5q-51 0 -88 -15.5t-84 -56.5z" />
    <glyph glyph-name="Adieresis" unicode="&#xc4;" horiz-adv-x="1482" 
d="M30 0l512 1446h398l512 -1446h-384l-96 280h-456l-98 -280h-388zM598 612h286l-142 462zM829 1567l4 291h358l-4 -291h-358zM293 1567l4 291h358l-4 -291h-358z" />
    <glyph glyph-name="Aring" unicode="&#xc5;" horiz-adv-x="1482" 
d="M30 0l512 1446h398l512 -1446h-384l-96 280h-456l-98 -280h-388zM598 612h286l-142 462zM742 1530q-96 0 -162 67.5t-66 164.5q0 92 67 156t161 64q63 0 114.5 -30t82.5 -81t31 -113q0 -96 -66.5 -162t-161.5 -66zM740 1660q39 0 65.5 29.5t26.5 66.5q0 39 -26.5 65.5
t-65.5 26.5t-67.5 -26.5t-28.5 -65.5q0 -37 28.5 -66.5t67.5 -29.5z" />
    <glyph glyph-name="AE" unicode="&#xc6;" horiz-adv-x="2200" 
d="M0 0l750 1446h1342l-2 -318h-680v-244h570v-314h-570v-250h700v-320h-1144v280h-440l-138 -280h-388zM668 612h298v590z" />
    <glyph glyph-name="Ccedilla" unicode="&#xc7;" horiz-adv-x="1490" 
d="M787 -438q-70 0 -138.5 12t-127.5 46l48 118q36 -19 81.5 -35.5t88.5 -16.5q41 0 66.5 14t25.5 38q0 36 -38.5 56t-139.5 20q-15 0 -21 4t1 20l74 172h158l-42 -114q82 0 131 -25.5t71 -63.5t22 -75q0 -52 -36.5 -90t-95.5 -59t-128 -21zM777 -20q-209 0 -364.5 99
t-241.5 271t-86 392t85 382.5t240.5 252t366.5 89.5q172 0 308 -67.5t220 -187t100 -275.5h-406q-11 67 -41 116t-78.5 75.5t-115.5 26.5q-73 0 -130 -38t-89.5 -129.5t-32.5 -250.5q0 -241 71 -342.5t181 -101.5q67 0 115.5 34t78.5 90.5t41 123.5h406q-15 -112 -50.5 -213
t-105 -179.5t-184.5 -123t-288 -44.5z" />
    <glyph glyph-name="Egrave" unicode="&#xc8;" horiz-adv-x="1295" 
d="M135 0v1446h1068l-2 -322h-674v-240h564v-314h-567v-246h681v-324h-1070zM523 1567l-317 291h383l206 -291h-272z" />
    <glyph glyph-name="Eacute" unicode="&#xc9;" horiz-adv-x="1295" 
d="M135 0v1446h1068l-2 -322h-674v-240h564v-314h-567v-246h681v-324h-1070zM534 1567l206 291h383l-317 -291h-272z" />
    <glyph glyph-name="Ecircumflex" unicode="&#xca;" horiz-adv-x="1295" 
d="M135 0v1446h1068l-2 -322h-674v-240h564v-314h-567v-246h681v-324h-1070zM261 1567l276 291h264l268 -291h-278l-124 149l-142 -149h-264z" />
    <glyph glyph-name="Edieresis" unicode="&#xcb;" horiz-adv-x="1295" 
d="M135 0v1446h1068l-2 -322h-674v-240h564v-314h-567v-246h681v-324h-1070zM756 1567l4 291h358l-4 -291h-358zM220 1567l4 291h358l-4 -291h-358z" />
    <glyph glyph-name="Igrave" unicode="&#xcc;" horiz-adv-x="659" 
d="M135 0v1446h389v-1446h-389zM185 1567l-317 291h383l206 -291h-272z" />
    <glyph glyph-name="Iacute" unicode="&#xcd;" horiz-adv-x="659" 
d="M135 0v1446h389v-1446h-389zM196 1567l206 291h383l-317 -291h-272z" />
    <glyph glyph-name="Icircumflex" unicode="&#xce;" horiz-adv-x="659" 
d="M135 0v1446h389v-1446h-389zM-77 1567l276 291h264l268 -291h-278l-124 149l-142 -149h-264z" />
    <glyph glyph-name="Idieresis" unicode="&#xcf;" horiz-adv-x="659" 
d="M135 0v1446h389v-1446h-389zM418 1567l4 291h358l-4 -291h-358zM-118 1567l4 291h358l-4 -291h-358z" />
    <glyph glyph-name="Eth" unicode="&#xd0;" horiz-adv-x="1574" 
d="M70 577v274h796v-274h-796zM221 0v1446h80t148.5 0.5t164.5 0t127 -2.5q261 -9 426.5 -102t243.5 -251t78 -363q0 -211 -81 -375.5t-247 -258.5t-422 -94h-518zM610 306h141q74 0 150.5 41.5t129 135.5t52.5 251q0 133 -41.5 223.5t-116.5 136.5t-174 46h-141v-834z" />
    <glyph glyph-name="Ntilde" unicode="&#xd1;" horiz-adv-x="1615" 
d="M135 0v1446h392l564 -806v806h389v-1446h-351l-605 862v-862h-389zM483 1577l-54 192q39 44 88.5 75.5t127.5 31.5q62 0 118.5 -16.5t108 -33.5t97.5 -17q59 0 108 28t82 54l40 -220q-36 -31 -96.5 -56t-131.5 -25q-58 0 -109 15t-101 29.5t-106 14.5q-51 0 -88 -15.5
t-84 -56.5z" />
    <glyph glyph-name="Ograve" unicode="&#xd2;" horiz-adv-x="1570" 
d="M787 -20q-215 0 -372.5 91.5t-243.5 257.5t-86 391q0 226 87.5 393.5t245.5 260t369 92.5q210 0 367 -92.5t244 -260t87 -393.5q0 -224 -85.5 -390.5t-242.5 -258t-370 -91.5zM787 292q80 0 142.5 40.5t98 133t35.5 248.5q0 161 -35.5 257.5t-98 139.5t-142.5 43
t-142.5 -43t-98.5 -139.5t-36 -257.5q0 -156 36 -248.5t98.5 -133t142.5 -40.5zM639 1567l-317 291h383l206 -291h-272z" />
    <glyph glyph-name="Oacute" unicode="&#xd3;" horiz-adv-x="1570" 
d="M787 -20q-215 0 -372.5 91.5t-243.5 257.5t-86 391q0 226 87.5 393.5t245.5 260t369 92.5q210 0 367 -92.5t244 -260t87 -393.5q0 -224 -85.5 -390.5t-242.5 -258t-370 -91.5zM787 292q80 0 142.5 40.5t98 133t35.5 248.5q0 161 -35.5 257.5t-98 139.5t-142.5 43
t-142.5 -43t-98.5 -139.5t-36 -257.5q0 -156 36 -248.5t98.5 -133t142.5 -40.5zM650 1567l206 291h383l-317 -291h-272z" />
    <glyph glyph-name="Ocircumflex" unicode="&#xd4;" horiz-adv-x="1570" 
d="M787 -20q-215 0 -372.5 91.5t-243.5 257.5t-86 391q0 226 87.5 393.5t245.5 260t369 92.5q210 0 367 -92.5t244 -260t87 -393.5q0 -224 -85.5 -390.5t-242.5 -258t-370 -91.5zM787 292q80 0 142.5 40.5t98 133t35.5 248.5q0 161 -35.5 257.5t-98 139.5t-142.5 43
t-142.5 -43t-98.5 -139.5t-36 -257.5q0 -156 36 -248.5t98.5 -133t142.5 -40.5zM377 1567l276 291h264l268 -291h-278l-124 149l-142 -149h-264z" />
    <glyph glyph-name="Otilde" unicode="&#xd5;" horiz-adv-x="1570" 
d="M787 -20q-215 0 -372.5 91.5t-243.5 257.5t-86 391q0 226 87.5 393.5t245.5 260t369 92.5q210 0 367 -92.5t244 -260t87 -393.5q0 -224 -85.5 -390.5t-242.5 -258t-370 -91.5zM787 292q80 0 142.5 40.5t98 133t35.5 248.5q0 161 -35.5 257.5t-98 139.5t-142.5 43
t-142.5 -43t-98.5 -139.5t-36 -257.5q0 -156 36 -248.5t98.5 -133t142.5 -40.5zM461 1577l-54 192q39 44 88.5 75.5t127.5 31.5q62 0 118.5 -16.5t108 -33.5t97.5 -17q59 0 108 28t82 54l40 -220q-36 -31 -96.5 -56t-131.5 -25q-58 0 -109 15t-101 29.5t-106 14.5
q-51 0 -88 -15.5t-84 -56.5z" />
    <glyph glyph-name="Odieresis" unicode="&#xd6;" horiz-adv-x="1570" 
d="M787 -20q-215 0 -372.5 91.5t-243.5 257.5t-86 391q0 226 87.5 393.5t245.5 260t369 92.5q210 0 367 -92.5t244 -260t87 -393.5q0 -224 -85.5 -390.5t-242.5 -258t-370 -91.5zM787 292q80 0 142.5 40.5t98 133t35.5 248.5q0 161 -35.5 257.5t-98 139.5t-142.5 43
t-142.5 -43t-98.5 -139.5t-36 -257.5q0 -156 36 -248.5t98.5 -133t142.5 -40.5zM872 1567l4 291h358l-4 -291h-358zM336 1567l4 291h358l-4 -291h-358z" />
    <glyph glyph-name="multiply" unicode="&#xd7;" horiz-adv-x="1220" 
d="M304 230l-192 196l802 802l196 -196zM910 230l-800 802l192 196l804 -802z" />
    <glyph glyph-name="Oslash" unicode="&#xd8;" horiz-adv-x="1598" 
d="M186 -28l-156 162l164 158q-51 87 -78.5 194.5t-27.5 233.5q0 226 87 393.5t245 260t370 92.5q137 0 251 -39t201 -113l164 158l152 -160l-174 -172q51 -85 77.5 -191t26.5 -229q0 -224 -85.5 -390.5t-242.5 -258t-370 -91.5q-135 0 -248 37.5t-200 104.5zM790 284
q86 0 138 51.5t74 166.5q12 56 17 127t5 161l-418 -410q55 -96 184 -96zM552 640l422 412q-28 60 -73.5 87t-110.5 27q-93 0 -147 -64.5t-75 -207.5q-9 -52 -12.5 -115.5t-3.5 -138.5z" />
    <glyph glyph-name="Ugrave" unicode="&#xd9;" horiz-adv-x="1491" 
d="M759 -20q-233 0 -369.5 78t-195.5 217t-59 323v848h394v-864q0 -150 69.5 -213t160.5 -63q60 0 112.5 27.5t85 88t32.5 160.5v864h394v-848q0 -184 -59 -323t-195.5 -217t-369.5 -78zM613 1567l-317 291h383l206 -291h-272z" />
    <glyph glyph-name="Uacute" unicode="&#xda;" horiz-adv-x="1491" 
d="M759 -20q-233 0 -369.5 78t-195.5 217t-59 323v848h394v-864q0 -150 69.5 -213t160.5 -63q60 0 112.5 27.5t85 88t32.5 160.5v864h394v-848q0 -184 -59 -323t-195.5 -217t-369.5 -78zM624 1567l206 291h383l-317 -291h-272z" />
    <glyph glyph-name="Ucircumflex" unicode="&#xdb;" horiz-adv-x="1491" 
d="M759 -20q-233 0 -369.5 78t-195.5 217t-59 323v848h394v-864q0 -150 69.5 -213t160.5 -63q60 0 112.5 27.5t85 88t32.5 160.5v864h394v-848q0 -184 -59 -323t-195.5 -217t-369.5 -78zM351 1567l276 291h264l268 -291h-278l-124 149l-142 -149h-264z" />
    <glyph glyph-name="Udieresis" unicode="&#xdc;" horiz-adv-x="1491" 
d="M759 -20q-233 0 -369.5 78t-195.5 217t-59 323v848h394v-864q0 -150 69.5 -213t160.5 -63q60 0 112.5 27.5t85 88t32.5 160.5v864h394v-848q0 -184 -59 -323t-195.5 -217t-369.5 -78zM846 1567l4 291h358l-4 -291h-358zM310 1567l4 291h358l-4 -291h-358z" />
    <glyph glyph-name="Yacute" unicode="&#xdd;" horiz-adv-x="1444" 
d="M524 0v602l-509 844h420l286 -514l283 514h425l-515 -844v-602h-390zM636 1567l206 291h383l-317 -291h-272z" />
    <glyph glyph-name="Thorn" unicode="&#xde;" horiz-adv-x="1416" 
d="M135 0v1446h389v-260h264q165 0 293 -51t201.5 -153t73.5 -255q0 -141 -73.5 -242t-201.5 -155t-293 -54h-264v-276h-389zM524 588h246q56 0 96 13.5t62 44.5t22 83t-22 84t-62 47t-96 15h-246v-287z" />
    <glyph glyph-name="germandbls" unicode="&#xdf;" horiz-adv-x="1323" 
d="M808 -20q-90 0 -153.5 18.5t-109.5 45.5l106 232q25 -16 60.5 -36t87.5 -20q45 0 79.5 21t34.5 67q0 28 -16 47t-49 36t-84 39q-62 28 -111 68t-77.5 94.5t-28.5 125.5q0 77 32 130t69 92q28 29 54 55.5t43 53.5t17 59q0 39 -31 67.5t-93 28.5q-77 0 -116 -47t-39 -113
v-1044h-381l-2 968q3 88 31.5 173t90.5 154t167 110t262 41q144 0 246.5 -35t157 -105t54.5 -174q0 -68 -27.5 -121.5t-88.5 -97.5t-162 -85q-4 -1 -7 -5t-3 -7q0 -4 3.5 -8.5t10.5 -7.5q82 -37 158 -75.5t135.5 -88.5t94 -119t34.5 -167q0 -121 -55 -203.5t-155.5 -124.5
t-238.5 -42z" />
    <glyph glyph-name="agrave" unicode="&#xe0;" horiz-adv-x="1157" 
d="M423 -20q-97 0 -178.5 38t-130 111.5t-48.5 180.5q0 168 133.5 261t415.5 93h80v44q0 50 -27.5 73t-86.5 21q-40 -1 -88 -19t-72 -71h-315q6 122 73 197.5t177 110t243 34.5q180 0 282 -41t144 -113.5t42 -167.5v-732h-322l-34 164q-46 -105 -114 -144.5t-174 -39.5z
M560 226q28 0 52.5 10t42.5 27.5t28.5 39.5t11.5 47v130h-62q-31 0 -79 -11.5t-85.5 -39.5t-37.5 -79q0 -58 39.5 -91t89.5 -33zM458 1155l-317 291h383l206 -291h-272z" />
    <glyph glyph-name="aacute" unicode="&#xe1;" horiz-adv-x="1157" 
d="M423 -20q-97 0 -178.5 38t-130 111.5t-48.5 180.5q0 168 133.5 261t415.5 93h80v44q0 50 -27.5 73t-86.5 21q-40 -1 -88 -19t-72 -71h-315q6 122 73 197.5t177 110t243 34.5q180 0 282 -41t144 -113.5t42 -167.5v-732h-322l-34 164q-46 -105 -114 -144.5t-174 -39.5z
M560 226q28 0 52.5 10t42.5 27.5t28.5 39.5t11.5 47v130h-62q-31 0 -79 -11.5t-85.5 -39.5t-37.5 -79q0 -58 39.5 -91t89.5 -33zM469 1155l206 291h383l-317 -291h-272z" />
    <glyph glyph-name="acircumflex" unicode="&#xe2;" horiz-adv-x="1157" 
d="M423 -20q-97 0 -178.5 38t-130 111.5t-48.5 180.5q0 168 133.5 261t415.5 93h80v44q0 50 -27.5 73t-86.5 21q-40 -1 -88 -19t-72 -71h-315q6 122 73 197.5t177 110t243 34.5q180 0 282 -41t144 -113.5t42 -167.5v-732h-322l-34 164q-46 -105 -114 -144.5t-174 -39.5z
M560 226q28 0 52.5 10t42.5 27.5t28.5 39.5t11.5 47v130h-62q-31 0 -79 -11.5t-85.5 -39.5t-37.5 -79q0 -58 39.5 -91t89.5 -33zM196 1155l276 291h264l268 -291h-278l-124 149l-142 -149h-264z" />
    <glyph glyph-name="atilde" unicode="&#xe3;" horiz-adv-x="1157" 
d="M423 -20q-97 0 -178.5 38t-130 111.5t-48.5 180.5q0 168 133.5 261t415.5 93h80v44q0 50 -27.5 73t-86.5 21q-40 -1 -88 -19t-72 -71h-315q6 122 73 197.5t177 110t243 34.5q180 0 282 -41t144 -113.5t42 -167.5v-732h-322l-34 164q-46 -105 -114 -144.5t-174 -39.5z
M560 226q28 0 52.5 10t42.5 27.5t28.5 39.5t11.5 47v130h-62q-31 0 -79 -11.5t-85.5 -39.5t-37.5 -79q0 -58 39.5 -91t89.5 -33zM280 1165l-54 192q39 44 88.5 75.5t127.5 31.5q62 0 118.5 -16.5t108 -33.5t97.5 -17q59 0 108 28t82 54l40 -220q-36 -31 -96.5 -56
t-131.5 -25q-58 0 -109 15t-101 29.5t-106 14.5q-51 0 -88 -15.5t-84 -56.5z" />
    <glyph glyph-name="adieresis" unicode="&#xe4;" horiz-adv-x="1157" 
d="M423 -20q-97 0 -178.5 38t-130 111.5t-48.5 180.5q0 168 133.5 261t415.5 93h80v44q0 50 -27.5 73t-86.5 21q-40 -1 -88 -19t-72 -71h-315q6 122 73 197.5t177 110t243 34.5q180 0 282 -41t144 -113.5t42 -167.5v-732h-322l-34 164q-46 -105 -114 -144.5t-174 -39.5z
M560 226q28 0 52.5 10t42.5 27.5t28.5 39.5t11.5 47v130h-62q-31 0 -79 -11.5t-85.5 -39.5t-37.5 -79q0 -58 39.5 -91t89.5 -33zM691 1155l4 291h358l-4 -291h-358zM155 1155l4 291h358l-4 -291h-358z" />
    <glyph glyph-name="aring" unicode="&#xe5;" horiz-adv-x="1157" 
d="M423 -20q-97 0 -178.5 38t-130 111.5t-48.5 180.5q0 168 133.5 261t415.5 93h80v44q0 50 -27.5 73t-86.5 21q-40 -1 -88 -19t-72 -71h-315q6 122 73 197.5t177 110t243 34.5q180 0 282 -41t144 -113.5t42 -167.5v-732h-322l-34 164q-46 -105 -114 -144.5t-174 -39.5z
M560 226q28 0 52.5 10t42.5 27.5t28.5 39.5t11.5 47v130h-62q-31 0 -79 -11.5t-85.5 -39.5t-37.5 -79q0 -58 39.5 -91t89.5 -33zM604 1118q-96 0 -162 67.5t-66 164.5q0 92 67 156t161 64q63 0 114.5 -30t82.5 -81t31 -113q0 -96 -66.5 -162t-161.5 -66zM602 1248
q39 0 65.5 29.5t26.5 66.5q0 39 -26.5 65.5t-65.5 26.5t-67.5 -26.5t-28.5 -65.5q0 -37 28.5 -66.5t67.5 -29.5z" />
    <glyph glyph-name="ae" unicode="&#xe6;" horiz-adv-x="1826" 
d="M423 -20q-97 0 -178.5 38t-130 111.5t-48.5 180.5q0 168 134 261t416 93h80v44q0 50 -28 73t-87 21q-40 -1 -88 -19t-72 -71h-315q6 122 73 197.5t177 110t243 34.5q128 0 215.5 -21.5t142.5 -59.5q59 38 132.5 59.5t158.5 21.5q169 0 282 -70t169.5 -191.5t56.5 -274.5
v-90h-652q-1 -62 19 -101t54.5 -57t76.5 -18q53 0 95.5 20t66.5 80h344q-16 -115 -91 -198.5t-182.5 -128.5t-222.5 -45q-142 0 -254 51.5t-183 143.5q-28 -62 -78 -106t-129.5 -66.5t-196.5 -22.5zM560 226q38 0 68 17.5t48.5 45.5t19.5 61v130h-63q-30 0 -78 -11.5
t-86 -39.5t-38 -79q0 -58 39.5 -91t89.5 -33zM1102 646h295q0 39 -17 72.5t-50 53.5t-82 20q-40 0 -73 -20t-53 -53.5t-20 -72.5z" />
    <glyph glyph-name="ccedilla" unicode="&#xe7;" horiz-adv-x="1101" 
d="M589 -438q-70 0 -138.5 12t-127.5 46l48 118q36 -19 81.5 -35.5t88.5 -16.5q41 0 66.5 14t25.5 38q0 36 -38.5 56t-139.5 20q-15 0 -21 4t1 20l74 172h158l-42 -114q82 0 131 -25.5t71 -63.5t22 -75q0 -52 -36.5 -90t-95.5 -59t-128 -21zM581 -20q-148 0 -266 67
t-186.5 187t-68.5 278q0 160 68 282t186 191t267 69q146 0 246.5 -62t153 -163t54.5 -217h-315q-4 29 -17 65t-41 62.5t-78 26.5q-75 0 -120.5 -62.5t-45.5 -187.5q0 -127 49 -197.5t125 -70.5q49 0 76.5 29.5t40 65.5t15.5 57h306q0 -110 -53.5 -206t-153.5 -155t-242 -59z
" />
    <glyph glyph-name="egrave" unicode="&#xe8;" 
d="M608 -20q-161 0 -283.5 65.5t-190.5 183.5t-68 275q0 148 62.5 273t180 201t283.5 76q169 0 282 -70t169.5 -191.5t56.5 -274.5v-90h-652q-1 -62 19 -101t54.5 -57t76.5 -18q53 0 95.5 20t66.5 80h344q-16 -115 -91 -198.5t-182.5 -128.5t-222.5 -45zM446 646h295
q0 39 -17 72.5t-50 53.5t-82 20q-40 0 -73 -20t-53 -53.5t-20 -72.5zM448 1155l-317 291h383l206 -291h-272z" />
    <glyph glyph-name="eacute" unicode="&#xe9;" 
d="M608 -20q-161 0 -283.5 65.5t-190.5 183.5t-68 275q0 148 62.5 273t180 201t283.5 76q169 0 282 -70t169.5 -191.5t56.5 -274.5v-90h-652q-1 -62 19 -101t54.5 -57t76.5 -18q53 0 95.5 20t66.5 80h344q-16 -115 -91 -198.5t-182.5 -128.5t-222.5 -45zM446 646h295
q0 39 -17 72.5t-50 53.5t-82 20q-40 0 -73 -20t-53 -53.5t-20 -72.5zM459 1155l206 291h383l-317 -291h-272z" />
    <glyph glyph-name="ecircumflex" unicode="&#xea;" 
d="M608 -20q-161 0 -283.5 65.5t-190.5 183.5t-68 275q0 148 62.5 273t180 201t283.5 76q169 0 282 -70t169.5 -191.5t56.5 -274.5v-90h-652q-1 -62 19 -101t54.5 -57t76.5 -18q53 0 95.5 20t66.5 80h344q-16 -115 -91 -198.5t-182.5 -128.5t-222.5 -45zM446 646h295
q0 39 -17 72.5t-50 53.5t-82 20q-40 0 -73 -20t-53 -53.5t-20 -72.5zM186 1155l276 291h264l268 -291h-278l-124 149l-142 -149h-264z" />
    <glyph glyph-name="edieresis" unicode="&#xeb;" 
d="M608 -20q-161 0 -283.5 65.5t-190.5 183.5t-68 275q0 148 62.5 273t180 201t283.5 76q169 0 282 -70t169.5 -191.5t56.5 -274.5v-90h-652q-1 -62 19 -101t54.5 -57t76.5 -18q53 0 95.5 20t66.5 80h344q-16 -115 -91 -198.5t-182.5 -128.5t-222.5 -45zM446 646h295
q0 39 -17 72.5t-50 53.5t-82 20q-40 0 -73 -20t-53 -53.5t-20 -72.5zM681 1155l4 291h358l-4 -291h-358zM145 1155l4 291h358l-4 -291h-358z" />
    <glyph glyph-name="igrave" unicode="&#xec;" horiz-adv-x="571" 
d="M100 0v1034h371v-1034h-371zM168 1155l-232 291h363l126 -288z" />
    <glyph glyph-name="iacute" unicode="&#xed;" horiz-adv-x="571" 
d="M100 0v1034h371v-1034h-371zM405 1155l-257 3l126 288h363z" />
    <glyph glyph-name="icircumflex" unicode="&#xee;" horiz-adv-x="571" 
d="M100 0v1034h371v-1034h-371zM-116 1155l276 291h264l268 -291h-278l-124 149l-142 -149h-264z" />
    <glyph glyph-name="idieresis" unicode="&#xef;" horiz-adv-x="918" 
d="M262 0v1034h371v-1034h-371zM546 1149l4 291h358l-4 -291h-358zM10 1149l4 291h358l-4 -291h-358z" />
    <glyph glyph-name="eth" unicode="&#xf0;" horiz-adv-x="1168" 
d="M575 -20q-146 0 -262.5 67t-184.5 183t-68 262q0 134 42.5 232.5t113.5 162.5t157 95.5t173 31.5q146 0 239.5 -80t104.5 -251l-224 164q0 96 -37 188t-94.5 174.5t-120 151.5t-113.5 120h293q78 -51 167.5 -138.5t168 -205.5t128.5 -263t50 -311q0 -189 -64.5 -319
t-184 -197t-284.5 -67zM586 262q52 0 84 33t47 89.5t15 124.5q0 103 -34 170.5t-112 67.5t-113 -67.5t-35 -170.5q0 -68 15.5 -124.5t48 -89.5t84.5 -33zM297 1072l-47 155l752 219l48 -155z" />
    <glyph glyph-name="ntilde" unicode="&#xf1;" horiz-adv-x="1215" 
d="M100 0v1034h385v-143q22 33 56 67t88 57t135 23q91 0 173.5 -35t135 -112t52.5 -203v-688h-390v635q0 51 -38 78t-82 27q-28 0 -57.5 -12t-49 -35.5t-19.5 -57.5v-635h-389zM287 1165l-54 192q39 44 88.5 75.5t127.5 31.5q62 0 118.5 -16.5t108 -33.5t97.5 -17
q59 0 108 28t82 54l40 -220q-36 -31 -96.5 -56t-131.5 -25q-58 0 -109 15t-101 29.5t-106 14.5q-51 0 -88 -15.5t-84 -56.5z" />
    <glyph glyph-name="ograve" unicode="&#xf2;" 
d="M584 -20q-160 0 -277.5 68t-182 187.5t-64.5 274.5q0 163 67.5 285.5t186 190.5t272.5 68q162 0 279.5 -70.5t181 -193.5t63.5 -280q0 -154 -64.5 -273.5t-182.5 -188t-279 -68.5zM586 262q62 0 93.5 42.5t42 103.5t10.5 116q0 56 -10.5 114.5t-42 98t-93.5 39.5
q-63 0 -94.5 -39.5t-42.5 -98t-11 -114.5q0 -55 11 -116t42.5 -103.5t94.5 -42.5zM440 1155l-317 291h383l206 -291h-272z" />
    <glyph glyph-name="oacute" unicode="&#xf3;" 
d="M584 -20q-160 0 -277.5 68t-182 187.5t-64.5 274.5q0 163 67.5 285.5t186 190.5t272.5 68q162 0 279.5 -70.5t181 -193.5t63.5 -280q0 -154 -64.5 -273.5t-182.5 -188t-279 -68.5zM586 262q62 0 93.5 42.5t42 103.5t10.5 116q0 56 -10.5 114.5t-42 98t-93.5 39.5
q-63 0 -94.5 -39.5t-42.5 -98t-11 -114.5q0 -55 11 -116t42.5 -103.5t94.5 -42.5zM451 1155l206 291h383l-317 -291h-272z" />
    <glyph glyph-name="ocircumflex" unicode="&#xf4;" 
d="M584 -20q-160 0 -277.5 68t-182 187.5t-64.5 274.5q0 163 67.5 285.5t186 190.5t272.5 68q162 0 279.5 -70.5t181 -193.5t63.5 -280q0 -154 -64.5 -273.5t-182.5 -188t-279 -68.5zM586 262q62 0 93.5 42.5t42 103.5t10.5 116q0 56 -10.5 114.5t-42 98t-93.5 39.5
q-63 0 -94.5 -39.5t-42.5 -98t-11 -114.5q0 -55 11 -116t42.5 -103.5t94.5 -42.5zM178 1155l276 291h264l268 -291h-278l-124 149l-142 -149h-264z" />
    <glyph glyph-name="otilde" unicode="&#xf5;" 
d="M584 -20q-160 0 -277.5 68t-182 187.5t-64.5 274.5q0 163 67.5 285.5t186 190.5t272.5 68q162 0 279.5 -70.5t181 -193.5t63.5 -280q0 -154 -64.5 -273.5t-182.5 -188t-279 -68.5zM586 262q62 0 93.5 42.5t42 103.5t10.5 116q0 56 -10.5 114.5t-42 98t-93.5 39.5
q-63 0 -94.5 -39.5t-42.5 -98t-11 -114.5q0 -55 11 -116t42.5 -103.5t94.5 -42.5zM262 1165l-54 192q39 44 88.5 75.5t127.5 31.5q62 0 118.5 -16.5t108 -33.5t97.5 -17q59 0 108 28t82 54l40 -220q-36 -31 -96.5 -56t-131.5 -25q-58 0 -109 15t-101 29.5t-106 14.5
q-51 0 -88 -15.5t-84 -56.5z" />
    <glyph glyph-name="odieresis" unicode="&#xf6;" 
d="M584 -20q-160 0 -277.5 68t-182 187.5t-64.5 274.5q0 163 67.5 285.5t186 190.5t272.5 68q162 0 279.5 -70.5t181 -193.5t63.5 -280q0 -154 -64.5 -273.5t-182.5 -188t-279 -68.5zM586 262q62 0 93.5 42.5t42 103.5t10.5 116q0 56 -10.5 114.5t-42 98t-93.5 39.5
q-63 0 -94.5 -39.5t-42.5 -98t-11 -114.5q0 -55 11 -116t42.5 -103.5t94.5 -42.5zM673 1155l4 291h358l-4 -291h-358zM137 1155l4 291h358l-4 -291h-358z" />
    <glyph glyph-name="divide" unicode="&#xf7;" horiz-adv-x="1238" 
d="M110 590v276h1018v-276h-1018zM436 118v356h370v-356h-370zM436 982v356h370v-356h-370z" />
    <glyph glyph-name="oslash" unicode="&#xf8;" horiz-adv-x="1270" 
d="M176 -18l-116 124l1016 944l114 -124zM660 -20q-160 0 -277.5 68t-182 187.5t-64.5 274.5q0 163 67.5 285.5t186 190.5t272.5 68q162 0 279.5 -70.5t181 -193.5t63.5 -280q0 -154 -64.5 -273.5t-182.5 -188t-279 -68.5zM662 262q62 0 93.5 42.5t42 103.5t10.5 116
q0 56 -10.5 114.5t-42 98t-93.5 39.5q-63 0 -94.5 -39.5t-42.5 -98t-11 -114.5q0 -55 11 -116t42.5 -103.5t94.5 -42.5z" />
    <glyph glyph-name="ugrave" unicode="&#xf9;" horiz-adv-x="1217" 
d="M481 -20q-63 0 -131 21.5t-127 63.5t-96 102.5t-37 138.5v728h390v-674q0 -45 33 -75.5t92 -30.5t92.5 30.5t33.5 75.5v674h386v-1034h-288l-46 212q-19 -103 -72 -152.5t-116.5 -64.5t-113.5 -15zM460 1155l-317 291h383l206 -291h-272z" />
    <glyph glyph-name="uacute" unicode="&#xfa;" horiz-adv-x="1217" 
d="M481 -20q-63 0 -131 21.5t-127 63.5t-96 102.5t-37 138.5v728h390v-674q0 -45 33 -75.5t92 -30.5t92.5 30.5t33.5 75.5v674h386v-1034h-288l-46 212q-19 -103 -72 -152.5t-116.5 -64.5t-113.5 -15zM471 1155l206 291h383l-317 -291h-272z" />
    <glyph glyph-name="ucircumflex" unicode="&#xfb;" horiz-adv-x="1217" 
d="M481 -20q-63 0 -131 21.5t-127 63.5t-96 102.5t-37 138.5v728h390v-674q0 -45 33 -75.5t92 -30.5t92.5 30.5t33.5 75.5v674h386v-1034h-288l-46 212q-19 -103 -72 -152.5t-116.5 -64.5t-113.5 -15zM198 1155l276 291h264l268 -291h-278l-124 149l-142 -149h-264z" />
    <glyph glyph-name="udieresis" unicode="&#xfc;" horiz-adv-x="1217" 
d="M481 -20q-63 0 -131 21.5t-127 63.5t-96 102.5t-37 138.5v728h390v-674q0 -45 33 -75.5t92 -30.5t92.5 30.5t33.5 75.5v674h386v-1034h-288l-46 212q-19 -103 -72 -152.5t-116.5 -64.5t-113.5 -15zM693 1155l4 291h358l-4 -291h-358zM157 1155l4 291h358l-4 -291h-358z
" />
    <glyph glyph-name="yacute" unicode="&#xfd;" horiz-adv-x="1177" 
d="M315 -330q-120 0 -172.5 22l-52.5 22v246l99 -6q76 -6 119.5 4.5t63.5 28t26 33.5t7 20l4 20l-401 974h382l196 -562l203 562h381l-404 -974q-67 -163 -137 -247t-147.5 -113.5t-166.5 -29.5zM451 1155l206 291h383l-317 -291h-272z" />
    <glyph glyph-name="thorn" unicode="&#xfe;" horiz-adv-x="1235" 
d="M100 -322v1768h391v-532q41 44 85 75.5t96.5 48t120.5 16.5q108 0 194.5 -57t137 -175.5t50.5 -301.5q0 -197 -53.5 -315.5t-143.5 -171.5t-199 -53q-66 0 -127 21t-123 79q-24 21 -32 20.5t-8 -30.5v-392h-389zM625 216q50 0 84.5 27t53 95.5t18.5 193.5
q0 113 -17.5 175t-52 86.5t-86.5 24.5q-38 0 -69 -14.5t-49 -39.5t-18 -56v-414q25 -34 57.5 -56t78.5 -22z" />
    <glyph glyph-name="ydieresis" unicode="&#xff;" horiz-adv-x="1177" 
d="M315 -330q-120 0 -172.5 22l-52.5 22v246l99 -6q76 -6 119.5 4.5t63.5 28t26 33.5t7 20l4 20l-401 974h382l196 -562l203 562h381l-404 -974q-67 -163 -137 -247t-147.5 -113.5t-166.5 -29.5zM673 1155l4 291h358l-4 -291h-358zM137 1155l4 291h358l-4 -291h-358z" />
    <glyph glyph-name="Amacron" unicode="&#x100;" horiz-adv-x="1482" 
d="M30 0l512 1446h398l512 -1446h-384l-96 280h-456l-98 -280h-388zM598 612h286l-142 462zM342 1590v238h800v-238h-800z" />
    <glyph glyph-name="amacron" unicode="&#x101;" horiz-adv-x="1157" 
d="M423 -20q-97 0 -178.5 38t-130 111.5t-48.5 180.5q0 168 133.5 261t415.5 93h80v44q0 50 -27.5 73t-86.5 21q-40 -1 -88 -19t-72 -71h-315q6 122 73 197.5t177 110t243 34.5q180 0 282 -41t144 -113.5t42 -167.5v-732h-322l-34 164q-46 -105 -114 -144.5t-174 -39.5z
M560 226q28 0 52.5 10t42.5 27.5t28.5 39.5t11.5 47v130h-62q-31 0 -79 -11.5t-85.5 -39.5t-37.5 -79q0 -58 39.5 -91t89.5 -33zM204 1178v238h800v-238h-800z" />
    <glyph glyph-name="Abreve" unicode="&#x102;" horiz-adv-x="1482" 
d="M30 0l512 1446h398l512 -1446h-384l-96 280h-456l-98 -280h-388zM598 612h286l-142 462zM742 1568q-93 0 -175.5 32t-140.5 96.5t-78 161.5h230q14 -51 56 -83.5t108 -32.5q65 0 107.5 32.5t57.5 83.5h229q-19 -97 -77.5 -161.5t-141 -96.5t-175.5 -32z" />
    <glyph glyph-name="abreve" unicode="&#x103;" horiz-adv-x="1157" 
d="M423 -20q-97 0 -178.5 38t-130 111.5t-48.5 180.5q0 168 133.5 261t415.5 93h80v44q0 50 -27.5 73t-86.5 21q-40 -1 -88 -19t-72 -71h-315q6 122 73 197.5t177 110t243 34.5q180 0 282 -41t144 -113.5t42 -167.5v-732h-322l-34 164q-46 -105 -114 -144.5t-174 -39.5z
M560 226q28 0 52.5 10t42.5 27.5t28.5 39.5t11.5 47v130h-62q-31 0 -79 -11.5t-85.5 -39.5t-37.5 -79q0 -58 39.5 -91t89.5 -33zM604 1156q-93 0 -175.5 32t-140.5 96.5t-78 161.5h230q14 -51 56 -83.5t108 -32.5q65 0 107.5 32.5t57.5 83.5h229q-19 -97 -77.5 -161.5
t-141 -96.5t-175.5 -32z" />
    <glyph glyph-name="Aogonek" unicode="&#x104;" horiz-adv-x="1482" 
d="M30 0l512 1446h398l512 -1446h-384l-96 280h-456l-98 -280h-388zM598 612h286l-142 462zM1238 -350q-106 0 -171 41.5t-65 128.5q0 50 34 96t148 86h266q-109 -36 -144.5 -65.5t-35.5 -62.5q0 -28 13.5 -42t40.5 -14q44 0 77 14.5t69 35.5v-164q-30 -19 -93.5 -36.5
t-138.5 -17.5z" />
    <glyph glyph-name="aogonek" unicode="&#x105;" horiz-adv-x="1157" 
d="M423 -20q-97 0 -178.5 38t-130 111.5t-48.5 180.5q0 168 133.5 261t415.5 93h80v44q0 50 -27.5 73t-86.5 21q-40 -1 -88 -19t-72 -71h-315q6 122 73 197.5t177 110t243 34.5q180 0 282 -41t144 -113.5t42 -167.5v-732h-322l-34 164q-46 -105 -114 -144.5t-174 -39.5z
M560 226q28 0 52.5 10t42.5 27.5t28.5 39.5t11.5 47v130h-62q-31 0 -79 -11.5t-85.5 -39.5t-37.5 -79q0 -58 39.5 -91t89.5 -33zM843 -340q-106 0 -171 41.5t-65 128.5q0 50 34 96t148 86h266q-109 -36 -144.5 -65.5t-35.5 -62.5q0 -28 13.5 -42t40.5 -14q44 0 77 14.5
t69 35.5v-164q-30 -19 -93.5 -36.5t-138.5 -17.5z" />
    <glyph glyph-name="Cacute" unicode="&#x106;" horiz-adv-x="1490" 
d="M777 -20q-209 0 -364.5 99t-241.5 271t-86 392t85 382.5t240.5 252t366.5 89.5q172 0 308 -67.5t220 -187t100 -275.5h-406q-11 67 -41 116t-78.5 75.5t-115.5 26.5q-73 0 -130 -38t-89.5 -129.5t-32.5 -250.5q0 -241 71 -342.5t181 -101.5q67 0 115.5 34t78.5 90.5
t41 123.5h406q-15 -112 -50.5 -213t-105 -179.5t-184.5 -123t-288 -44.5zM642 1567l206 291h383l-317 -291h-272z" />
    <glyph glyph-name="cacute" unicode="&#x107;" horiz-adv-x="1101" 
d="M581 -20q-148 0 -266 67t-186.5 187t-68.5 278q0 160 68 282t186 191t267 69q146 0 246.5 -62t153 -163t54.5 -217h-315q-4 29 -17 65t-41 62.5t-78 26.5q-75 0 -120.5 -62.5t-45.5 -187.5q0 -127 49 -197.5t125 -70.5q49 0 76.5 29.5t40 65.5t15.5 57h306
q0 -110 -53.5 -206t-153.5 -155t-242 -59zM443 1155l206 291h383l-317 -291h-272z" />
    <glyph glyph-name="Ccircumflex" unicode="&#x108;" horiz-adv-x="1490" 
d="M777 -20q-209 0 -364.5 99t-241.5 271t-86 392t85 382.5t240.5 252t366.5 89.5q172 0 308 -67.5t220 -187t100 -275.5h-406q-11 67 -41 116t-78.5 75.5t-115.5 26.5q-73 0 -130 -38t-89.5 -129.5t-32.5 -250.5q0 -241 71 -342.5t181 -101.5q67 0 115.5 34t78.5 90.5
t41 123.5h406q-15 -112 -50.5 -213t-105 -179.5t-184.5 -123t-288 -44.5zM369 1567l276 291h264l268 -291h-278l-124 149l-142 -149h-264z" />
    <glyph glyph-name="ccircumflex" unicode="&#x109;" horiz-adv-x="1101" 
d="M581 -20q-148 0 -266 67t-186.5 187t-68.5 278q0 160 68 282t186 191t267 69q146 0 246.5 -62t153 -163t54.5 -217h-315q-4 29 -17 65t-41 62.5t-78 26.5q-75 0 -120.5 -62.5t-45.5 -187.5q0 -127 49 -197.5t125 -70.5q49 0 76.5 29.5t40 65.5t15.5 57h306
q0 -110 -53.5 -206t-153.5 -155t-242 -59zM170 1155l276 291h264l268 -291h-278l-124 149l-142 -149h-264z" />
    <glyph glyph-name="Cdotaccent" unicode="&#x10a;" horiz-adv-x="1490" 
d="M777 -20q-209 0 -364.5 99t-241.5 271t-86 392t85 382.5t240.5 252t366.5 89.5q172 0 308 -67.5t220 -187t100 -275.5h-406q-11 67 -41 116t-78.5 75.5t-115.5 26.5q-73 0 -130 -38t-89.5 -129.5t-32.5 -250.5q0 -241 71 -342.5t181 -101.5q67 0 115.5 34t78.5 90.5
t41 123.5h406q-15 -112 -50.5 -213t-105 -179.5t-184.5 -123t-288 -44.5zM595 1567v291h362v-291h-362z" />
    <glyph glyph-name="cdotaccent" unicode="&#x10b;" horiz-adv-x="1101" 
d="M581 -20q-148 0 -266 67t-186.5 187t-68.5 278q0 160 68 282t186 191t267 69q146 0 246.5 -62t153 -163t54.5 -217h-315q-4 29 -17 65t-41 62.5t-78 26.5q-75 0 -120.5 -62.5t-45.5 -187.5q0 -127 49 -197.5t125 -70.5q49 0 76.5 29.5t40 65.5t15.5 57h306
q0 -110 -53.5 -206t-153.5 -155t-242 -59zM396 1155v291h362v-291h-362z" />
    <glyph glyph-name="Ccaron" unicode="&#x10c;" horiz-adv-x="1490" 
d="M777 -20q-209 0 -364.5 99t-241.5 271t-86 392t85 382.5t240.5 252t366.5 89.5q172 0 308 -67.5t220 -187t100 -275.5h-406q-11 67 -41 116t-78.5 75.5t-115.5 26.5q-73 0 -130 -38t-89.5 -129.5t-32.5 -250.5q0 -241 71 -342.5t181 -101.5q67 0 115.5 34t78.5 90.5
t41 123.5h406q-15 -112 -50.5 -213t-105 -179.5t-184.5 -123t-288 -44.5zM643 1567l-274 293h264l142 -164l124 164h278l-268 -293h-266z" />
    <glyph glyph-name="ccaron" unicode="&#x10d;" horiz-adv-x="1101" 
d="M581 -20q-148 0 -266 67t-186.5 187t-68.5 278q0 160 68 282t186 191t267 69q146 0 246.5 -62t153 -163t54.5 -217h-315q-4 29 -17 65t-41 62.5t-78 26.5q-75 0 -120.5 -62.5t-45.5 -187.5q0 -127 49 -197.5t125 -70.5q49 0 76.5 29.5t40 65.5t15.5 57h306
q0 -110 -53.5 -206t-153.5 -155t-242 -59zM444 1155l-274 293h264l142 -164l124 164h278l-268 -293h-266z" />
    <glyph glyph-name="Dcaron" unicode="&#x10e;" horiz-adv-x="1488" 
d="M135 0v1446h80t148.5 0.5t164.5 0t127 -2.5q261 -9 426.5 -102t243.5 -251t78 -363q0 -211 -81 -375.5t-247 -258.5t-422 -94h-518zM524 306h141q74 0 150.5 41.5t129 135.5t52.5 251q0 133 -41.5 223.5t-116.5 136.5t-174 46h-141v-834zM609 1567l-274 293h264l142 -164
l124 164h278l-268 -293h-266z" />
    <glyph glyph-name="dcaron" unicode="&#x10f;" horiz-adv-x="1238" 
d="M504 -20q-214 0 -329 148.5t-115 395.5q0 163 47.5 282t137.5 183.5t217 64.5q39 0 79 -7t78.5 -22.5t71.5 -42t57 -66.5v570h390v-1486h-275l-46 212q-18 -54 -45.5 -97t-66 -73t-88.5 -46t-113 -16zM596 252q68 0 110 59.5t42 212.5q0 92 -19 148.5t-53 82t-80 25.5
q-66 0 -113 -56t-47 -200q0 -153 47 -212.5t113 -59.5zM1240 1006l86 218l-86 14v248h242v-260l-92 -220h-150z" />
    <glyph glyph-name="Dcroat" unicode="&#x110;" horiz-adv-x="1574" 
d="M70 577v274h796v-274h-796zM221 0v1446h80t148.5 0.5t164.5 0t127 -2.5q261 -9 426.5 -102t243.5 -251t78 -363q0 -211 -81 -375.5t-247 -258.5t-422 -94h-518zM610 306h141q74 0 150.5 41.5t129 135.5t52.5 251q0 133 -41.5 223.5t-116.5 136.5t-174 46h-141v-834z" />
    <glyph glyph-name="dcroat" unicode="&#x111;" horiz-adv-x="1318" 
d="M534 1132v208h724v-208h-724zM504 -20q-214 0 -329 148.5t-115 395.5q0 163 47.5 282t137.5 183.5t217 64.5q39 0 79 -7t78.5 -22.5t71.5 -42t57 -66.5v570h390v-1486h-275l-46 212q-18 -54 -45.5 -97t-66 -73t-88.5 -46t-113 -16zM596 252q68 0 110 59.5t42 212.5
q0 92 -19 148.5t-53 82t-80 25.5q-66 0 -113 -56t-47 -200q0 -153 47 -212.5t113 -59.5z" />
    <glyph glyph-name="Emacron" unicode="&#x112;" horiz-adv-x="1295" 
d="M135 0v1446h1068l-2 -322h-674v-240h564v-314h-567v-246h681v-324h-1070zM269 1590v238h800v-238h-800z" />
    <glyph glyph-name="emacron" unicode="&#x113;" 
d="M608 -20q-161 0 -283.5 65.5t-190.5 183.5t-68 275q0 148 62.5 273t180 201t283.5 76q169 0 282 -70t169.5 -191.5t56.5 -274.5v-90h-652q-1 -62 19 -101t54.5 -57t76.5 -18q53 0 95.5 20t66.5 80h344q-16 -115 -91 -198.5t-182.5 -128.5t-222.5 -45zM446 646h295
q0 39 -17 72.5t-50 53.5t-82 20q-40 0 -73 -20t-53 -53.5t-20 -72.5zM194 1178v238h800v-238h-800z" />
    <glyph glyph-name="Ebreve" unicode="&#x114;" horiz-adv-x="1295" 
d="M135 0v1446h1068l-2 -322h-674v-240h564v-314h-567v-246h681v-324h-1070zM669 1568q-93 0 -175.5 32t-140.5 96.5t-78 161.5h230q14 -51 56 -83.5t108 -32.5q65 0 107.5 32.5t57.5 83.5h229q-19 -97 -77.5 -161.5t-141 -96.5t-175.5 -32z" />
    <glyph glyph-name="ebreve" unicode="&#x115;" 
d="M608 -20q-161 0 -283.5 65.5t-190.5 183.5t-68 275q0 148 62.5 273t180 201t283.5 76q169 0 282 -70t169.5 -191.5t56.5 -274.5v-90h-652q-1 -62 19 -101t54.5 -57t76.5 -18q53 0 95.5 20t66.5 80h344q-16 -115 -91 -198.5t-182.5 -128.5t-222.5 -45zM446 646h295
q0 39 -17 72.5t-50 53.5t-82 20q-40 0 -73 -20t-53 -53.5t-20 -72.5zM594 1156q-93 0 -175.5 32t-140.5 96.5t-78 161.5h230q14 -51 56 -83.5t108 -32.5q65 0 107.5 32.5t57.5 83.5h229q-19 -97 -77.5 -161.5t-141 -96.5t-175.5 -32z" />
    <glyph glyph-name="Edotaccent" unicode="&#x116;" horiz-adv-x="1295" 
d="M135 0v1446h1068l-2 -322h-674v-240h564v-314h-567v-246h681v-324h-1070zM487 1567v291h362v-291h-362z" />
    <glyph glyph-name="edotaccent" unicode="&#x117;" 
d="M608 -20q-161 0 -283.5 65.5t-190.5 183.5t-68 275q0 148 62.5 273t180 201t283.5 76q169 0 282 -70t169.5 -191.5t56.5 -274.5v-90h-652q-1 -62 19 -101t54.5 -57t76.5 -18q53 0 95.5 20t66.5 80h344q-16 -115 -91 -198.5t-182.5 -128.5t-222.5 -45zM446 646h295
q0 39 -17 72.5t-50 53.5t-82 20q-40 0 -73 -20t-53 -53.5t-20 -72.5zM412 1155v291h362v-291h-362z" />
    <glyph glyph-name="Eogonek" unicode="&#x118;" horiz-adv-x="1295" 
d="M135 0v1446h1068l-2 -322h-674v-240h564v-314h-567v-246h681v-324h-1070zM1035 -340q-106 0 -171 41.5t-65 128.5q0 50 34 96t148 86h266q-109 -36 -144.5 -65.5t-35.5 -62.5q0 -28 13.5 -42t40.5 -14q44 0 77 14.5t69 35.5v-164q-30 -19 -93.5 -36.5t-138.5 -17.5z" />
    <glyph glyph-name="eogonek" unicode="&#x119;" 
d="M682 -310q-106 0 -171 41.5t-65 128.5q0 33 13.5 65t54.5 61q-135 19 -236 88t-156.5 179t-55.5 251q0 148 62.5 273t180 201t283.5 76q169 0 282 -70t169.5 -191.5t56.5 -274.5v-90h-652q-1 -62 19 -101t54.5 -57t76.5 -18q53 0 95.5 20t66.5 80h344
q-14 -103 -74.5 -178t-172.5 -137q-71 -40 -107 -66.5t-36 -56.5q0 -28 13.5 -42t40.5 -14q44 0 77 14.5t69 35.5v-164q-30 -19 -93.5 -36.5t-138.5 -17.5zM446 646h295q0 39 -17 72.5t-50 53.5t-82 20q-40 0 -73 -20t-53 -53.5t-20 -72.5z" />
    <glyph glyph-name="Ecaron" unicode="&#x11a;" horiz-adv-x="1295" 
d="M135 0v1446h1068l-2 -322h-674v-240h564v-314h-567v-246h681v-324h-1070zM535 1567l-274 293h264l142 -164l124 164h278l-268 -293h-266z" />
    <glyph glyph-name="ecaron" unicode="&#x11b;" horiz-adv-x="1148" 
d="M608 -20q-161 0 -283.5 65.5t-190.5 183.5t-68 275q0 148 62.5 273t180 201t283.5 76q169 0 282 -70t169.5 -191.5t56.5 -274.5v-90h-652q-1 -62 19 -101t54.5 -57t76.5 -18q53 0 95.5 20t66.5 80h344q-16 -115 -91 -198.5t-182.5 -128.5t-222.5 -45zM446 646h295
q0 39 -17 72.5t-50 53.5t-82 20q-40 0 -73 -20t-53 -53.5t-20 -72.5zM444 1155l-274 293h264l142 -164l124 164h278l-268 -293h-266z" />
    <glyph glyph-name="Gcircumflex" unicode="&#x11c;" horiz-adv-x="1565" 
d="M769 -20q-206 0 -360 93.5t-239 260t-85 384.5q0 225 90.5 393.5t250 261.5t367.5 93q146 0 262 -44t198.5 -119.5t126.5 -170.5t46 -196h-407q-13 59 -42.5 106t-77.5 74.5t-116 27.5q-71 0 -133.5 -38.5t-101 -129t-38.5 -246.5q0 -133 27.5 -214.5t71 -124.5t94.5 -58
t97 -15q41 0 76 12t62 31.5t45.5 43.5t26.5 49l17 52h-252v262l662 -4v-764h-255v160q-36 -37 -86.5 -79t-128.5 -71.5t-198 -29.5zM373 1567l276 291h264l268 -291h-278l-124 149l-142 -149h-264z" />
    <glyph glyph-name="gcircumflex" unicode="&#x11d;" horiz-adv-x="1268" 
d="M618 -342q-306 0 -456 69.5t-150 168.5q0 50 29 82.5t68 50.5t71 26t38 9q-15 8 -50 27t-65.5 54.5t-30.5 92.5q0 62 58.5 114t179.5 68q-112 50 -167 138t-55 170q0 104 73 176t192.5 109t260.5 37q111 0 179 -22t125 -52q29 11 69.5 26.5t87 33.5t93.5 37t90 37
l-2 -276l-176 -24q6 -22 9 -46.5t3 -33.5q0 -88 -57 -169.5t-169 -134t-276 -52.5q-24 0 -68 1.5t-70 4.5q-15 -3 -21.5 -6.5t-6.5 -11.5q0 -21 45 -25t121 -9q27 -1 83.5 -4t122.5 -8q215 -15 313.5 -102.5t98.5 -207.5q0 -150 -148 -249t-442 -99zM678 -138q102 0 132 18
t30 46q0 33 -34 53.5t-94 24.5l-188 12q-54 3 -83 -8.5t-40 -30t-11 -35.5q0 -49 70 -64.5t218 -15.5zM602 578q56 0 90 39t34 97q0 59 -34 102.5t-90 43.5q-55 0 -89.5 -43.5t-34.5 -102.5q0 -58 34.5 -97t89.5 -39zM208 1155l276 291h264l268 -291h-278l-124 149
l-142 -149h-264z" />
    <glyph glyph-name="Gbreve" unicode="&#x11e;" horiz-adv-x="1565" 
d="M769 -20q-206 0 -360 93.5t-239 260t-85 384.5q0 225 90.5 393.5t250 261.5t367.5 93q146 0 262 -44t198.5 -119.5t126.5 -170.5t46 -196h-407q-13 59 -42.5 106t-77.5 74.5t-116 27.5q-71 0 -133.5 -38.5t-101 -129t-38.5 -246.5q0 -133 27.5 -214.5t71 -124.5t94.5 -58
t97 -15q41 0 76 12t62 31.5t45.5 43.5t26.5 49l17 52h-252v262l662 -4v-764h-255v160q-36 -37 -86.5 -79t-128.5 -71.5t-198 -29.5zM781 1568q-93 0 -175.5 32t-140.5 96.5t-78 161.5h230q14 -51 56 -83.5t108 -32.5q65 0 107.5 32.5t57.5 83.5h229q-19 -97 -77.5 -161.5
t-141 -96.5t-175.5 -32z" />
    <glyph glyph-name="gbreve" unicode="&#x11f;" horiz-adv-x="1268" 
d="M618 -342q-306 0 -456 69.5t-150 168.5q0 50 29 82.5t68 50.5t71 26t38 9q-15 8 -50 27t-65.5 54.5t-30.5 92.5q0 62 58.5 114t179.5 68q-112 50 -167 138t-55 170q0 104 73 176t192.5 109t260.5 37q111 0 179 -22t125 -52q29 11 69.5 26.5t87 33.5t93.5 37t90 37
l-2 -276l-176 -24q6 -22 9 -46.5t3 -33.5q0 -88 -57 -169.5t-169 -134t-276 -52.5q-24 0 -68 1.5t-70 4.5q-15 -3 -21.5 -6.5t-6.5 -11.5q0 -21 45 -25t121 -9q27 -1 83.5 -4t122.5 -8q215 -15 313.5 -102.5t98.5 -207.5q0 -150 -148 -249t-442 -99zM678 -138q102 0 132 18
t30 46q0 33 -34 53.5t-94 24.5l-188 12q-54 3 -83 -8.5t-40 -30t-11 -35.5q0 -49 70 -64.5t218 -15.5zM602 578q56 0 90 39t34 97q0 59 -34 102.5t-90 43.5q-55 0 -89.5 -43.5t-34.5 -102.5q0 -58 34.5 -97t89.5 -39zM616 1156q-93 0 -175.5 32t-140.5 96.5t-78 161.5h230
q14 -51 56 -83.5t108 -32.5q65 0 107.5 32.5t57.5 83.5h229q-19 -97 -77.5 -161.5t-141 -96.5t-175.5 -32z" />
    <glyph glyph-name="Gdotaccent" unicode="&#x120;" horiz-adv-x="1565" 
d="M769 -20q-206 0 -360 93.5t-239 260t-85 384.5q0 225 90.5 393.5t250 261.5t367.5 93q146 0 262 -44t198.5 -119.5t126.5 -170.5t46 -196h-407q-13 59 -42.5 106t-77.5 74.5t-116 27.5q-71 0 -133.5 -38.5t-101 -129t-38.5 -246.5q0 -133 27.5 -214.5t71 -124.5t94.5 -58
t97 -15q41 0 76 12t62 31.5t45.5 43.5t26.5 49l17 52h-252v262l662 -4v-764h-255v160q-36 -37 -86.5 -79t-128.5 -71.5t-198 -29.5zM599 1567v291h362v-291h-362z" />
    <glyph glyph-name="gdotaccent" unicode="&#x121;" horiz-adv-x="1268" 
d="M618 -342q-306 0 -456 69.5t-150 168.5q0 50 29 82.5t68 50.5t71 26t38 9q-15 8 -50 27t-65.5 54.5t-30.5 92.5q0 62 58.5 114t179.5 68q-112 50 -167 138t-55 170q0 104 73 176t192.5 109t260.5 37q111 0 179 -22t125 -52q29 11 69.5 26.5t87 33.5t93.5 37t90 37
l-2 -276l-176 -24q6 -22 9 -46.5t3 -33.5q0 -88 -57 -169.5t-169 -134t-276 -52.5q-24 0 -68 1.5t-70 4.5q-15 -3 -21.5 -6.5t-6.5 -11.5q0 -21 45 -25t121 -9q27 -1 83.5 -4t122.5 -8q215 -15 313.5 -102.5t98.5 -207.5q0 -150 -148 -249t-442 -99zM678 -138q102 0 132 18
t30 46q0 33 -34 53.5t-94 24.5l-188 12q-54 3 -83 -8.5t-40 -30t-11 -35.5q0 -49 70 -64.5t218 -15.5zM602 578q56 0 90 39t34 97q0 59 -34 102.5t-90 43.5q-55 0 -89.5 -43.5t-34.5 -102.5q0 -58 34.5 -97t89.5 -39zM434 1155v291h362v-291h-362z" />
    <glyph glyph-name="uni0122" unicode="&#x122;" horiz-adv-x="1565" 
d="M769 -20q-206 0 -360 93.5t-239 260t-85 384.5q0 225 90.5 393.5t250 261.5t367.5 93q146 0 262 -44t198.5 -119.5t126.5 -170.5t46 -196h-407q-13 59 -42.5 106t-77.5 74.5t-116 27.5q-71 0 -133.5 -38.5t-101 -129t-38.5 -246.5q0 -133 27.5 -214.5t71 -124.5t94.5 -58
t97 -15q41 0 76 12t62 31.5t45.5 43.5t26.5 49l17 52h-252v262l662 -4v-764h-255v160q-36 -37 -86.5 -79t-128.5 -71.5t-198 -29.5zM614 -495l100 172l-96 14v218h304v-180l-180 -224h-128z" />
    <glyph glyph-name="uni0123" unicode="&#x123;" horiz-adv-x="1268" 
d="M618 -342q-306 0 -456 69.5t-150 168.5q0 50 29 82.5t68 50.5t71 26t38 9q-15 8 -50 27t-65.5 54.5t-30.5 92.5q0 62 58.5 114t179.5 68q-112 50 -167 138t-55 170q0 104 73 176t192.5 109t260.5 37q111 0 179 -22t125 -52q29 11 69.5 26.5t87 33.5t93.5 37t90 37
l-2 -276l-176 -24q6 -22 9 -46.5t3 -33.5q0 -88 -57 -169.5t-169 -134t-276 -52.5q-24 0 -68 1.5t-70 4.5q-15 -3 -21.5 -6.5t-6.5 -11.5q0 -21 45 -25t121 -9q27 -1 83.5 -4t122.5 -8q215 -15 313.5 -102.5t98.5 -207.5q0 -150 -148 -249t-442 -99zM678 -138q102 0 132 18
t30 46q0 33 -34 53.5t-94 24.5l-188 12q-54 3 -83 -8.5t-40 -30t-11 -35.5q0 -49 70 -64.5t218 -15.5zM602 578q56 0 90 39t34 97q0 59 -34 102.5t-90 43.5q-55 0 -89.5 -43.5t-34.5 -102.5q0 -58 34.5 -97t89.5 -39zM462 1155v180l180 224h128l-100 -172l96 -14v-218h-304z
" />
    <glyph glyph-name="Hcircumflex" unicode="&#x124;" horiz-adv-x="1547" 
d="M135 0v1446h389v-548h499v548h389v-1446h-389v580h-499v-580h-389zM369 1567l276 291h264l268 -291h-278l-124 149l-142 -149h-264z" />
    <glyph glyph-name="hcircumflex" unicode="&#x125;" horiz-adv-x="1213" 
d="M100 0v1486h389v-599q24 30 56.5 64t84 58.5t132.5 24.5q97 0 179 -39.5t132 -116.5t50 -190v-688h-390v638q0 51 -39 76.5t-83 25.5q-28 0 -56.5 -12.5t-47 -36.5t-18.5 -58v-633h-389zM-117 1567l276 291h264l268 -291h-278l-124 149l-142 -149h-264z" />
    <glyph glyph-name="Hbar" unicode="&#x126;" horiz-adv-x="1708" 
d="M40 1082v202h1628v-202h-1628zM225 0v1446h389v-548h499v548h389v-1446h-389v580h-499v-580h-389z" />
    <glyph glyph-name="hbar" unicode="&#x127;" horiz-adv-x="1291" 
d="M40 1132v208h722v-208h-722zM178 0v1486h389v-599q24 30 56.5 64t84 58.5t132.5 24.5q97 0 179 -39.5t132 -116.5t50 -190v-688h-390v638q0 51 -39 76.5t-83 25.5q-28 0 -56.5 -12.5t-47 -36.5t-18.5 -58v-633h-389z" />
    <glyph glyph-name="Itilde" unicode="&#x128;" horiz-adv-x="659" 
d="M135 0v1446h389v-1446h-389zM7 1577l-54 192q39 44 88.5 75.5t127.5 31.5q62 0 118.5 -16.5t108 -33.5t97.5 -17q59 0 108 28t82 54l40 -220q-36 -31 -96.5 -56t-131.5 -25q-58 0 -109 15t-101 29.5t-106 14.5q-51 0 -88 -15.5t-84 -56.5z" />
    <glyph glyph-name="itilde" unicode="&#x129;" horiz-adv-x="790" 
d="M196 0v1034h371v-1034h-371zM64 1165l-54 192q39 44 88.5 75.5t127.5 31.5q62 0 118.5 -16.5t108 -33.5t97.5 -17q59 0 108 28t82 54l40 -220q-36 -31 -96.5 -56t-131.5 -25q-58 0 -109 15t-101 29.5t-106 14.5q-51 0 -88 -15.5t-84 -56.5z" />
    <glyph glyph-name="Imacron" unicode="&#x12a;" horiz-adv-x="659" 
d="M135 0v1446h389v-1446h-389zM-69 1590v238h800v-238h-800z" />
    <glyph glyph-name="imacron" unicode="&#x12b;" horiz-adv-x="820" 
d="M218 0v1034h371v-1034h-371zM10 1178v238h800v-238h-800z" />
    <glyph glyph-name="Ibreve" unicode="&#x12c;" horiz-adv-x="659" 
d="M135 0v1446h389v-1446h-389zM331 1568q-93 0 -175.5 32t-140.5 96.5t-78 161.5h230q14 -51 56 -83.5t108 -32.5q65 0 107.5 32.5t57.5 83.5h229q-19 -97 -77.5 -161.5t-141 -96.5t-175.5 -32z" />
    <glyph glyph-name="ibreve" unicode="&#x12d;" horiz-adv-x="571" 
d="M100 0v1034h371v-1034h-371zM292 1156q-93 0 -175.5 32t-140.5 96.5t-78 161.5h230q14 -51 56 -83.5t108 -32.5q65 0 107.5 32.5t57.5 83.5h229q-19 -97 -77.5 -161.5t-141 -96.5t-175.5 -32z" />
    <glyph glyph-name="Iogonek" unicode="&#x12e;" horiz-adv-x="659" 
d="M135 0v1446h389v-1446h-389zM309 -352q-106 0 -171 41.5t-65 128.5q0 50 34 96t148 86h266q-109 -36 -144.5 -65.5t-35.5 -62.5q0 -28 13.5 -42t40.5 -14q44 0 77 14.5t69 35.5v-164q-30 -19 -93.5 -36.5t-138.5 -17.5z" />
    <glyph glyph-name="iogonek" unicode="&#x12f;" horiz-adv-x="571" 
d="M100 0v1034h371v-1034h-371zM110 1155v291h362v-291h-362zM266 -342q-106 0 -171 41.5t-65 128.5q0 50 34 96t148 86h266q-109 -36 -144.5 -65.5t-35.5 -62.5q0 -28 13.5 -42t40.5 -14q44 0 77 14.5t69 35.5v-164q-30 -19 -93.5 -36.5t-138.5 -17.5z" />
    <glyph glyph-name="Idotaccent" unicode="&#x130;" horiz-adv-x="659" 
d="M135 0v1446h389v-1446h-389zM149 1567v291h362v-291h-362z" />
    <glyph glyph-name="dotlessi" unicode="&#x131;" horiz-adv-x="571" 
d="M100 0v1034h371v-1034h-371z" />
    <glyph glyph-name="Jcircumflex" unicode="&#x134;" horiz-adv-x="828" 
d="M292 -20q-61 0 -139 5.5t-123 14.5v350q27 -3 62 -6.5t66 -3.5q104 0 138 53t34 165v888h390v-988q0 -160 -34 -266t-126.5 -159t-267.5 -53zM108 1567l276 291h264l268 -291h-278l-124 149l-142 -149h-264z" />
    <glyph glyph-name="jcircumflex" unicode="&#x135;" horiz-adv-x="624" 
d="M114 -332q-77 0 -104.5 17l-27.5 17l-2 260l59 10q55 12 75.5 32.5t20.5 51.5v978h389v-978q0 -192 -101 -290t-309 -98zM-79 1155l276 291h264l268 -291h-278l-124 149l-142 -149h-264z" />
    <glyph glyph-name="uni0136" unicode="&#x136;" horiz-adv-x="1497" 
d="M135 0v1446h404v-584l418 584h437l-397 -552l462 -894h-418l-322 610l-180 -232v-378h-404zM560 -495l100 172l-96 14v218h304v-180l-180 -224h-128z" />
    <glyph glyph-name="uni0137" unicode="&#x137;" horiz-adv-x="1192" 
d="M100 0v1486h389v-800l284 348h407l-378 -428l380 -606h-378l-239 380l-76 -88v-292h-389zM447 -495l100 172l-96 14v218h304v-180l-180 -224h-128z" />
    <glyph glyph-name="kgreenlandic" unicode="&#x138;" horiz-adv-x="1254" 
d="M100 0v1034h389v-390l345 390h382l-332 -334l360 -700h-440l-176 422l-139 -130v-292h-389z" />
    <glyph glyph-name="Lacute" unicode="&#x139;" horiz-adv-x="1156" 
d="M135 0v1446h389v-1126h578v-320h-967zM186 1567l206 291h383l-317 -291h-272z" />
    <glyph glyph-name="lacute" unicode="&#x13a;" horiz-adv-x="705" 
d="M493 -22q-143 0 -223.5 30.5t-116.5 79.5t-44.5 108t-8.5 116v1174h381v-1122q0 -37 19 -70t98 -44l42 -4v-236q-35 -13 -72 -22.5t-75 -9.5zM158 1651l206 291h383l-317 -291h-272z" />
    <glyph glyph-name="uni013B" unicode="&#x13b;" horiz-adv-x="1156" 
d="M135 0v1446h389v-1126h578v-320h-967zM454 -495l100 172l-96 14v218h304v-180l-180 -224h-128z" />
    <glyph glyph-name="uni013C" unicode="&#x13c;" horiz-adv-x="705" 
d="M493 -22q-143 0 -223.5 30.5t-116.5 79.5t-44.5 108t-8.5 116v1174h381v-1122q0 -37 19 -70t98 -44l42 -4v-236q-35 -13 -72 -22.5t-75 -9.5zM107 -495l100 172l-96 14v218h304v-180l-180 -224h-128z" />
    <glyph glyph-name="Lcaron" unicode="&#x13d;" horiz-adv-x="1156" 
d="M135 0v1446h389v-1126h578v-320h-967zM803 966l86 218l-86 14v248h242v-260l-92 -220h-150z" />
    <glyph glyph-name="lcaron" unicode="&#x13e;" horiz-adv-x="705" 
d="M493 -22q-143 0 -223.5 30.5t-116.5 79.5t-44.5 108t-8.5 116v1174h381v-1122q0 -37 19 -70t98 -44l42 -4v-236q-35 -13 -72 -22.5t-75 -9.5zM583 1006l86 218l-86 14v248h242v-260l-92 -220h-150z" />
    <glyph glyph-name="Ldot" unicode="&#x13f;" horiz-adv-x="1156" 
d="M135 0v1446h389v-1126h578v-320h-967zM723 640v348h362v-348h-362z" />
    <glyph glyph-name="ldot" unicode="&#x140;" horiz-adv-x="981" 
d="M493 -22q-143 0 -223.5 30.5t-116.5 79.5t-44.5 108t-8.5 116v1174h381v-1122q0 -37 19 -70t98 -44l42 -4v-236q-35 -13 -72 -22.5t-75 -9.5zM600 600v348h362v-348h-362z" />
    <glyph glyph-name="Lslash" unicode="&#x141;" horiz-adv-x="1196" 
d="M0 538v318l874 232v-302zM175 0v1446h389v-1126h578v-320h-967z" />
    <glyph glyph-name="lslash" unicode="&#x142;" horiz-adv-x="775" 
d="M70 284v324l632 396v-306zM563 -22q-143 0 -223.5 30.5t-116.5 79.5t-44.5 108t-8.5 116v1174h381v-1122q0 -37 19 -70t98 -44l42 -4v-236q-35 -13 -72 -22.5t-75 -9.5z" />
    <glyph glyph-name="Nacute" unicode="&#x143;" horiz-adv-x="1615" 
d="M135 0v1446h392l564 -806v806h389v-1446h-351l-605 862v-862h-389zM672 1567l206 291h383l-317 -291h-272z" />
    <glyph glyph-name="nacute" unicode="&#x144;" horiz-adv-x="1215" 
d="M100 0v1034h385v-143q22 33 56 67t88 57t135 23q91 0 173.5 -35t135 -112t52.5 -203v-688h-390v635q0 51 -38 78t-82 27q-28 0 -57.5 -12t-49 -35.5t-19.5 -57.5v-635h-389zM476 1155l206 291h383l-317 -291h-272z" />
    <glyph glyph-name="uni0145" unicode="&#x145;" horiz-adv-x="1615" 
d="M135 0v1446h392l564 -806v806h389v-1446h-351l-605 862v-862h-389zM648 -495l100 172l-96 14v218h304v-180l-180 -224h-128z" />
    <glyph glyph-name="uni0146" unicode="&#x146;" horiz-adv-x="1215" 
d="M100 0v1034h385v-143q22 33 56 67t88 57t135 23q91 0 173.5 -35t135 -112t52.5 -203v-688h-390v635q0 51 -38 78t-82 27q-28 0 -57.5 -12t-49 -35.5t-19.5 -57.5v-635h-389zM452 -495l100 172l-96 14v218h304v-180l-180 -224h-128z" />
    <glyph glyph-name="Ncaron" unicode="&#x147;" horiz-adv-x="1615" 
d="M135 0v1446h392l564 -806v806h389v-1446h-351l-605 862v-862h-389zM673 1567l-274 293h264l142 -164l124 164h278l-268 -293h-266z" />
    <glyph glyph-name="ncaron" unicode="&#x148;" horiz-adv-x="1215" 
d="M100 0v1034h385v-143q22 33 56 67t88 57t135 23q91 0 173.5 -35t135 -112t52.5 -203v-688h-390v635q0 51 -38 78t-82 27q-28 0 -57.5 -12t-49 -35.5t-19.5 -57.5v-635h-389zM477 1155l-274 293h264l142 -164l124 164h278l-268 -293h-266z" />
    <glyph glyph-name="Eng" unicode="&#x14a;" horiz-adv-x="1615" 
d="M1051 -480q-61 0 -139 5.5t-123 14.5v350q27 -3 62 -6.5t66 -3.5q86 0 128.5 36.5t42.5 113.5v28l-564 804v-862h-389v1446h392l564 -806v806h389l-1 -1446q0 -178 -40 -283t-133.5 -151t-254.5 -46z" />
    <glyph glyph-name="eng" unicode="&#x14b;" horiz-adv-x="1227" 
d="M730 -332q-85 0 -105.5 13l-20.5 13v270l47 6q45 8 65.5 25.5t20.5 54.5v634q0 44 -27.5 69t-73.5 25q-47 0 -81.5 -24t-61.5 -74v-680h-393l6 1034h381v-162q43 52 96 93t113 65t125 24q137 0 221.5 -86t84.5 -230v-682q0 -120 -50.5 -207t-140 -134t-206.5 -47z" />
    <glyph glyph-name="Omacron" unicode="&#x14c;" horiz-adv-x="1570" 
d="M787 -20q-215 0 -372.5 91.5t-243.5 257.5t-86 391q0 226 87.5 393.5t245.5 260t369 92.5q210 0 367 -92.5t244 -260t87 -393.5q0 -224 -85.5 -390.5t-242.5 -258t-370 -91.5zM787 292q80 0 142.5 40.5t98 133t35.5 248.5q0 161 -35.5 257.5t-98 139.5t-142.5 43
t-142.5 -43t-98.5 -139.5t-36 -257.5q0 -156 36 -248.5t98.5 -133t142.5 -40.5zM385 1590v238h800v-238h-800z" />
    <glyph glyph-name="omacron" unicode="&#x14d;" 
d="M584 -20q-160 0 -277.5 68t-182 187.5t-64.5 274.5q0 163 67.5 285.5t186 190.5t272.5 68q162 0 279.5 -70.5t181 -193.5t63.5 -280q0 -154 -64.5 -273.5t-182.5 -188t-279 -68.5zM586 262q62 0 93.5 42.5t42 103.5t10.5 116q0 56 -10.5 114.5t-42 98t-93.5 39.5
q-63 0 -94.5 -39.5t-42.5 -98t-11 -114.5q0 -55 11 -116t42.5 -103.5t94.5 -42.5zM186 1178v238h800v-238h-800z" />
    <glyph glyph-name="Obreve" unicode="&#x14e;" horiz-adv-x="1570" 
d="M787 -20q-215 0 -372.5 91.5t-243.5 257.5t-86 391q0 226 87.5 393.5t245.5 260t369 92.5q210 0 367 -92.5t244 -260t87 -393.5q0 -224 -85.5 -390.5t-242.5 -258t-370 -91.5zM787 292q80 0 142.5 40.5t98 133t35.5 248.5q0 161 -35.5 257.5t-98 139.5t-142.5 43
t-142.5 -43t-98.5 -139.5t-36 -257.5q0 -156 36 -248.5t98.5 -133t142.5 -40.5zM785 1568q-93 0 -175.5 32t-140.5 96.5t-78 161.5h230q14 -51 56 -83.5t108 -32.5q65 0 107.5 32.5t57.5 83.5h229q-19 -97 -77.5 -161.5t-141 -96.5t-175.5 -32z" />
    <glyph glyph-name="obreve" unicode="&#x14f;" 
d="M584 -20q-160 0 -277.5 68t-182 187.5t-64.5 274.5q0 163 67.5 285.5t186 190.5t272.5 68q162 0 279.5 -70.5t181 -193.5t63.5 -280q0 -154 -64.5 -273.5t-182.5 -188t-279 -68.5zM586 262q62 0 93.5 42.5t42 103.5t10.5 116q0 56 -10.5 114.5t-42 98t-93.5 39.5
q-63 0 -94.5 -39.5t-42.5 -98t-11 -114.5q0 -55 11 -116t42.5 -103.5t94.5 -42.5zM586 1156q-93 0 -175.5 32t-140.5 96.5t-78 161.5h230q14 -51 56 -83.5t108 -32.5q65 0 107.5 32.5t57.5 83.5h229q-19 -97 -77.5 -161.5t-141 -96.5t-175.5 -32z" />
    <glyph glyph-name="Ohungarumlaut" unicode="&#x150;" horiz-adv-x="1570" 
d="M787 -20q-215 0 -372.5 91.5t-243.5 257.5t-86 391q0 226 87.5 393.5t245.5 260t369 92.5q210 0 367 -92.5t244 -260t87 -393.5q0 -224 -85.5 -390.5t-242.5 -258t-370 -91.5zM787 292q80 0 142.5 40.5t98 133t35.5 248.5q0 161 -35.5 257.5t-98 139.5t-142.5 43
t-142.5 -43t-98.5 -139.5t-36 -257.5q0 -156 36 -248.5t98.5 -133t142.5 -40.5zM857 1567l256 291h346l-330 -291h-272zM437 1567l206 291h333l-267 -291h-272z" />
    <glyph glyph-name="ohungarumlaut" unicode="&#x151;" 
d="M584 -20q-160 0 -277.5 68t-182 187.5t-64.5 274.5q0 163 67.5 285.5t186 190.5t272.5 68q162 0 279.5 -70.5t181 -193.5t63.5 -280q0 -154 -64.5 -273.5t-182.5 -188t-279 -68.5zM586 262q62 0 93.5 42.5t42 103.5t10.5 116q0 56 -10.5 114.5t-42 98t-93.5 39.5
q-63 0 -94.5 -39.5t-42.5 -98t-11 -114.5q0 -55 11 -116t42.5 -103.5t94.5 -42.5zM658 1155l256 291h346l-330 -291h-272zM238 1155l206 291h333l-267 -291h-272z" />
    <glyph glyph-name="OE" unicode="&#x152;" horiz-adv-x="2270" 
d="M1499 570v-246h681v-324h-1070v48q-70 -33 -151 -50.5t-172 -17.5q-215 0 -372.5 91.5t-243.5 257.5t-86 391q0 226 87.5 393.5t245.5 260t369 92.5q90 0 171.5 -17.5t151.5 -51.5v49h1068l-2 -322h-674v-240h564v-314h-567zM787 292q80 0 142.5 40.5t98 133t35.5 248.5
q0 161 -35.5 257.5t-98 139.5t-142.5 43t-142.5 -43t-98.5 -139.5t-36 -257.5q0 -156 36 -248.5t98.5 -133t142.5 -40.5z" />
    <glyph glyph-name="oe" unicode="&#x153;" horiz-adv-x="1843" 
d="M1773 518v-90h-652q-1 -62 19 -101t54.5 -57t76.5 -18q53 0 95.5 20t66.5 80h344q-16 -115 -91 -198.5t-182.5 -128.5t-222.5 -45q-106 0 -196 29t-159 83q-66 -53 -152 -82.5t-190 -29.5q-160 0 -277.5 68t-182 187.5t-64.5 274.5q0 163 67.5 285.5t186 190.5t272.5 68
q104 0 190.5 -30t151.5 -85q65 54 149.5 84.5t187.5 30.5q169 0 282 -70t169.5 -191.5t56.5 -274.5zM586 262q62 0 93.5 42.5t42 103.5t10.5 116q0 56 -10.5 114.5t-42 98t-93.5 39.5q-63 0 -94.5 -39.5t-42.5 -98t-11 -114.5q0 -55 11 -116t42.5 -103.5t94.5 -42.5z
M1119 646h295q0 39 -17 72.5t-50 53.5t-82 20q-40 0 -73 -20t-53 -53.5t-20 -72.5z" />
    <glyph glyph-name="Racute" unicode="&#x154;" horiz-adv-x="1427" 
d="M135 0v1446h656q188 0 302.5 -62t166.5 -167.5t52 -236.5q0 -111 -29.5 -189.5t-81 -134t-118.5 -96.5l254 -560h-399l-210 498h-204v-498h-389zM524 788h223q75 0 124.5 59t49.5 129q0 75 -54 128.5t-120 53.5h-223v-370zM564 1567l206 291h383l-317 -291h-272z" />
    <glyph glyph-name="racute" unicode="&#x155;" horiz-adv-x="863" 
d="M100 0v1034h376v-286q24 83 68.5 152.5t113.5 111.5t165 42h11h4v-368q-3 1 -5.5 1t-7.5 1q-109 11 -175.5 -2t-101.5 -42.5t-47 -68t-12 -79.5v-496h-389zM337 1155l206 291h383l-317 -291h-272z" />
    <glyph glyph-name="uni0156" unicode="&#x156;" horiz-adv-x="1427" 
d="M135 0v1446h656q188 0 302.5 -62t166.5 -167.5t52 -236.5q0 -111 -29.5 -189.5t-81 -134t-118.5 -96.5l254 -560h-399l-210 498h-204v-498h-389zM524 788h223q75 0 124.5 59t49.5 129q0 75 -54 128.5t-120 53.5h-223v-370zM560 -495l100 172l-96 14v218h304v-180
l-180 -224h-128z" />
    <glyph glyph-name="uni0157" unicode="&#x157;" horiz-adv-x="863" 
d="M100 0v1034h376v-286q24 83 68.5 152.5t113.5 111.5t165 42h11h4v-368q-3 1 -5.5 1t-7.5 1q-109 11 -175.5 -2t-101.5 -42.5t-47 -68t-12 -79.5v-496h-389zM134 -495l100 172l-96 14v218h304v-180l-180 -224h-128z" />
    <glyph glyph-name="Rcaron" unicode="&#x158;" horiz-adv-x="1427" 
d="M135 0v1446h656q188 0 302.5 -62t166.5 -167.5t52 -236.5q0 -111 -29.5 -189.5t-81 -134t-118.5 -96.5l254 -560h-399l-210 498h-204v-498h-389zM524 788h223q75 0 124.5 59t49.5 129q0 75 -54 128.5t-120 53.5h-223v-370zM565 1567l-274 293h264l142 -164l124 164h278
l-268 -293h-266z" />
    <glyph glyph-name="rcaron" unicode="&#x159;" horiz-adv-x="863" 
d="M100 0v1034h376v-286q24 83 68.5 152.5t113.5 111.5t165 42h11h4v-368q-3 1 -5.5 1t-7.5 1q-109 11 -175.5 -2t-101.5 -42.5t-47 -68t-12 -79.5v-496h-389zM338 1155l-274 293h264l142 -164l124 164h278l-268 -293h-266z" />
    <glyph glyph-name="Sacute" unicode="&#x15a;" horiz-adv-x="1424" 
d="M726 -20q-112 0 -221.5 28t-201 85t-150.5 143.5t-68 203.5h396q11 -51 44 -87t89.5 -55.5t135.5 -19.5q47 0 95 11.5t80.5 39t32.5 75.5q0 63 -52 86.5t-123 36.5l-247 44q-129 23 -221 77.5t-140.5 142.5t-48.5 211q0 146 81 249.5t220 158t312 54.5q189 0 321.5 -58
t203.5 -161t74 -237h-386q-6 55 -34 89t-75.5 50.5t-114.5 16.5q-108 0 -151 -38t-43 -82q0 -45 35.5 -76.5t126.5 -46.5l215 -35q151 -24 247.5 -84t142.5 -150t46 -206q0 -141 -81.5 -245.5t-221.5 -162.5t-318 -58zM585 1567l206 291h383l-317 -291h-272z" />
    <glyph glyph-name="sacute" unicode="&#x15b;" horiz-adv-x="1092" 
d="M556 -20q-108 0 -214 37t-183 118t-99 213h330q13 -50 46 -74t67 -31t51 -7q65 0 105 15.5t40 46.5q0 29 -27 45.5t-97 26.5l-153 24q-148 27 -239 102t-93 214q-1 96 53.5 174t160 124t256.5 46q212 0 336 -92t124 -250h-317q-11 47 -53 69.5t-95 22.5q-54 0 -91.5 -16
t-37.5 -46q0 -27 36 -43.5t119 -30.5l133 -24q100 -24 161.5 -65t94 -88.5t44.5 -93t12 -77.5q0 -111 -62.5 -186.5t-169 -114.5t-238.5 -39zM425 1155l206 291h383l-317 -291h-272z" />
    <glyph glyph-name="Scircumflex" unicode="&#x15c;" horiz-adv-x="1424" 
d="M726 -20q-112 0 -221.5 28t-201 85t-150.5 143.5t-68 203.5h396q11 -51 44 -87t89.5 -55.5t135.5 -19.5q47 0 95 11.5t80.5 39t32.5 75.5q0 63 -52 86.5t-123 36.5l-247 44q-129 23 -221 77.5t-140.5 142.5t-48.5 211q0 146 81 249.5t220 158t312 54.5q189 0 321.5 -58
t203.5 -161t74 -237h-386q-6 55 -34 89t-75.5 50.5t-114.5 16.5q-108 0 -151 -38t-43 -82q0 -45 35.5 -76.5t126.5 -46.5l215 -35q151 -24 247.5 -84t142.5 -150t46 -206q0 -141 -81.5 -245.5t-221.5 -162.5t-318 -58zM312 1567l276 291h264l268 -291h-278l-124 149
l-142 -149h-264z" />
    <glyph glyph-name="scircumflex" unicode="&#x15d;" horiz-adv-x="1092" 
d="M556 -20q-108 0 -214 37t-183 118t-99 213h330q13 -50 46 -74t67 -31t51 -7q65 0 105 15.5t40 46.5q0 29 -27 45.5t-97 26.5l-153 24q-148 27 -239 102t-93 214q-1 96 53.5 174t160 124t256.5 46q212 0 336 -92t124 -250h-317q-11 47 -53 69.5t-95 22.5q-54 0 -91.5 -16
t-37.5 -46q0 -27 36 -43.5t119 -30.5l133 -24q100 -24 161.5 -65t94 -88.5t44.5 -93t12 -77.5q0 -111 -62.5 -186.5t-169 -114.5t-238.5 -39zM152 1155l276 291h264l268 -291h-278l-124 149l-142 -149h-264z" />
    <glyph glyph-name="Scedilla" unicode="&#x15e;" horiz-adv-x="1424" 
d="M730 -438q-70 0 -138.5 12t-127.5 46l48 118q36 -19 81.5 -35.5t88.5 -16.5q41 0 66.5 14t25.5 38q0 36 -38.5 56t-139.5 20q-15 0 -21 4t1 20l74 172h158l-42 -114q82 0 131 -25.5t71 -63.5t22 -75q0 -52 -36.5 -90t-95.5 -59t-128 -21zM726 -20q-112 0 -221.5 28
t-201 85t-150.5 143.5t-68 203.5h396q11 -51 44 -87t89.5 -55.5t135.5 -19.5q47 0 95 11.5t80.5 39t32.5 75.5q0 63 -52 86.5t-123 36.5l-247 44q-129 23 -221 77.5t-140.5 142.5t-48.5 211q0 146 81 249.5t220 158t312 54.5q189 0 321.5 -58t203.5 -161t74 -237h-386
q-6 55 -34 89t-75.5 50.5t-114.5 16.5q-108 0 -151 -38t-43 -82q0 -45 35.5 -76.5t126.5 -46.5l215 -35q151 -24 247.5 -84t142.5 -150t46 -206q0 -141 -81.5 -245.5t-221.5 -162.5t-318 -58z" />
    <glyph glyph-name="scedilla" unicode="&#x15f;" horiz-adv-x="1092" 
d="M568 -438q-70 0 -138.5 12t-127.5 46l48 118q36 -19 81.5 -35.5t88.5 -16.5q41 0 66.5 14t25.5 38q0 36 -38.5 56t-139.5 20q-15 0 -21 4t1 20l74 172h158l-42 -114q82 0 131 -25.5t71 -63.5t22 -75q0 -52 -36.5 -90t-95.5 -59t-128 -21zM556 -20q-108 0 -214 37
t-183 118t-99 213h330q13 -50 46 -74t67 -31t51 -7q65 0 105 15.5t40 46.5q0 29 -27 45.5t-97 26.5l-153 24q-148 27 -239 102t-93 214q-1 96 53.5 174t160 124t256.5 46q212 0 336 -92t124 -250h-317q-11 47 -53 69.5t-95 22.5q-54 0 -91.5 -16t-37.5 -46q0 -27 36 -43.5
t119 -30.5l133 -24q100 -24 161.5 -65t94 -88.5t44.5 -93t12 -77.5q0 -111 -62.5 -186.5t-169 -114.5t-238.5 -39z" />
    <glyph glyph-name="Scaron" unicode="&#x160;" horiz-adv-x="1424" 
d="M726 -20q-112 0 -221.5 28t-201 85t-150.5 143.5t-68 203.5h396q11 -51 44 -87t89.5 -55.5t135.5 -19.5q47 0 95 11.5t80.5 39t32.5 75.5q0 63 -52 86.5t-123 36.5l-247 44q-129 23 -221 77.5t-140.5 142.5t-48.5 211q0 146 81 249.5t220 158t312 54.5q189 0 321.5 -58
t203.5 -161t74 -237h-386q-6 55 -34 89t-75.5 50.5t-114.5 16.5q-108 0 -151 -38t-43 -82q0 -45 35.5 -76.5t126.5 -46.5l215 -35q151 -24 247.5 -84t142.5 -150t46 -206q0 -141 -81.5 -245.5t-221.5 -162.5t-318 -58zM586 1567l-274 293h264l142 -164l124 164h278
l-268 -293h-266z" />
    <glyph glyph-name="scaron" unicode="&#x161;" horiz-adv-x="1092" 
d="M556 -20q-108 0 -214 37t-183 118t-99 213h330q13 -50 46 -74t67 -31t51 -7q65 0 105 15.5t40 46.5q0 29 -27 45.5t-97 26.5l-153 24q-148 27 -239 102t-93 214q-1 96 53.5 174t160 124t256.5 46q212 0 336 -92t124 -250h-317q-11 47 -53 69.5t-95 22.5q-54 0 -91.5 -16
t-37.5 -46q0 -27 36 -43.5t119 -30.5l133 -24q100 -24 161.5 -65t94 -88.5t44.5 -93t12 -77.5q0 -111 -62.5 -186.5t-169 -114.5t-238.5 -39zM426 1155l-274 293h264l142 -164l124 164h278l-268 -293h-266z" />
    <glyph glyph-name="uni0162" unicode="&#x162;" horiz-adv-x="1274" 
d="M664 -438q-70 0 -138.5 12t-127.5 46l48 118q36 -19 81.5 -35.5t88.5 -16.5q41 0 66.5 14t25.5 38q0 36 -38.5 56t-139.5 20q-15 0 -21 4t1 20l74 172h158l-42 -114q82 0 131 -25.5t71 -63.5t22 -75q0 -52 -36.5 -90t-95.5 -59t-128 -21zM440 0v1104h-410v342h1214v-342
h-414v-1104h-390z" />
    <glyph glyph-name="uni0163" unicode="&#x163;" horiz-adv-x="882" 
d="M516 -420q-70 0 -138.5 12t-127.5 46l48 118q36 -19 81.5 -35.5t88.5 -16.5q41 0 66.5 14t25.5 38q0 36 -38.5 56t-139.5 20q-15 0 -21 4t1 20l74 172h158l-42 -114q82 0 131 -25.5t71 -63.5t22 -75q0 -52 -36.5 -90t-95.5 -59t-128 -21zM606 -16q-163 0 -251.5 40.5
t-122.5 108.5t-34 151v486h-168v264h182l100 322h274v-320h226v-266h-226l2 -468q0 -23 8.5 -35t22.5 -16.5t31 -4.5h162v-230q-21 -10 -67 -21t-139 -11z" />
    <glyph glyph-name="Tcaron" unicode="&#x164;" horiz-adv-x="1274" 
d="M440 0v1104h-410v342h1214v-342h-414v-1104h-390zM520 1567l-274 293h264l142 -164l124 164h278l-268 -293h-266z" />
    <glyph glyph-name="tcaron" unicode="&#x165;" horiz-adv-x="950" 
d="M606 -16q-163 0 -251.5 40.5t-122.5 108.5t-34 151v486h-168v264h182l100 322h274v-320h226v-266h-226l2 -468q0 -23 8.5 -35t22.5 -16.5t31 -4.5h162v-230q-21 -10 -67 -21t-139 -11zM646 1106l86 218l-86 14v248h242v-260l-92 -220h-150z" />
    <glyph glyph-name="Tbar" unicode="&#x166;" horiz-adv-x="1274" 
d="M208 548v274h854v-274h-854zM440 0v1104h-410v342h1214v-342h-414v-1104h-390z" />
    <glyph glyph-name="tbar" unicode="&#x167;" horiz-adv-x="882" 
d="M58 450v210h725v-210h-725zM606 -16q-163 0 -251.5 40.5t-122.5 108.5t-34 151v486h-168v264h182l100 322h274v-320h226v-266h-226l2 -468q0 -23 8.5 -35t22.5 -16.5t31 -4.5h162v-230q-21 -10 -67 -21t-139 -11z" />
    <glyph glyph-name="Utilde" unicode="&#x168;" horiz-adv-x="1491" 
d="M759 -20q-233 0 -369.5 78t-195.5 217t-59 323v848h394v-864q0 -150 69.5 -213t160.5 -63q60 0 112.5 27.5t85 88t32.5 160.5v864h394v-848q0 -184 -59 -323t-195.5 -217t-369.5 -78zM435 1577l-54 192q39 44 88.5 75.5t127.5 31.5q62 0 118.5 -16.5t108 -33.5t97.5 -17
q59 0 108 28t82 54l40 -220q-36 -31 -96.5 -56t-131.5 -25q-58 0 -109 15t-101 29.5t-106 14.5q-51 0 -88 -15.5t-84 -56.5z" />
    <glyph glyph-name="utilde" unicode="&#x169;" horiz-adv-x="1217" 
d="M481 -20q-63 0 -131 21.5t-127 63.5t-96 102.5t-37 138.5v728h390v-674q0 -45 33 -75.5t92 -30.5t92.5 30.5t33.5 75.5v674h386v-1034h-288l-46 212q-19 -103 -72 -152.5t-116.5 -64.5t-113.5 -15zM282 1165l-54 192q39 44 88.5 75.5t127.5 31.5q62 0 118.5 -16.5
t108 -33.5t97.5 -17q59 0 108 28t82 54l40 -220q-36 -31 -96.5 -56t-131.5 -25q-58 0 -109 15t-101 29.5t-106 14.5q-51 0 -88 -15.5t-84 -56.5z" />
    <glyph glyph-name="Umacron" unicode="&#x16a;" horiz-adv-x="1491" 
d="M759 -20q-233 0 -369.5 78t-195.5 217t-59 323v848h394v-864q0 -150 69.5 -213t160.5 -63q60 0 112.5 27.5t85 88t32.5 160.5v864h394v-848q0 -184 -59 -323t-195.5 -217t-369.5 -78zM359 1590v238h800v-238h-800z" />
    <glyph glyph-name="umacron" unicode="&#x16b;" horiz-adv-x="1217" 
d="M481 -20q-63 0 -131 21.5t-127 63.5t-96 102.5t-37 138.5v728h390v-674q0 -45 33 -75.5t92 -30.5t92.5 30.5t33.5 75.5v674h386v-1034h-288l-46 212q-19 -103 -72 -152.5t-116.5 -64.5t-113.5 -15zM206 1178v238h800v-238h-800z" />
    <glyph glyph-name="Ubreve" unicode="&#x16c;" horiz-adv-x="1491" 
d="M759 -20q-233 0 -369.5 78t-195.5 217t-59 323v848h394v-864q0 -150 69.5 -213t160.5 -63q60 0 112.5 27.5t85 88t32.5 160.5v864h394v-848q0 -184 -59 -323t-195.5 -217t-369.5 -78zM759 1568q-93 0 -175.5 32t-140.5 96.5t-78 161.5h230q14 -51 56 -83.5t108 -32.5
q65 0 107.5 32.5t57.5 83.5h229q-19 -97 -77.5 -161.5t-141 -96.5t-175.5 -32z" />
    <glyph glyph-name="ubreve" unicode="&#x16d;" horiz-adv-x="1217" 
d="M481 -20q-63 0 -131 21.5t-127 63.5t-96 102.5t-37 138.5v728h390v-674q0 -45 33 -75.5t92 -30.5t92.5 30.5t33.5 75.5v674h386v-1034h-288l-46 212q-19 -103 -72 -152.5t-116.5 -64.5t-113.5 -15zM606 1156q-93 0 -175.5 32t-140.5 96.5t-78 161.5h230q14 -51 56 -83.5
t108 -32.5q65 0 107.5 32.5t57.5 83.5h229q-19 -97 -77.5 -161.5t-141 -96.5t-175.5 -32z" />
    <glyph glyph-name="Uring" unicode="&#x16e;" horiz-adv-x="1491" 
d="M759 -20q-233 0 -369.5 78t-195.5 217t-59 323v848h394v-864q0 -150 69.5 -213t160.5 -63q60 0 112.5 27.5t85 88t32.5 160.5v864h394v-848q0 -184 -59 -323t-195.5 -217t-369.5 -78zM759 1530q-96 0 -162 67.5t-66 164.5q0 92 67 156t161 64q63 0 114.5 -30t82.5 -81
t31 -113q0 -96 -66.5 -162t-161.5 -66zM757 1660q39 0 65.5 29.5t26.5 66.5q0 39 -26.5 65.5t-65.5 26.5t-67.5 -26.5t-28.5 -65.5q0 -37 28.5 -66.5t67.5 -29.5z" />
    <glyph glyph-name="uring" unicode="&#x16f;" horiz-adv-x="1217" 
d="M481 -20q-63 0 -131 21.5t-127 63.5t-96 102.5t-37 138.5v728h390v-674q0 -45 33 -75.5t92 -30.5t92.5 30.5t33.5 75.5v674h386v-1034h-288l-46 212q-19 -103 -72 -152.5t-116.5 -64.5t-113.5 -15zM606 1118q-96 0 -162 67.5t-66 164.5q0 92 67 156t161 64
q63 0 114.5 -30t82.5 -81t31 -113q0 -96 -66.5 -162t-161.5 -66zM604 1248q39 0 65.5 29.5t26.5 66.5q0 39 -26.5 65.5t-65.5 26.5t-67.5 -26.5t-28.5 -65.5q0 -37 28.5 -66.5t67.5 -29.5z" />
    <glyph glyph-name="Uhungarumlaut" unicode="&#x170;" horiz-adv-x="1491" 
d="M759 -20q-233 0 -369.5 78t-195.5 217t-59 323v848h394v-864q0 -150 69.5 -213t160.5 -63q60 0 112.5 27.5t85 88t32.5 160.5v864h394v-848q0 -184 -59 -323t-195.5 -217t-369.5 -78zM831 1567l256 291h346l-330 -291h-272zM411 1567l206 291h333l-267 -291h-272z" />
    <glyph glyph-name="uhungarumlaut" unicode="&#x171;" horiz-adv-x="1217" 
d="M481 -20q-63 0 -131 21.5t-127 63.5t-96 102.5t-37 138.5v728h390v-674q0 -45 33 -75.5t92 -30.5t92.5 30.5t33.5 75.5v674h386v-1034h-288l-46 212q-19 -103 -72 -152.5t-116.5 -64.5t-113.5 -15zM678 1155l256 291h346l-330 -291h-272zM258 1155l206 291h333l-267 -291
h-272z" />
    <glyph glyph-name="Uogonek" unicode="&#x172;" horiz-adv-x="1491" 
d="M749 -336q-106 0 -171 41.5t-65 128.5q0 50 34 96t148 86h266q-109 -36 -144.5 -65.5t-35.5 -62.5q0 -28 13.5 -42t40.5 -14q44 0 77 14.5t69 35.5v-164q-30 -19 -93.5 -36.5t-138.5 -17.5zM759 -20q-233 0 -369.5 78t-195.5 217t-59 323v848h394v-864q0 -150 69.5 -213
t160.5 -63q60 0 112.5 27.5t85 88t32.5 160.5v864h394v-848q0 -184 -59 -323t-195.5 -217t-369.5 -78z" />
    <glyph glyph-name="uogonek" unicode="&#x173;" horiz-adv-x="1217" 
d="M481 -20q-63 0 -131 21.5t-127 63.5t-96 102.5t-37 138.5v728h390v-674q0 -45 33 -75.5t92 -30.5t92.5 30.5t33.5 75.5v674h386v-1034h-288l-46 212q-19 -103 -72 -152.5t-116.5 -64.5t-113.5 -15zM896 -340q-106 0 -171 41.5t-65 128.5q0 50 34 96t148 86h266
q-109 -36 -144.5 -65.5t-35.5 -62.5q0 -28 13.5 -42t40.5 -14q44 0 77 14.5t69 35.5v-164q-30 -19 -93.5 -36.5t-138.5 -17.5z" />
    <glyph glyph-name="Wcircumflex" unicode="&#x174;" horiz-adv-x="1964" 
d="M466 0l-436 1446h376l224 -776l216 776h272l224 -776l216 776h376l-432 -1446h-290l-230 786l-230 -786h-286zM574 1567l276 291h264l268 -291h-278l-124 149l-142 -149h-264z" />
    <glyph glyph-name="wcircumflex" unicode="&#x175;" horiz-adv-x="1593" 
d="M358 0l-349 1034h338l162 -502v0l151 502h271l147 -504v0l160 504h347l-364 -1034h-279l-154 502l-163 -502h-267zM397 1155l276 291h264l268 -291h-278l-124 149l-142 -149h-264z" />
    <glyph glyph-name="Ycircumflex" unicode="&#x176;" horiz-adv-x="1444" 
d="M524 0v602l-509 844h420l286 -514l283 514h425l-515 -844v-602h-390zM363 1567l276 291h264l268 -291h-278l-124 149l-142 -149h-264z" />
    <glyph glyph-name="ycircumflex" unicode="&#x177;" horiz-adv-x="1177" 
d="M315 -330q-120 0 -172.5 22l-52.5 22v246l99 -6q76 -6 119.5 4.5t63.5 28t26 33.5t7 20l4 20l-401 974h382l196 -562l203 562h381l-404 -974q-67 -163 -137 -247t-147.5 -113.5t-166.5 -29.5zM190 1155l276 291h264l268 -291h-278l-124 149l-142 -149h-264z" />
    <glyph glyph-name="Ydieresis" unicode="&#x178;" horiz-adv-x="1444" 
d="M524 0v602l-509 844h420l286 -514l283 514h425l-515 -844v-602h-390zM858 1567l4 291h358l-4 -291h-358zM322 1567l4 291h358l-4 -291h-358z" />
    <glyph glyph-name="Zacute" unicode="&#x179;" horiz-adv-x="1399" 
d="M90 0v178l681 948h-618v320h1178v-170l-695 -952h683v-324h-1229zM627 1567l206 291h383l-317 -291h-272z" />
    <glyph glyph-name="zacute" unicode="&#x17a;" horiz-adv-x="1021" 
d="M50 0v206l444 562h-417v266h892v-206l-445 -562h447v-266h-921zM375 1155l206 291h383l-317 -291h-272z" />
    <glyph glyph-name="Zdotaccent" unicode="&#x17b;" horiz-adv-x="1399" 
d="M90 0v178l681 948h-618v320h1178v-170l-695 -952h683v-324h-1229zM580 1567v291h362v-291h-362z" />
    <glyph glyph-name="zdotaccent" unicode="&#x17c;" horiz-adv-x="1021" 
d="M50 0v206l444 562h-417v266h892v-206l-445 -562h447v-266h-921zM328 1155v291h362v-291h-362z" />
    <glyph glyph-name="Zcaron" unicode="&#x17d;" horiz-adv-x="1399" 
d="M90 0v178l681 948h-618v320h1178v-170l-695 -952h683v-324h-1229zM628 1567l-274 293h264l142 -164l124 164h278l-268 -293h-266z" />
    <glyph glyph-name="zcaron" unicode="&#x17e;" horiz-adv-x="1021" 
d="M50 0v206l444 562h-417v266h892v-206l-445 -562h447v-266h-921zM376 1155l-274 293h264l142 -164l124 164h278l-268 -293h-266z" />
    <glyph glyph-name="uni018F" unicode="&#x18f;" horiz-adv-x="1566" 
d="M778 -20q-200 0 -356.5 85.5t-246.5 272.5t-90 490h929q0 135 -66 207.5t-179 72.5q-56 0 -102 -15.5t-79 -41.5t-51 -57t-18 -62h-434q0 90 48 184t139 173t219 128t287 49q219 0 376.5 -84t242 -245.5t84.5 -394.5q0 -262 -92.5 -430.5t-251.5 -250t-359 -81.5z
M778 314q76 0 127.5 29.5t78 83.5t26.5 127l-450 2q0 -74 25.5 -128.5t74.5 -84t118 -29.5z" />
    <glyph glyph-name="florin" unicode="&#x192;" horiz-adv-x="1152" 
d="M20 -336l38 254h122q51 0 73.5 23.5t34.5 98.5l130 730h-168l46 264h168l24 138q24 128 119.5 201t236.5 73h278l-42 -252h-120q-34 0 -66 -29.5t-40 -70.5l-10 -60h198l-48 -264h-186l-146 -830q-22 -127 -118.5 -201.5t-239.5 -74.5h-284z" />
    <glyph glyph-name="Ohorn" unicode="&#x1a0;" horiz-adv-x="1760" 
d="M787 -20q-215 0 -372.5 91.5t-243.5 257.5t-86 391q0 226 87.5 393.5t245.5 260t369 92.5q154 0 280 -50.5t217 -143.5q52 -1 89 1t61.5 20t39.5 64.5t22 134.5h234q-1 -141 -29 -230.5t-96.5 -132t-193.5 -43.5q36 -78 55 -170t19 -196q0 -224 -85.5 -390.5t-242.5 -258
t-370 -91.5zM787 292q80 0 142.5 40.5t98 133t35.5 248.5q0 161 -35.5 257.5t-98 139.5t-142.5 43t-142.5 -43t-98.5 -139.5t-36 -257.5q0 -156 36 -248.5t98.5 -133t142.5 -40.5z" />
    <glyph glyph-name="ohorn" unicode="&#x1a1;" horiz-adv-x="1354" 
d="M584 -20q-160 0 -277.5 68t-182 187.5t-64.5 274.5q0 163 67.5 285.5t186 190.5t272.5 68q125 0 224 -43t167 -120q55 0 90 11t54.5 57.5t28.5 152.5h234q-1 -138 -27.5 -226.5t-92 -131.5t-183.5 -47q29 -93 29 -197q0 -154 -64.5 -273.5t-182.5 -188t-279 -68.5z
M586 262q62 0 93.5 42.5t42 103.5t10.5 116q0 56 -10.5 114.5t-42 98t-93.5 39.5q-63 0 -94.5 -39.5t-42.5 -98t-11 -114.5q0 -55 11 -116t42.5 -103.5t94.5 -42.5z" />
    <glyph glyph-name="Uhorn" unicode="&#x1af;" horiz-adv-x="1812" 
d="M759 -20q-233 0 -369.5 78t-195.5 217t-59 323v848h394v-864q0 -150 69.5 -213t160.5 -63q60 0 112.5 27.5t85 88t32.5 160.5v864h394v-175q46 1 75.5 15.5t46.5 61.5t25 144h234q-2 -152 -34.5 -244t-114 -130.5t-232.5 -29.5v-490q0 -184 -59 -323t-195.5 -217
t-369.5 -78z" />
    <glyph glyph-name="uhorn" unicode="&#x1b0;" horiz-adv-x="1526" 
d="M481 -20q-63 0 -131 21.5t-127 63.5t-96 102.5t-37 138.5v728h390v-674q0 -45 33 -75.5t92 -30.5t92.5 30.5t33.5 75.5v674h386v-143q51 0 83.5 12.5t51 59.5t26.5 149h234q-2 -154 -35.5 -246.5t-118.5 -130t-241 -26.5v-709h-288l-46 212q-19 -103 -72 -152.5
t-116.5 -64.5t-113.5 -15z" />
    <glyph glyph-name="uni01D4" unicode="&#x1d4;" horiz-adv-x="1217" 
d="M481 -20q-63 0 -131 21.5t-127 63.5t-96 102.5t-37 138.5v728h390v-674q0 -45 33 -75.5t92 -30.5t92.5 30.5t33.5 75.5v674h386v-1034h-288l-46 212q-19 -103 -72 -152.5t-116.5 -64.5t-113.5 -15zM472 1155l-274 293h264l142 -164l124 164h278l-268 -293h-266z" />
    <glyph glyph-name="uni01EA" unicode="&#x1ea;" horiz-adv-x="1570" 
d="M800 -340q-106 0 -171 41.5t-65 128.5q0 50 34 96t148 86h266q-109 -36 -144.5 -65.5t-35.5 -62.5q0 -28 13.5 -42t40.5 -14q44 0 77 14.5t69 35.5v-164q-30 -19 -93.5 -36.5t-138.5 -17.5zM787 -20q-215 0 -372.5 91.5t-243.5 257.5t-86 391q0 226 87.5 393.5t245.5 260
t369 92.5q210 0 367 -92.5t244 -260t87 -393.5q0 -224 -85.5 -390.5t-242.5 -258t-370 -91.5zM787 292q80 0 142.5 40.5t98 133t35.5 248.5q0 161 -35.5 257.5t-98 139.5t-142.5 43t-142.5 -43t-98.5 -139.5t-36 -257.5q0 -156 36 -248.5t98.5 -133t142.5 -40.5z" />
    <glyph glyph-name="uni01EB" unicode="&#x1eb;" 
d="M570 -340q-106 0 -171 41.5t-65 128.5q0 50 34 96t148 86h266q-109 -36 -144.5 -65.5t-35.5 -62.5q0 -28 13.5 -42t40.5 -14q44 0 77 14.5t69 35.5v-164q-30 -19 -93.5 -36.5t-138.5 -17.5zM584 -20q-160 0 -277.5 68t-182 187.5t-64.5 274.5q0 163 67.5 285.5t186 190.5
t272.5 68q162 0 279.5 -70.5t181 -193.5t63.5 -280q0 -154 -64.5 -273.5t-182.5 -188t-279 -68.5zM586 262q62 0 93.5 42.5t42 103.5t10.5 116q0 56 -10.5 114.5t-42 98t-93.5 39.5q-63 0 -94.5 -39.5t-42.5 -98t-11 -114.5q0 -55 11 -116t42.5 -103.5t94.5 -42.5z" />
    <glyph glyph-name="Aringacute" unicode="&#x1fa;" horiz-adv-x="1482" 
d="M898 1880l-60 -146q53 -24 85.5 -71.5t32.5 -110.5q0 -90 -62.5 -145t-151.5 -55q-90 0 -152 56.5t-62 147.5q0 68 39 117t99 69l32 138h200zM740 1454q39 0 66.5 29.5t27.5 66.5q0 39 -27.5 65.5t-66.5 26.5q-37 0 -66.5 -26.5t-29.5 -65.5q0 -37 29.5 -66.5t66.5 -29.5
zM30 0l512 1446h398l512 -1446h-384l-96 280h-456l-98 -280h-388zM598 612h286l-142 462z" />
    <glyph glyph-name="aringacute" unicode="&#x1fb;" horiz-adv-x="1157" 
d="M752 1498l-60 -146q53 -24 85.5 -71.5t32.5 -110.5q0 -90 -62.5 -145t-151.5 -55q-90 0 -152 56.5t-62 147.5q0 68 39 117t99 69l32 138h200zM594 1072q39 0 66.5 29.5t27.5 66.5q0 39 -27.5 65.5t-66.5 26.5q-37 0 -66.5 -26.5t-29.5 -65.5q0 -37 29.5 -66.5t66.5 -29.5
zM423 -20q-97 0 -178.5 38t-130 111.5t-48.5 180.5q0 168 133.5 261t415.5 93h80v44q0 50 -27.5 73t-86.5 21q-40 -1 -88 -19t-72 -71h-315q6 122 73 197.5t177 110t243 34.5q180 0 282 -41t144 -113.5t42 -167.5v-732h-322l-34 164q-46 -105 -114 -144.5t-174 -39.5z
M560 226q28 0 52.5 10t42.5 27.5t28.5 39.5t11.5 47v130h-62q-31 0 -79 -11.5t-85.5 -39.5t-37.5 -79q0 -58 39.5 -91t89.5 -33z" />
    <glyph glyph-name="AEacute" unicode="&#x1fc;" horiz-adv-x="2200" 
d="M0 0l750 1446h1342l-2 -318h-680v-244h570v-314h-570v-250h700v-320h-1144v280h-440l-138 -280h-388zM668 612h298v590zM1247 1567l206 291h383l-317 -291h-272z" />
    <glyph glyph-name="aeacute" unicode="&#x1fd;" horiz-adv-x="1826" 
d="M423 -20q-97 0 -178.5 38t-130 111.5t-48.5 180.5q0 168 134 261t416 93h80v44q0 50 -28 73t-87 21q-40 -1 -88 -19t-72 -71h-315q6 122 73 197.5t177 110t243 34.5q128 0 215.5 -21.5t142.5 -59.5q59 38 132.5 59.5t158.5 21.5q169 0 282 -70t169.5 -191.5t56.5 -274.5
v-90h-652q-1 -62 19 -101t54.5 -57t76.5 -18q53 0 95.5 20t66.5 80h344q-16 -115 -91 -198.5t-182.5 -128.5t-222.5 -45q-142 0 -254 51.5t-183 143.5q-28 -62 -78 -106t-129.5 -66.5t-196.5 -22.5zM560 226q38 0 68 17.5t48.5 45.5t19.5 61v130h-63q-30 0 -78 -11.5
t-86 -39.5t-38 -79q0 -58 39.5 -91t89.5 -33zM1102 646h295q0 39 -17 72.5t-50 53.5t-82 20q-40 0 -73 -20t-53 -53.5t-20 -72.5zM721 1155l206 291h383l-317 -291h-272z" />
    <glyph glyph-name="Oslashacute" unicode="&#x1fe;" horiz-adv-x="1598" 
d="M186 -28l-156 162l164 158q-51 87 -78.5 194.5t-27.5 233.5q0 226 87 393.5t245 260t370 92.5q137 0 251 -39t201 -113l164 158l152 -160l-174 -172q51 -85 77.5 -191t26.5 -229q0 -224 -85.5 -390.5t-242.5 -258t-370 -91.5q-135 0 -248 37.5t-200 104.5zM790 284
q86 0 138 51.5t74 166.5q12 56 17 127t5 161l-418 -410q55 -96 184 -96zM552 640l422 412q-28 60 -73.5 87t-110.5 27q-93 0 -147 -64.5t-75 -207.5q-9 -52 -12.5 -115.5t-3.5 -138.5zM653 1567l206 291h383l-317 -291h-272z" />
    <glyph glyph-name="oslashacute" unicode="&#x1ff;" horiz-adv-x="1270" 
d="M176 -18l-116 124l1016 944l114 -124zM660 -20q-160 0 -277.5 68t-182 187.5t-64.5 274.5q0 163 67.5 285.5t186 190.5t272.5 68q162 0 279.5 -70.5t181 -193.5t63.5 -280q0 -154 -64.5 -273.5t-182.5 -188t-279 -68.5zM662 262q62 0 93.5 42.5t42 103.5t10.5 116
q0 56 -10.5 114.5t-42 98t-93.5 39.5q-63 0 -94.5 -39.5t-42.5 -98t-11 -114.5q0 -55 11 -116t42.5 -103.5t94.5 -42.5zM491 1155l206 291h383l-317 -291h-272z" />
    <glyph glyph-name="uni0200" unicode="&#x200;" horiz-adv-x="1482" 
d="M30 0l512 1446h398l512 -1446h-384l-96 280h-456l-98 -280h-388zM598 612h286l-142 462zM391 1567l-330 291h346l256 -291h-272zM811 1567l-267 291h333l206 -291h-272z" />
    <glyph glyph-name="uni0201" unicode="&#x201;" horiz-adv-x="1157" 
d="M423 -20q-97 0 -178.5 38t-130 111.5t-48.5 180.5q0 168 133.5 261t415.5 93h80v44q0 50 -27.5 73t-86.5 21q-40 -1 -88 -19t-72 -71h-315q6 122 73 197.5t177 110t243 34.5q180 0 282 -41t144 -113.5t42 -167.5v-732h-322l-34 164q-46 -105 -114 -144.5t-174 -39.5z
M560 226q28 0 52.5 10t42.5 27.5t28.5 39.5t11.5 47v130h-62q-31 0 -79 -11.5t-85.5 -39.5t-37.5 -79q0 -58 39.5 -91t89.5 -33zM253 1155l-330 291h346l256 -291h-272zM673 1155l-267 291h333l206 -291h-272z" />
    <glyph glyph-name="uni0202" unicode="&#x202;" horiz-adv-x="1482" 
d="M30 0l512 1446h398l512 -1446h-384l-96 280h-456l-98 -280h-388zM598 612h286l-142 462zM348 1567q20 98 78 162t140.5 96t175.5 32t175.5 -32t141 -96t77.5 -162h-229q-15 51 -57.5 83.5t-107.5 32.5q-66 0 -108 -32.5t-56 -83.5h-230z" />
    <glyph glyph-name="uni0203" unicode="&#x203;" horiz-adv-x="1157" 
d="M423 -20q-97 0 -178.5 38t-130 111.5t-48.5 180.5q0 168 133.5 261t415.5 93h80v44q0 50 -27.5 73t-86.5 21q-40 -1 -88 -19t-72 -71h-315q6 122 73 197.5t177 110t243 34.5q180 0 282 -41t144 -113.5t42 -167.5v-732h-322l-34 164q-46 -105 -114 -144.5t-174 -39.5z
M560 226q28 0 52.5 10t42.5 27.5t28.5 39.5t11.5 47v130h-62q-31 0 -79 -11.5t-85.5 -39.5t-37.5 -79q0 -58 39.5 -91t89.5 -33zM210 1155q20 98 78 162t140.5 96t175.5 32t175.5 -32t141 -96t77.5 -162h-229q-15 51 -57.5 83.5t-107.5 32.5q-66 0 -108 -32.5t-56 -83.5
h-230z" />
    <glyph glyph-name="uni0204" unicode="&#x204;" horiz-adv-x="1295" 
d="M135 0v1446h1068l-2 -322h-674v-240h564v-314h-567v-246h681v-324h-1070zM318 1567l-330 291h346l256 -291h-272zM738 1567l-267 291h333l206 -291h-272z" />
    <glyph glyph-name="uni0205" unicode="&#x205;" 
d="M608 -20q-161 0 -283.5 65.5t-190.5 183.5t-68 275q0 148 62.5 273t180 201t283.5 76q169 0 282 -70t169.5 -191.5t56.5 -274.5v-90h-652q-1 -62 19 -101t54.5 -57t76.5 -18q53 0 95.5 20t66.5 80h344q-16 -115 -91 -198.5t-182.5 -128.5t-222.5 -45zM446 646h295
q0 39 -17 72.5t-50 53.5t-82 20q-40 0 -73 -20t-53 -53.5t-20 -72.5zM243 1155l-330 291h346l256 -291h-272zM663 1155l-267 291h333l206 -291h-272z" />
    <glyph glyph-name="uni0206" unicode="&#x206;" horiz-adv-x="1295" 
d="M135 0v1446h1068l-2 -322h-674v-240h564v-314h-567v-246h681v-324h-1070zM275 1567q20 98 78 162t140.5 96t175.5 32t175.5 -32t141 -96t77.5 -162h-229q-15 51 -57.5 83.5t-107.5 32.5q-66 0 -108 -32.5t-56 -83.5h-230z" />
    <glyph glyph-name="uni0207" unicode="&#x207;" 
d="M608 -20q-161 0 -283.5 65.5t-190.5 183.5t-68 275q0 148 62.5 273t180 201t283.5 76q169 0 282 -70t169.5 -191.5t56.5 -274.5v-90h-652q-1 -62 19 -101t54.5 -57t76.5 -18q53 0 95.5 20t66.5 80h344q-16 -115 -91 -198.5t-182.5 -128.5t-222.5 -45zM446 646h295
q0 39 -17 72.5t-50 53.5t-82 20q-40 0 -73 -20t-53 -53.5t-20 -72.5zM200 1155q20 98 78 162t140.5 96t175.5 32t175.5 -32t141 -96t77.5 -162h-229q-15 51 -57.5 83.5t-107.5 32.5q-66 0 -108 -32.5t-56 -83.5h-230z" />
    <glyph glyph-name="uni0208" unicode="&#x208;" horiz-adv-x="659" 
d="M135 0v1446h389v-1446h-389zM-20 1567l-330 291h346l256 -291h-272zM400 1567l-267 291h333l206 -291h-272z" />
    <glyph glyph-name="uni0209" unicode="&#x209;" horiz-adv-x="571" 
d="M100 0v1034h371v-1034h-371zM-59 1155l-330 291h346l256 -291h-272zM361 1155l-267 291h333l206 -291h-272z" />
    <glyph glyph-name="uni020A" unicode="&#x20a;" horiz-adv-x="659" 
d="M135 0v1446h389v-1446h-389zM-63 1567q20 98 78 162t140.5 96t175.5 32t175.5 -32t141 -96t77.5 -162h-229q-15 51 -57.5 83.5t-107.5 32.5q-66 0 -108 -32.5t-56 -83.5h-230z" />
    <glyph glyph-name="uni020B" unicode="&#x20b;" horiz-adv-x="808" 
d="M212 0v1034h371v-1034h-371zM10 1155q20 98 78 162t140.5 96t175.5 32t175.5 -32t141 -96t77.5 -162h-229q-15 51 -57.5 83.5t-107.5 32.5q-66 0 -108 -32.5t-56 -83.5h-230z" />
    <glyph glyph-name="uni020C" unicode="&#x20c;" horiz-adv-x="1570" 
d="M787 -20q-215 0 -372.5 91.5t-243.5 257.5t-86 391q0 226 87.5 393.5t245.5 260t369 92.5q210 0 367 -92.5t244 -260t87 -393.5q0 -224 -85.5 -390.5t-242.5 -258t-370 -91.5zM787 292q80 0 142.5 40.5t98 133t35.5 248.5q0 161 -35.5 257.5t-98 139.5t-142.5 43
t-142.5 -43t-98.5 -139.5t-36 -257.5q0 -156 36 -248.5t98.5 -133t142.5 -40.5zM434 1567l-330 291h346l256 -291h-272zM854 1567l-267 291h333l206 -291h-272z" />
    <glyph glyph-name="uni020D" unicode="&#x20d;" 
d="M584 -20q-160 0 -277.5 68t-182 187.5t-64.5 274.5q0 163 67.5 285.5t186 190.5t272.5 68q162 0 279.5 -70.5t181 -193.5t63.5 -280q0 -154 -64.5 -273.5t-182.5 -188t-279 -68.5zM586 262q62 0 93.5 42.5t42 103.5t10.5 116q0 56 -10.5 114.5t-42 98t-93.5 39.5
q-63 0 -94.5 -39.5t-42.5 -98t-11 -114.5q0 -55 11 -116t42.5 -103.5t94.5 -42.5zM235 1155l-330 291h346l256 -291h-272zM655 1155l-267 291h333l206 -291h-272z" />
    <glyph glyph-name="uni020E" unicode="&#x20e;" horiz-adv-x="1570" 
d="M787 -20q-215 0 -372.5 91.5t-243.5 257.5t-86 391q0 226 87.5 393.5t245.5 260t369 92.5q210 0 367 -92.5t244 -260t87 -393.5q0 -224 -85.5 -390.5t-242.5 -258t-370 -91.5zM787 292q80 0 142.5 40.5t98 133t35.5 248.5q0 161 -35.5 257.5t-98 139.5t-142.5 43
t-142.5 -43t-98.5 -139.5t-36 -257.5q0 -156 36 -248.5t98.5 -133t142.5 -40.5zM391 1567q20 98 78 162t140.5 96t175.5 32t175.5 -32t141 -96t77.5 -162h-229q-15 51 -57.5 83.5t-107.5 32.5q-66 0 -108 -32.5t-56 -83.5h-230z" />
    <glyph glyph-name="uni020F" unicode="&#x20f;" 
d="M584 -20q-160 0 -277.5 68t-182 187.5t-64.5 274.5q0 163 67.5 285.5t186 190.5t272.5 68q162 0 279.5 -70.5t181 -193.5t63.5 -280q0 -154 -64.5 -273.5t-182.5 -188t-279 -68.5zM586 262q62 0 93.5 42.5t42 103.5t10.5 116q0 56 -10.5 114.5t-42 98t-93.5 39.5
q-63 0 -94.5 -39.5t-42.5 -98t-11 -114.5q0 -55 11 -116t42.5 -103.5t94.5 -42.5zM192 1155q20 98 78 162t140.5 96t175.5 32t175.5 -32t141 -96t77.5 -162h-229q-15 51 -57.5 83.5t-107.5 32.5q-66 0 -108 -32.5t-56 -83.5h-230z" />
    <glyph glyph-name="uni0210" unicode="&#x210;" horiz-adv-x="1427" 
d="M135 0v1446h656q188 0 302.5 -62t166.5 -167.5t52 -236.5q0 -111 -29.5 -189.5t-81 -134t-118.5 -96.5l254 -560h-399l-210 498h-204v-498h-389zM524 788h223q75 0 124.5 59t49.5 129q0 75 -54 128.5t-120 53.5h-223v-370zM348 1567l-330 291h346l256 -291h-272z
M768 1567l-267 291h333l206 -291h-272z" />
    <glyph glyph-name="uni0211" unicode="&#x211;" horiz-adv-x="863" 
d="M100 0v1034h376v-286q24 83 68.5 152.5t113.5 111.5t165 42h11h4v-368q-3 1 -5.5 1t-7.5 1q-109 11 -175.5 -2t-101.5 -42.5t-47 -68t-12 -79.5v-496h-389zM121 1155l-330 291h346l256 -291h-272zM541 1155l-267 291h333l206 -291h-272z" />
    <glyph glyph-name="uni0212" unicode="&#x212;" horiz-adv-x="1427" 
d="M135 0v1446h656q188 0 302.5 -62t166.5 -167.5t52 -236.5q0 -111 -29.5 -189.5t-81 -134t-118.5 -96.5l254 -560h-399l-210 498h-204v-498h-389zM524 788h223q75 0 124.5 59t49.5 129q0 75 -54 128.5t-120 53.5h-223v-370zM305 1567q20 98 78 162t140.5 96t175.5 32
t175.5 -32t141 -96t77.5 -162h-229q-15 51 -57.5 83.5t-107.5 32.5q-66 0 -108 -32.5t-56 -83.5h-230z" />
    <glyph glyph-name="uni0213" unicode="&#x213;" horiz-adv-x="863" 
d="M100 0v1034h376v-286q24 83 68.5 152.5t113.5 111.5t165 42h11h4v-368q-3 1 -5.5 1t-7.5 1q-109 11 -175.5 -2t-101.5 -42.5t-47 -68t-12 -79.5v-496h-389zM78 1115q20 98 78 162t140.5 96t175.5 32t175.5 -32t141 -96t77.5 -162h-229q-15 51 -57.5 83.5t-107.5 32.5
q-66 0 -108 -32.5t-56 -83.5h-230z" />
    <glyph glyph-name="uni0214" unicode="&#x214;" horiz-adv-x="1491" 
d="M759 -20q-233 0 -369.5 78t-195.5 217t-59 323v848h394v-864q0 -150 69.5 -213t160.5 -63q60 0 112.5 27.5t85 88t32.5 160.5v864h394v-848q0 -184 -59 -323t-195.5 -217t-369.5 -78zM408 1567l-330 291h346l256 -291h-272zM828 1567l-267 291h333l206 -291h-272z" />
    <glyph glyph-name="uni0215" unicode="&#x215;" horiz-adv-x="1217" 
d="M481 -20q-63 0 -131 21.5t-127 63.5t-96 102.5t-37 138.5v728h390v-674q0 -45 33 -75.5t92 -30.5t92.5 30.5t33.5 75.5v674h386v-1034h-288l-46 212q-19 -103 -72 -152.5t-116.5 -64.5t-113.5 -15zM255 1155l-330 291h346l256 -291h-272zM675 1155l-267 291h333l206 -291
h-272z" />
    <glyph glyph-name="uni0216" unicode="&#x216;" horiz-adv-x="1491" 
d="M759 -20q-233 0 -369.5 78t-195.5 217t-59 323v848h394v-864q0 -150 69.5 -213t160.5 -63q60 0 112.5 27.5t85 88t32.5 160.5v864h394v-848q0 -184 -59 -323t-195.5 -217t-369.5 -78zM365 1567q20 98 78 162t140.5 96t175.5 32t175.5 -32t141 -96t77.5 -162h-229
q-15 51 -57.5 83.5t-107.5 32.5q-66 0 -108 -32.5t-56 -83.5h-230z" />
    <glyph glyph-name="uni0217" unicode="&#x217;" horiz-adv-x="1217" 
d="M481 -20q-63 0 -131 21.5t-127 63.5t-96 102.5t-37 138.5v728h390v-674q0 -45 33 -75.5t92 -30.5t92.5 30.5t33.5 75.5v674h386v-1034h-288l-46 212q-19 -103 -72 -152.5t-116.5 -64.5t-113.5 -15zM212 1155q20 98 78 162t140.5 96t175.5 32t175.5 -32t141 -96t77.5 -162
h-229q-15 51 -57.5 83.5t-107.5 32.5q-66 0 -108 -32.5t-56 -83.5h-230z" />
    <glyph glyph-name="uni0218" unicode="&#x218;" horiz-adv-x="1424" 
d="M726 -20q-112 0 -221.5 28t-201 85t-150.5 143.5t-68 203.5h396q11 -51 44 -87t89.5 -55.5t135.5 -19.5q47 0 95 11.5t80.5 39t32.5 75.5q0 63 -52 86.5t-123 36.5l-247 44q-129 23 -221 77.5t-140.5 142.5t-48.5 211q0 146 81 249.5t220 158t312 54.5q189 0 321.5 -58
t203.5 -161t74 -237h-386q-6 55 -34 89t-75.5 50.5t-114.5 16.5q-108 0 -151 -38t-43 -82q0 -45 35.5 -76.5t126.5 -46.5l215 -35q151 -24 247.5 -84t142.5 -150t46 -206q0 -141 -81.5 -245.5t-221.5 -162.5t-318 -58zM561 -495l100 172l-96 14v218h304v-180l-180 -224h-128
z" />
    <glyph glyph-name="uni0219" unicode="&#x219;" horiz-adv-x="1092" 
d="M556 -20q-108 0 -214 37t-183 118t-99 213h330q13 -50 46 -74t67 -31t51 -7q65 0 105 15.5t40 46.5q0 29 -27 45.5t-97 26.5l-153 24q-148 27 -239 102t-93 214q-1 96 53.5 174t160 124t256.5 46q212 0 336 -92t124 -250h-317q-11 47 -53 69.5t-95 22.5q-54 0 -91.5 -16
t-37.5 -46q0 -27 36 -43.5t119 -30.5l133 -24q100 -24 161.5 -65t94 -88.5t44.5 -93t12 -77.5q0 -111 -62.5 -186.5t-169 -114.5t-238.5 -39zM399 -495l100 172l-96 14v218h304v-180l-180 -224h-128z" />
    <glyph glyph-name="uni021A" unicode="&#x21a;" horiz-adv-x="1274" 
d="M440 0v1104h-410v342h1214v-342h-414v-1104h-390zM495 -495l100 172l-96 14v218h304v-180l-180 -224h-128z" />
    <glyph glyph-name="uni021B" unicode="&#x21b;" horiz-adv-x="882" 
d="M606 -16q-163 0 -251.5 40.5t-122.5 108.5t-34 151v486h-168v264h182l100 322h274v-320h226v-266h-226l2 -468q0 -23 8.5 -35t22.5 -16.5t31 -4.5h162v-230q-21 -10 -67 -21t-139 -11zM347 -477l100 172l-96 14v218h304v-180l-180 -224h-128z" />
    <glyph glyph-name="uni0237" unicode="&#x237;" horiz-adv-x="624" 
d="M114 -332q-77 0 -104.5 17l-27.5 17l-2 260l59 10q55 12 75.5 32.5t20.5 51.5v978h389v-978q0 -192 -101 -290t-309 -98z" />
    <glyph glyph-name="uni0259" unicode="&#x259;" 
d="M578 -20q-169 0 -282 70.5t-169.5 191.5t-56.5 274v90h652q1 62 -19 101t-54.5 57t-76.5 18q-53 0 -95.5 -20t-66.5 -80h-344q16 115 91 198.5t183 128.5t222 45q162 0 284 -65.5t190 -183.5t68 -275q0 -148 -62.5 -273t-180 -201t-283.5 -76zM578 242q40 0 73 20.5
t53 53.5t20 72h-295q0 -39 17 -72t50 -53.5t82 -20.5z" />
    <glyph glyph-name="uni02BB" unicode="&#x2bb;" horiz-adv-x="574" 
d="M100 834v298q0 88 45.5 168.5t125.5 125t183 24.5v-100l-28 -4q-46 -7 -92 -42t-46 -94v-22l166 -18v-336h-354z" />
    <glyph glyph-name="uni02BC" unicode="&#x2bc;" horiz-adv-x="574" 
d="M100 840v100l28 4q47 8 92.5 43t45.5 93v22l-166 18v336h354v-298q0 -88 -45.5 -168.5t-125.5 -125t-183 -24.5z" />
    <glyph glyph-name="circumflex" unicode="&#x2c6;" horiz-adv-x="856" 
d="M24 1155l276 291h264l268 -291h-278l-124 149l-142 -149h-264z" />
    <glyph glyph-name="caron" unicode="&#x2c7;" horiz-adv-x="882" 
d="M298 1155l-274 293h264l142 -164l124 164h278l-268 -293h-266z" />
    <glyph glyph-name="breve" unicode="&#x2d8;" horiz-adv-x="868" 
d="M434 1156q-93 0 -175.5 32t-140.5 96.5t-78 161.5h230q14 -51 56 -83.5t108 -32.5q65 0 107.5 32.5t57.5 83.5h229q-19 -97 -77.5 -161.5t-141 -96.5t-175.5 -32z" />
    <glyph glyph-name="dotaccent" unicode="&#x2d9;" horiz-adv-x="382" 
d="M10 1155v291h362v-291h-362z" />
    <glyph glyph-name="ring" unicode="&#x2da;" horiz-adv-x="558" 
d="M270 1096q-96 0 -162 67.5t-66 164.5q0 92 67 156t161 64q63 0 114.5 -30t82.5 -81t31 -113q0 -96 -66.5 -162t-161.5 -66zM268 1226q39 0 65.5 29.5t26.5 66.5q0 39 -26.5 65.5t-65.5 26.5t-67.5 -26.5t-28.5 -65.5q0 -37 28.5 -66.5t67.5 -29.5z" />
    <glyph glyph-name="ogonek" unicode="&#x2db;" horiz-adv-x="570" 
d="M278 -340q-106 0 -171 41.5t-65 128.5q0 50 34 96t148 86h266q-109 -36 -144.5 -65.5t-35.5 -62.5q0 -28 13.5 -42t40.5 -14q44 0 77 14.5t69 35.5v-164q-30 -19 -93.5 -36.5t-138.5 -17.5z" />
    <glyph glyph-name="tilde" unicode="&#x2dc;" horiz-adv-x="960" 
d="M144 1165l-54 192q39 44 88.5 75.5t127.5 31.5q62 0 118.5 -16.5t108 -33.5t97.5 -17q59 0 108 28t82 54l40 -220q-36 -31 -96.5 -56t-131.5 -25q-58 0 -109 15t-101 29.5t-106 14.5q-51 0 -88 -15.5t-84 -56.5z" />
    <glyph glyph-name="hungarumlaut" unicode="&#x2dd;" horiz-adv-x="1042" 
d="M430 1155l256 291h346l-330 -291h-272zM10 1155l206 291h333l-267 -291h-272z" />
    <glyph glyph-name="gravecomb" unicode="&#x300;" horiz-adv-x="0" 
d="M328 1155l-317 291h383l206 -291h-272z" />
    <glyph glyph-name="acutecomb" unicode="&#x301;" horiz-adv-x="0" 
d="M10 1155l206 291h383l-317 -291h-272z" />
    <glyph glyph-name="uni0302" unicode="&#x302;" horiz-adv-x="0" 
d="M24 1155l276 291h264l268 -291h-278l-124 149l-142 -149h-264z" />
    <glyph glyph-name="tildecomb" unicode="&#x303;" horiz-adv-x="0" 
d="M144 1165l-54 192q39 44 88.5 75.5t127.5 31.5q62 0 118.5 -16.5t108 -33.5t97.5 -17q59 0 108 28t82 54l40 -220q-36 -31 -96.5 -56t-131.5 -25q-58 0 -109 15t-101 29.5t-106 14.5q-51 0 -88 -15.5t-84 -56.5z" />
    <glyph glyph-name="uni0304" unicode="&#x304;" horiz-adv-x="0" 
d="M42 1178v238h800v-238h-800z" />
    <glyph glyph-name="uni0306" unicode="&#x306;" horiz-adv-x="0" 
d="M434 1156q-93 0 -175.5 32t-140.5 96.5t-78 161.5h230q14 -51 56 -83.5t108 -32.5q65 0 107.5 32.5t57.5 83.5h229q-19 -97 -77.5 -161.5t-141 -96.5t-175.5 -32z" />
    <glyph glyph-name="uni0307" unicode="&#x307;" horiz-adv-x="0" 
d="M10 1155v291h362v-291h-362z" />
    <glyph glyph-name="uni0308" unicode="&#x308;" horiz-adv-x="0" 
d="M546 1155l4 291h358l-4 -291h-358zM10 1155l4 291h358l-4 -291h-358z" />
    <glyph glyph-name="hookabovecomb" unicode="&#x309;" horiz-adv-x="0" 
d="M668 1155l-82 130q36 23 46.5 53.5t-10.5 64.5q-16 27 -52 31t-68 -17l-82 126q98 63 195.5 45.5t146.5 -95.5q59 -94 39 -183t-133 -155z" />
    <glyph glyph-name="uni030A" unicode="&#x30a;" horiz-adv-x="0" 
d="M270 1096q-96 0 -162 67.5t-66 164.5q0 92 67 156t161 64q63 0 114.5 -30t82.5 -81t31 -113q0 -96 -66.5 -162t-161.5 -66zM268 1226q39 0 65.5 29.5t26.5 66.5q0 39 -26.5 65.5t-65.5 26.5t-67.5 -26.5t-28.5 -65.5q0 -37 28.5 -66.5t67.5 -29.5z" />
    <glyph glyph-name="uni030B" unicode="&#x30b;" horiz-adv-x="0" 
d="M430 1155l256 291h346l-330 -291h-272zM10 1155l206 291h333l-267 -291h-272z" />
    <glyph glyph-name="uni030C" unicode="&#x30c;" horiz-adv-x="0" 
d="M298 1155l-274 293h264l142 -164l124 164h278l-268 -293h-266z" />
    <glyph glyph-name="uni030F" unicode="&#x30f;" horiz-adv-x="0" 
d="M340 1155l-330 291h346l256 -291h-272zM760 1155l-267 291h333l206 -291h-272z" />
    <glyph glyph-name="uni0311" unicode="&#x311;" horiz-adv-x="0" 
d="M30 1155q20 98 78 162t140.5 96t175.5 32t175.5 -32t141 -96t77.5 -162h-229q-15 51 -57.5 83.5t-107.5 32.5q-66 0 -108 -32.5t-56 -83.5h-230z" />
    <glyph glyph-name="uni0312" unicode="&#x312;" horiz-adv-x="0" 
d="M106 1155v180l180 224h128l-100 -172l96 -14v-218h-304z" />
    <glyph glyph-name="uni031B" unicode="&#x31b;" horiz-adv-x="0" 
d="M0 880v178q53 -1 91 0.5t63 19.5t40 64.5t22 135.5h234q-2 -163 -40 -257t-134.5 -127.5t-275.5 -13.5z" />
    <glyph glyph-name="dotbelowcomb" unicode="&#x323;" horiz-adv-x="0" 
d="M10 -433v291h362v-291h-362z" />
    <glyph glyph-name="uni0326" unicode="&#x326;" horiz-adv-x="0" 
d="M10 -495l100 172l-96 14v218h304v-180l-180 -224h-128z" />
    <glyph glyph-name="uni0327" unicode="&#x327;" horiz-adv-x="0" 
d="M302 -438q-70 0 -138.5 12t-127.5 46l48 118q36 -19 81.5 -35.5t88.5 -16.5q41 0 66.5 14t25.5 38q0 36 -38.5 56t-139.5 20q-15 0 -21 4t1 20l74 172h158l-42 -114q82 0 131 -25.5t71 -63.5t22 -75q0 -52 -36 -90t-95.5 -59t-128.5 -21z" />
    <glyph glyph-name="uni0328" unicode="&#x328;" horiz-adv-x="0" 
d="M278 -340q-106 0 -171 41.5t-65 128.5q0 50 34 96t148 86h266q-109 -36 -144.5 -65.5t-35.5 -62.5q0 -28 13.5 -42t40.5 -14q44 0 77 14.5t69 35.5v-164q-30 -19 -93.5 -36.5t-138.5 -17.5z" />
    <glyph glyph-name="pi" unicode="&#x3c0;" horiz-adv-x="1378" 
d="M90 0q22 84 41.5 185t35 205t24.5 197.5t9 162.5q0 20 -18 20h-142v264h1278v-264h-156v-770h-372v770h-216q0 -74 -9.5 -176t-25.5 -211.5t-37.5 -210t-45.5 -172.5h-366z" />
    <glyph glyph-name="uni1E0C" unicode="&#x1e0c;" horiz-adv-x="1488" 
d="M135 0v1446h80t148.5 0.5t164.5 0t127 -2.5q261 -9 426.5 -102t243.5 -251t78 -363q0 -211 -81 -375.5t-247 -258.5t-422 -94h-518zM524 306h141q74 0 150.5 41.5t129 135.5t52.5 251q0 133 -41.5 223.5t-116.5 136.5t-174 46h-141v-834zM525 -433v291h362v-291h-362z
" />
    <glyph glyph-name="uni1E0D" unicode="&#x1e0d;" horiz-adv-x="1238" 
d="M504 -20q-214 0 -329 148.5t-115 395.5q0 163 47.5 282t137.5 183.5t217 64.5q39 0 79 -7t78.5 -22.5t71.5 -42t57 -66.5v570h390v-1486h-275l-46 212q-18 -54 -45.5 -97t-66 -73t-88.5 -46t-113 -16zM596 252q68 0 110 59.5t42 212.5q0 92 -19 148.5t-53 82t-80 25.5
q-66 0 -113 -56t-47 -200q0 -153 47 -212.5t113 -59.5zM364 -433v291h362v-291h-362z" />
    <glyph glyph-name="uni1E24" unicode="&#x1e24;" horiz-adv-x="1547" 
d="M135 0v1446h389v-548h499v548h389v-1446h-389v580h-499v-580h-389zM594 -433v291h362v-291h-362z" />
    <glyph glyph-name="uni1E25" unicode="&#x1e25;" horiz-adv-x="1213" 
d="M100 0v1486h389v-599q24 30 56.5 64t84 58.5t132.5 24.5q97 0 179 -39.5t132 -116.5t50 -190v-688h-390v638q0 51 -39 76.5t-83 25.5q-28 0 -56.5 -12.5t-47 -36.5t-18.5 -58v-633h-389zM433 -433v291h362v-291h-362z" />
    <glyph glyph-name="uni1E44" unicode="&#x1e44;" horiz-adv-x="1615" 
d="M135 0v1446h392l564 -806v806h389v-1446h-351l-605 862v-862h-389zM625 1567v291h362v-291h-362z" />
    <glyph glyph-name="uni1E45" unicode="&#x1e45;" horiz-adv-x="1215" 
d="M100 0v1034h385v-143q22 33 56 67t88 57t135 23q91 0 173.5 -35t135 -112t52.5 -203v-688h-390v635q0 51 -38 78t-82 27q-28 0 -57.5 -12t-49 -35.5t-19.5 -57.5v-635h-389zM429 1155v291h362v-291h-362z" />
    <glyph glyph-name="uni1E5A" unicode="&#x1e5a;" horiz-adv-x="1427" 
d="M135 0v1446h656q188 0 302.5 -62t166.5 -167.5t52 -236.5q0 -111 -29.5 -189.5t-81 -134t-118.5 -96.5l254 -560h-399l-210 498h-204v-498h-389zM524 788h223q75 0 124.5 59t49.5 129q0 75 -54 128.5t-120 53.5h-223v-370zM539 -433v291h362v-291h-362z" />
    <glyph glyph-name="uni1E5B" unicode="&#x1e5b;" horiz-adv-x="863" 
d="M100 0v1034h376v-286q24 83 68.5 152.5t113.5 111.5t165 42h11h4v-368q-3 1 -5.5 1t-7.5 1q-109 11 -175.5 -2t-101.5 -42.5t-47 -68t-12 -79.5v-496h-389zM113 -433v291h362v-291h-362z" />
    <glyph glyph-name="uni1E62" unicode="&#x1e62;" horiz-adv-x="1424" 
d="M726 -20q-112 0 -221.5 28t-201 85t-150.5 143.5t-68 203.5h396q11 -51 44 -87t89.5 -55.5t135.5 -19.5q47 0 95 11.5t80.5 39t32.5 75.5q0 63 -52 86.5t-123 36.5l-247 44q-129 23 -221 77.5t-140.5 142.5t-48.5 211q0 146 81 249.5t220 158t312 54.5q189 0 321.5 -58
t203.5 -161t74 -237h-386q-6 55 -34 89t-75.5 50.5t-114.5 16.5q-108 0 -151 -38t-43 -82q0 -45 35.5 -76.5t126.5 -46.5l215 -35q151 -24 247.5 -84t142.5 -150t46 -206q0 -141 -81.5 -245.5t-221.5 -162.5t-318 -58zM540 -433v291h362v-291h-362z" />
    <glyph glyph-name="uni1E63" unicode="&#x1e63;" horiz-adv-x="1092" 
d="M556 -20q-108 0 -214 37t-183 118t-99 213h330q13 -50 46 -74t67 -31t51 -7q65 0 105 15.5t40 46.5q0 29 -27 45.5t-97 26.5l-153 24q-148 27 -239 102t-93 214q-1 96 53.5 174t160 124t256.5 46q212 0 336 -92t124 -250h-317q-11 47 -53 69.5t-95 22.5q-54 0 -91.5 -16
t-37.5 -46q0 -27 36 -43.5t119 -30.5l133 -24q100 -24 161.5 -65t94 -88.5t44.5 -93t12 -77.5q0 -111 -62.5 -186.5t-169 -114.5t-238.5 -39zM378 -433v291h362v-291h-362z" />
    <glyph glyph-name="uni1E6C" unicode="&#x1e6c;" horiz-adv-x="1274" 
d="M440 0v1104h-410v342h1214v-342h-414v-1104h-390zM474 -433v291h362v-291h-362z" />
    <glyph glyph-name="uni1E6D" unicode="&#x1e6d;" horiz-adv-x="882" 
d="M606 -16q-163 0 -251.5 40.5t-122.5 108.5t-34 151v486h-168v264h182l100 322h274v-320h226v-266h-226l2 -468q0 -23 8.5 -35t22.5 -16.5t31 -4.5h162v-230q-21 -10 -67 -21t-139 -11zM326 -415v291h362v-291h-362z" />
    <glyph glyph-name="Wgrave" unicode="&#x1e80;" horiz-adv-x="1964" 
d="M466 0l-436 1446h376l224 -776l216 776h272l224 -776l216 776h376l-432 -1446h-290l-230 786l-230 -786h-286zM836 1567l-317 291h383l206 -291h-272z" />
    <glyph glyph-name="wgrave" unicode="&#x1e81;" horiz-adv-x="1593" 
d="M358 0l-349 1034h338l162 -502v0l151 502h271l147 -504v0l160 504h347l-364 -1034h-279l-154 502l-163 -502h-267zM659 1155l-317 291h383l206 -291h-272z" />
    <glyph glyph-name="Wacute" unicode="&#x1e82;" horiz-adv-x="1964" 
d="M466 0l-436 1446h376l224 -776l216 776h272l224 -776l216 776h376l-432 -1446h-290l-230 786l-230 -786h-286zM847 1567l206 291h383l-317 -291h-272z" />
    <glyph glyph-name="wacute" unicode="&#x1e83;" horiz-adv-x="1593" 
d="M358 0l-349 1034h338l162 -502v0l151 502h271l147 -504v0l160 504h347l-364 -1034h-279l-154 502l-163 -502h-267zM670 1155l206 291h383l-317 -291h-272z" />
    <glyph glyph-name="Wdieresis" unicode="&#x1e84;" horiz-adv-x="1964" 
d="M466 0l-436 1446h376l224 -776l216 776h272l224 -776l216 776h376l-432 -1446h-290l-230 786l-230 -786h-286zM1069 1567l4 291h358l-4 -291h-358zM533 1567l4 291h358l-4 -291h-358z" />
    <glyph glyph-name="wdieresis" unicode="&#x1e85;" horiz-adv-x="1593" 
d="M358 0l-349 1034h338l162 -502v0l151 502h271l147 -504v0l160 504h347l-364 -1034h-279l-154 502l-163 -502h-267zM892 1155l4 291h358l-4 -291h-358zM356 1155l4 291h358l-4 -291h-358z" />
    <glyph glyph-name="uni1E92" unicode="&#x1e92;" horiz-adv-x="1399" 
d="M90 0v178l681 948h-618v320h1178v-170l-695 -952h683v-324h-1229zM536 -433v291h362v-291h-362z" />
    <glyph glyph-name="uni1E93" unicode="&#x1e93;" horiz-adv-x="1021" 
d="M50 0v206l444 562h-417v266h892v-206l-445 -562h447v-266h-921zM330 -433v291h362v-291h-362z" />
    <glyph glyph-name="uni1EA0" unicode="&#x1ea0;" horiz-adv-x="1482" 
d="M30 0l512 1446h398l512 -1446h-384l-96 280h-456l-98 -280h-388zM598 612h286l-142 462zM562 -433v291h362v-291h-362z" />
    <glyph glyph-name="uni1EA1" unicode="&#x1ea1;" horiz-adv-x="1157" 
d="M423 -20q-97 0 -178.5 38t-130 111.5t-48.5 180.5q0 168 133.5 261t415.5 93h80v44q0 50 -27.5 73t-86.5 21q-40 -1 -88 -19t-72 -71h-315q6 122 73 197.5t177 110t243 34.5q180 0 282 -41t144 -113.5t42 -167.5v-732h-322l-34 164q-46 -105 -114 -144.5t-174 -39.5z
M560 226q28 0 52.5 10t42.5 27.5t28.5 39.5t11.5 47v130h-62q-31 0 -79 -11.5t-85.5 -39.5t-37.5 -79q0 -58 39.5 -91t89.5 -33zM417 -433v291h362v-291h-362z" />
    <glyph glyph-name="uni1EA2" unicode="&#x1ea2;" horiz-adv-x="1482" 
d="M30 0l512 1446h398l512 -1446h-384l-96 280h-456l-98 -280h-388zM598 612h286l-142 462zM846 1567l-82 130q36 23 46.5 53.5t-10.5 64.5q-16 27 -52 31t-68 -17l-82 126q98 63 195.5 45.5t146.5 -95.5q59 -94 39 -183t-133 -155z" />
    <glyph glyph-name="uni1EA3" unicode="&#x1ea3;" horiz-adv-x="1157" 
d="M423 -20q-97 0 -178.5 38t-130 111.5t-48.5 180.5q0 168 133.5 261t415.5 93h80v44q0 50 -27.5 73t-86.5 21q-40 -1 -88 -19t-72 -71h-315q6 122 73 197.5t177 110t243 34.5q180 0 282 -41t144 -113.5t42 -167.5v-732h-322l-34 164q-46 -105 -114 -144.5t-174 -39.5z
M560 226q28 0 52.5 10t42.5 27.5t28.5 39.5t11.5 47v130h-62q-31 0 -79 -11.5t-85.5 -39.5t-37.5 -79q0 -58 39.5 -91t89.5 -33zM708 1155l-82 130q36 23 46.5 53.5t-10.5 64.5q-16 27 -52 31t-68 -17l-82 126q98 63 195.5 45.5t146.5 -95.5q59 -94 39 -183t-133 -155z" />
    <glyph glyph-name="uni1EA4" unicode="&#x1ea4;" horiz-adv-x="1482" 
d="M30 0l512 1446h398l512 -1446h-384l-96 280h-456l-98 -280h-388zM598 612h286l-142 462zM334 1567l276 291h264l268 -291h-278l-124 149l-142 -149h-264zM1008 1831l157 278h272l-247 -278h-182z" />
    <glyph glyph-name="uni1EA5" unicode="&#x1ea5;" horiz-adv-x="1157" 
d="M423 -20q-97 0 -178.5 38t-130 111.5t-48.5 180.5q0 168 133.5 261t415.5 93h80v44q0 50 -27.5 73t-86.5 21q-40 -1 -88 -19t-72 -71h-315q6 122 73 197.5t177 110t243 34.5q180 0 282 -41t144 -113.5t42 -167.5v-732h-322l-34 164q-46 -105 -114 -144.5t-174 -39.5z
M560 226q28 0 52.5 10t42.5 27.5t28.5 39.5t11.5 47v130h-62q-31 0 -79 -11.5t-85.5 -39.5t-37.5 -79q0 -58 39.5 -91t89.5 -33zM196 1155l276 291h264l268 -291h-278l-124 149l-142 -149h-264zM870 1419l157 278h272l-247 -278h-182z" />
    <glyph glyph-name="uni1EA6" unicode="&#x1ea6;" horiz-adv-x="1482" 
d="M30 0l512 1446h398l512 -1446h-384l-96 280h-456l-98 -280h-388zM598 612h286l-142 462zM334 1567l276 291h264l268 -291h-278l-124 149l-142 -149h-264zM1085 1829l-241 278h274l156 -278h-189z" />
    <glyph glyph-name="uni1EA7" unicode="&#x1ea7;" horiz-adv-x="1157" 
d="M423 -20q-97 0 -178.5 38t-130 111.5t-48.5 180.5q0 168 133.5 261t415.5 93h80v44q0 50 -27.5 73t-86.5 21q-40 -1 -88 -19t-72 -71h-315q6 122 73 197.5t177 110t243 34.5q180 0 282 -41t144 -113.5t42 -167.5v-732h-322l-34 164q-46 -105 -114 -144.5t-174 -39.5z
M560 226q28 0 52.5 10t42.5 27.5t28.5 39.5t11.5 47v130h-62q-31 0 -79 -11.5t-85.5 -39.5t-37.5 -79q0 -58 39.5 -91t89.5 -33zM196 1155l276 291h264l268 -291h-278l-124 149l-142 -149h-264zM947 1417l-241 278h274l156 -278h-189z" />
    <glyph glyph-name="uni1EA8" unicode="&#x1ea8;" horiz-adv-x="1482" 
d="M30 0l512 1446h398l512 -1446h-384l-96 280h-456l-98 -280h-388zM598 612h286l-142 462zM343 1567l276 291h264l268 -291h-278l-124 149l-142 -149h-264zM1097 1787l-82 130q36 23 46.5 53.5t-10.5 64.5q-16 27 -52 31t-68 -17l-82 126q98 63 195.5 45.5t146.5 -95.5
q59 -94 39 -183t-133 -155z" />
    <glyph glyph-name="uni1EA9" unicode="&#x1ea9;" horiz-adv-x="1157" 
d="M423 -20q-97 0 -178.5 38t-130 111.5t-48.5 180.5q0 168 133.5 261t415.5 93h80v44q0 50 -27.5 73t-86.5 21q-40 -1 -88 -19t-72 -71h-315q6 122 73 197.5t177 110t243 34.5q180 0 282 -41t144 -113.5t42 -167.5v-732h-322l-34 164q-46 -105 -114 -144.5t-174 -39.5z
M560 226q28 0 52.5 10t42.5 27.5t28.5 39.5t11.5 47v130h-62q-31 0 -79 -11.5t-85.5 -39.5t-37.5 -79q0 -58 39.5 -91t89.5 -33zM205 1155l276 291h264l268 -291h-278l-124 149l-142 -149h-264zM959 1375l-82 130q36 23 46.5 53.5t-10.5 64.5q-16 27 -52 31t-68 -17l-82 126
q98 63 195.5 45.5t146.5 -95.5q59 -94 39 -183t-133 -155z" />
    <glyph glyph-name="uni1EAA" unicode="&#x1eaa;" horiz-adv-x="1482" 
d="M30 0l512 1446h398l512 -1446h-384l-96 280h-456l-98 -280h-388zM598 612h286l-142 462zM338 1567l276 291h264l268 -291h-278l-124 149l-142 -149h-264zM408 1935l-54 192q39 44 88.5 75.5t127.5 31.5q62 0 118.5 -16.5t108 -33.5t97.5 -17q59 0 108 28t82 54l40 -220
q-36 -31 -96.5 -56t-131.5 -25q-58 0 -109 15t-101 29.5t-106 14.5q-51 0 -88 -15.5t-84 -56.5z" />
    <glyph glyph-name="uni1EAB" unicode="&#x1eab;" horiz-adv-x="1157" 
d="M423 -20q-97 0 -178.5 38t-130 111.5t-48.5 180.5q0 168 133.5 261t415.5 93h80v44q0 50 -27.5 73t-86.5 21q-40 -1 -88 -19t-72 -71h-315q6 122 73 197.5t177 110t243 34.5q180 0 282 -41t144 -113.5t42 -167.5v-732h-322l-34 164q-46 -105 -114 -144.5t-174 -39.5z
M560 226q28 0 52.5 10t42.5 27.5t28.5 39.5t11.5 47v130h-62q-31 0 -79 -11.5t-85.5 -39.5t-37.5 -79q0 -58 39.5 -91t89.5 -33zM200 1155l276 291h264l268 -291h-278l-124 149l-142 -149h-264zM270 1523l-54 192q39 44 88.5 75.5t127.5 31.5q62 0 118.5 -16.5t108 -33.5
t97.5 -17q59 0 108 28t82 54l40 -220q-36 -31 -96.5 -56t-131.5 -25q-58 0 -109 15t-101 29.5t-106 14.5q-51 0 -88 -15.5t-84 -56.5z" />
    <glyph glyph-name="uni1EAC" unicode="&#x1eac;" horiz-adv-x="1482" 
d="M30 0l512 1446h398l512 -1446h-384l-96 280h-456l-98 -280h-388zM598 612h286l-142 462zM562 -433v291h362v-291h-362zM334 1567l276 291h264l268 -291h-278l-124 149l-142 -149h-264z" />
    <glyph glyph-name="uni1EAD" unicode="&#x1ead;" horiz-adv-x="1157" 
d="M423 -20q-97 0 -178.5 38t-130 111.5t-48.5 180.5q0 168 133.5 261t415.5 93h80v44q0 50 -27.5 73t-86.5 21q-40 -1 -88 -19t-72 -71h-315q6 122 73 197.5t177 110t243 34.5q180 0 282 -41t144 -113.5t42 -167.5v-732h-322l-34 164q-46 -105 -114 -144.5t-174 -39.5z
M560 226q28 0 52.5 10t42.5 27.5t28.5 39.5t11.5 47v130h-62q-31 0 -79 -11.5t-85.5 -39.5t-37.5 -79q0 -58 39.5 -91t89.5 -33zM417 -433v291h362v-291h-362zM196 1155l276 291h264l268 -291h-278l-124 149l-142 -149h-264z" />
    <glyph glyph-name="uni1EAE" unicode="&#x1eae;" horiz-adv-x="1482" 
d="M30 0l512 1446h398l512 -1446h-384l-96 280h-456l-98 -280h-388zM598 612h286l-142 462zM742 1568q-93 0 -175.5 32t-140.5 96.5t-78 161.5h230q14 -51 56 -83.5t108 -32.5q65 0 107.5 32.5t57.5 83.5h229q-19 -97 -77.5 -161.5t-141 -96.5t-175.5 -32zM648 1943l157 278
h272l-247 -278h-182z" />
    <glyph glyph-name="uni1EAF" unicode="&#x1eaf;" horiz-adv-x="1157" 
d="M423 -20q-97 0 -178.5 38t-130 111.5t-48.5 180.5q0 168 133.5 261t415.5 93h80v44q0 50 -27.5 73t-86.5 21q-40 -1 -88 -19t-72 -71h-315q6 122 73 197.5t177 110t243 34.5q180 0 282 -41t144 -113.5t42 -167.5v-732h-322l-34 164q-46 -105 -114 -144.5t-174 -39.5z
M560 226q28 0 52.5 10t42.5 27.5t28.5 39.5t11.5 47v130h-62q-31 0 -79 -11.5t-85.5 -39.5t-37.5 -79q0 -58 39.5 -91t89.5 -33zM604 1156q-93 0 -175.5 32t-140.5 96.5t-78 161.5h230q14 -51 56 -83.5t108 -32.5q65 0 107.5 32.5t57.5 83.5h229q-19 -97 -77.5 -161.5
t-141 -96.5t-175.5 -32zM510 1531l157 278h272l-247 -278h-182z" />
    <glyph glyph-name="uni1EB0" unicode="&#x1eb0;" horiz-adv-x="1482" 
d="M30 0l512 1446h398l512 -1446h-384l-96 280h-456l-98 -280h-388zM598 612h286l-142 462zM742 1568q-93 0 -175.5 32t-140.5 96.5t-78 161.5h230q14 -51 56 -83.5t108 -32.5q65 0 107.5 32.5t57.5 83.5h229q-19 -97 -77.5 -161.5t-141 -96.5t-175.5 -32zM659 1943
l-241 278h274l156 -278h-189z" />
    <glyph glyph-name="uni1EB1" unicode="&#x1eb1;" horiz-adv-x="1157" 
d="M423 -20q-97 0 -178.5 38t-130 111.5t-48.5 180.5q0 168 133.5 261t415.5 93h80v44q0 50 -27.5 73t-86.5 21q-40 -1 -88 -19t-72 -71h-315q6 122 73 197.5t177 110t243 34.5q180 0 282 -41t144 -113.5t42 -167.5v-732h-322l-34 164q-46 -105 -114 -144.5t-174 -39.5z
M560 226q28 0 52.5 10t42.5 27.5t28.5 39.5t11.5 47v130h-62q-31 0 -79 -11.5t-85.5 -39.5t-37.5 -79q0 -58 39.5 -91t89.5 -33zM604 1156q-93 0 -175.5 32t-140.5 96.5t-78 161.5h230q14 -51 56 -83.5t108 -32.5q65 0 107.5 32.5t57.5 83.5h229q-19 -97 -77.5 -161.5
t-141 -96.5t-175.5 -32zM521 1531l-241 278h274l156 -278h-189z" />
    <glyph glyph-name="uni1EB2" unicode="&#x1eb2;" horiz-adv-x="1482" 
d="M30 0l512 1446h398l512 -1446h-384l-96 280h-456l-98 -280h-388zM598 612h286l-142 462zM742 1568q-93 0 -175.5 32t-140.5 96.5t-78 161.5h230q14 -51 56 -83.5t108 -32.5q65 0 107.5 32.5t57.5 83.5h229q-19 -97 -77.5 -161.5t-141 -96.5t-175.5 -32zM750 1832l-82 130
q36 23 46.5 53.5t-10.5 64.5q-16 27 -52 31t-68 -17l-82 126q76 49 156 49q123 0 186 -99q59 -94 39 -183t-133 -155z" />
    <glyph glyph-name="uni1EB3" unicode="&#x1eb3;" horiz-adv-x="1157" 
d="M423 -20q-97 0 -178.5 38t-130 111.5t-48.5 180.5q0 168 133.5 261t415.5 93h80v44q0 50 -27.5 73t-86.5 21q-40 -1 -88 -19t-72 -71h-315q6 122 73 197.5t177 110t243 34.5q180 0 282 -41t144 -113.5t42 -167.5v-732h-322l-34 164q-46 -105 -114 -144.5t-174 -39.5z
M560 226q28 0 52.5 10t42.5 27.5t28.5 39.5t11.5 47v130h-62q-31 0 -79 -11.5t-85.5 -39.5t-37.5 -79q0 -58 39.5 -91t89.5 -33zM604 1156q-93 0 -175.5 32t-140.5 96.5t-78 161.5h230q14 -51 56 -83.5t108 -32.5q65 0 107.5 32.5t57.5 83.5h229q-19 -97 -77.5 -161.5
t-141 -96.5t-175.5 -32zM612 1420l-82 130q36 23 46.5 53.5t-10.5 64.5q-16 27 -52 31t-68 -17l-82 126q76 49 156 49q123 0 186 -99q59 -94 39 -183t-133 -155z" />
    <glyph glyph-name="uni1EB4" unicode="&#x1eb4;" horiz-adv-x="1482" 
d="M30 0l512 1446h398l512 -1446h-384l-96 280h-456l-98 -280h-388zM598 612h286l-142 462zM742 1568q-93 0 -175.5 32t-140.5 96.5t-78 161.5h230q14 -51 56 -83.5t108 -32.5q65 0 107.5 32.5t57.5 83.5h229q-19 -97 -77.5 -161.5t-141 -96.5t-175.5 -32zM402 1935l-54 192
q39 44 88.5 75.5t127.5 31.5q62 0 118.5 -16.5t108 -33.5t97.5 -17q59 0 108 28t82 54l40 -220q-36 -31 -96.5 -56t-131.5 -25q-58 0 -109 15t-101 29.5t-106 14.5q-51 0 -88 -15.5t-84 -56.5z" />
    <glyph glyph-name="uni1EB5" unicode="&#x1eb5;" horiz-adv-x="1157" 
d="M423 -20q-97 0 -178.5 38t-130 111.5t-48.5 180.5q0 168 133.5 261t415.5 93h80v44q0 50 -27.5 73t-86.5 21q-40 -1 -88 -19t-72 -71h-315q6 122 73 197.5t177 110t243 34.5q180 0 282 -41t144 -113.5t42 -167.5v-732h-322l-34 164q-46 -105 -114 -144.5t-174 -39.5z
M560 226q28 0 52.5 10t42.5 27.5t28.5 39.5t11.5 47v130h-62q-31 0 -79 -11.5t-85.5 -39.5t-37.5 -79q0 -58 39.5 -91t89.5 -33zM604 1156q-93 0 -175.5 32t-140.5 96.5t-78 161.5h230q14 -51 56 -83.5t108 -32.5q65 0 107.5 32.5t57.5 83.5h229q-19 -97 -77.5 -161.5
t-141 -96.5t-175.5 -32zM264 1523l-54 192q39 44 88.5 75.5t127.5 31.5q62 0 118.5 -16.5t108 -33.5t97.5 -17q59 0 108 28t82 54l40 -220q-36 -31 -96.5 -56t-131.5 -25q-58 0 -109 15t-101 29.5t-106 14.5q-51 0 -88 -15.5t-84 -56.5z" />
    <glyph glyph-name="uni1EB6" unicode="&#x1eb6;" horiz-adv-x="1482" 
d="M30 0l512 1446h398l512 -1446h-384l-96 280h-456l-98 -280h-388zM598 612h286l-142 462zM562 -433v291h362v-291h-362zM742 1568q-93 0 -175.5 32t-140.5 96.5t-78 161.5h230q14 -51 56 -83.5t108 -32.5q65 0 107.5 32.5t57.5 83.5h229q-19 -97 -77.5 -161.5t-141 -96.5
t-175.5 -32z" />
    <glyph glyph-name="uni1EB7" unicode="&#x1eb7;" horiz-adv-x="1157" 
d="M423 -20q-97 0 -178.5 38t-130 111.5t-48.5 180.5q0 168 133.5 261t415.5 93h80v44q0 50 -27.5 73t-86.5 21q-40 -1 -88 -19t-72 -71h-315q6 122 73 197.5t177 110t243 34.5q180 0 282 -41t144 -113.5t42 -167.5v-732h-322l-34 164q-46 -105 -114 -144.5t-174 -39.5z
M560 226q28 0 52.5 10t42.5 27.5t28.5 39.5t11.5 47v130h-62q-31 0 -79 -11.5t-85.5 -39.5t-37.5 -79q0 -58 39.5 -91t89.5 -33zM417 -433v291h362v-291h-362zM604 1156q-93 0 -175.5 32t-140.5 96.5t-78 161.5h230q14 -51 56 -83.5t108 -32.5q65 0 107.5 32.5t57.5 83.5
h229q-19 -97 -77.5 -161.5t-141 -96.5t-175.5 -32z" />
    <glyph glyph-name="uni1EB8" unicode="&#x1eb8;" horiz-adv-x="1295" 
d="M135 0v1446h1068l-2 -322h-674v-240h564v-314h-567v-246h681v-324h-1070zM489 -433v291h362v-291h-362z" />
    <glyph glyph-name="uni1EB9" unicode="&#x1eb9;" 
d="M608 -20q-161 0 -283.5 65.5t-190.5 183.5t-68 275q0 148 62.5 273t180 201t283.5 76q169 0 282 -70t169.5 -191.5t56.5 -274.5v-90h-652q-1 -62 19 -101t54.5 -57t76.5 -18q53 0 95.5 20t66.5 80h344q-16 -115 -91 -198.5t-182.5 -128.5t-222.5 -45zM446 646h295
q0 39 -17 72.5t-50 53.5t-82 20q-40 0 -73 -20t-53 -53.5t-20 -72.5zM420 -433v291h362v-291h-362z" />
    <glyph glyph-name="uni1EBA" unicode="&#x1eba;" horiz-adv-x="1295" 
d="M135 0v1446h1068l-2 -322h-674v-240h564v-314h-567v-246h681v-324h-1070zM773 1567l-82 130q36 23 46.5 53.5t-10.5 64.5q-16 27 -52 31t-68 -17l-82 126q98 63 195.5 45.5t146.5 -95.5q59 -94 39 -183t-133 -155z" />
    <glyph glyph-name="uni1EBB" unicode="&#x1ebb;" 
d="M608 -20q-161 0 -283.5 65.5t-190.5 183.5t-68 275q0 148 62.5 273t180 201t283.5 76q169 0 282 -70t169.5 -191.5t56.5 -274.5v-90h-652q-1 -62 19 -101t54.5 -57t76.5 -18q53 0 95.5 20t66.5 80h344q-16 -115 -91 -198.5t-182.5 -128.5t-222.5 -45zM446 646h295
q0 39 -17 72.5t-50 53.5t-82 20q-40 0 -73 -20t-53 -53.5t-20 -72.5zM698 1155l-82 130q36 23 46.5 53.5t-10.5 64.5q-16 27 -52 31t-68 -17l-82 126q98 63 195.5 45.5t146.5 -95.5q59 -94 39 -183t-133 -155z" />
    <glyph glyph-name="uni1EBC" unicode="&#x1ebc;" horiz-adv-x="1295" 
d="M135 0v1446h1068l-2 -322h-674v-240h564v-314h-567v-246h681v-324h-1070zM345 1577l-54 192q39 44 88.5 75.5t127.5 31.5q62 0 118.5 -16.5t108 -33.5t97.5 -17q59 0 108 28t82 54l40 -220q-36 -31 -96.5 -56t-131.5 -25q-58 0 -109 15t-101 29.5t-106 14.5
q-51 0 -88 -15.5t-84 -56.5z" />
    <glyph glyph-name="uni1EBD" unicode="&#x1ebd;" 
d="M608 -20q-161 0 -283.5 65.5t-190.5 183.5t-68 275q0 148 62.5 273t180 201t283.5 76q169 0 282 -70t169.5 -191.5t56.5 -274.5v-90h-652q-1 -62 19 -101t54.5 -57t76.5 -18q53 0 95.5 20t66.5 80h344q-16 -115 -91 -198.5t-182.5 -128.5t-222.5 -45zM446 646h295
q0 39 -17 72.5t-50 53.5t-82 20q-40 0 -73 -20t-53 -53.5t-20 -72.5zM270 1165l-54 192q39 44 88.5 75.5t127.5 31.5q62 0 118.5 -16.5t108 -33.5t97.5 -17q59 0 108 28t82 54l40 -220q-36 -31 -96.5 -56t-131.5 -25q-58 0 -109 15t-101 29.5t-106 14.5q-51 0 -88 -15.5
t-84 -56.5z" />
    <glyph glyph-name="uni1EBE" unicode="&#x1ebe;" horiz-adv-x="1295" 
d="M135 0v1446h1068l-2 -322h-674v-240h564v-314h-567v-246h681v-324h-1070zM261 1567l276 291h264l268 -291h-278l-124 149l-142 -149h-264zM935 1831l157 278h272l-247 -278h-182z" />
    <glyph glyph-name="uni1EBF" unicode="&#x1ebf;" 
d="M608 -20q-161 0 -283.5 65.5t-190.5 183.5t-68 275q0 148 62.5 273t180 201t283.5 76q169 0 282 -70t169.5 -191.5t56.5 -274.5v-90h-652q-1 -62 19 -101t54.5 -57t76.5 -18q53 0 95.5 20t66.5 80h344q-16 -115 -91 -198.5t-182.5 -128.5t-222.5 -45zM446 646h295
q0 39 -17 72.5t-50 53.5t-82 20q-40 0 -73 -20t-53 -53.5t-20 -72.5zM186 1155l276 291h264l268 -291h-278l-124 149l-142 -149h-264zM860 1419l157 278h272l-247 -278h-182z" />
    <glyph glyph-name="uni1EC0" unicode="&#x1ec0;" horiz-adv-x="1295" 
d="M135 0v1446h1068l-2 -322h-674v-240h564v-314h-567v-246h681v-324h-1070zM261 1567l276 291h264l268 -291h-278l-124 149l-142 -149h-264zM1012 1829l-241 278h274l156 -278h-189z" />
    <glyph glyph-name="uni1EC1" unicode="&#x1ec1;" 
d="M608 -20q-161 0 -283.5 65.5t-190.5 183.5t-68 275q0 148 62.5 273t180 201t283.5 76q169 0 282 -70t169.5 -191.5t56.5 -274.5v-90h-652q-1 -62 19 -101t54.5 -57t76.5 -18q53 0 95.5 20t66.5 80h344q-16 -115 -91 -198.5t-182.5 -128.5t-222.5 -45zM446 646h295
q0 39 -17 72.5t-50 53.5t-82 20q-40 0 -73 -20t-53 -53.5t-20 -72.5zM186 1155l276 291h264l268 -291h-278l-124 149l-142 -149h-264zM937 1417l-241 278h274l156 -278h-189z" />
    <glyph glyph-name="uni1EC2" unicode="&#x1ec2;" horiz-adv-x="1295" 
d="M135 0v1446h1068l-2 -322h-674v-240h564v-314h-567v-246h681v-324h-1070zM270 1567l276 291h264l268 -291h-278l-124 149l-142 -149h-264zM1024 1787l-82 130q36 23 46.5 53.5t-10.5 64.5q-16 27 -52 31t-68 -17l-82 126q98 63 195.5 45.5t146.5 -95.5q59 -94 39 -183
t-133 -155z" />
    <glyph glyph-name="uni1EC3" unicode="&#x1ec3;" 
d="M608 -20q-161 0 -283.5 65.5t-190.5 183.5t-68 275q0 148 62.5 273t180 201t283.5 76q169 0 282 -70t169.5 -191.5t56.5 -274.5v-90h-652q-1 -62 19 -101t54.5 -57t76.5 -18q53 0 95.5 20t66.5 80h344q-16 -115 -91 -198.5t-182.5 -128.5t-222.5 -45zM446 646h295
q0 39 -17 72.5t-50 53.5t-82 20q-40 0 -73 -20t-53 -53.5t-20 -72.5zM195 1155l276 291h264l268 -291h-278l-124 149l-142 -149h-264zM949 1375l-82 130q36 23 46.5 53.5t-10.5 64.5q-16 27 -52 31t-68 -17l-82 126q98 63 195.5 45.5t146.5 -95.5q59 -94 39 -183t-133 -155z
" />
    <glyph glyph-name="uni1EC4" unicode="&#x1ec4;" horiz-adv-x="1295" 
d="M135 0v1446h1068l-2 -322h-674v-240h564v-314h-567v-246h681v-324h-1070zM265 1567l276 291h264l268 -291h-278l-124 149l-142 -149h-264zM335 1935l-54 192q39 44 88.5 75.5t127.5 31.5q62 0 118.5 -16.5t108 -33.5t97.5 -17q59 0 108 28t82 54l40 -220
q-36 -31 -96.5 -56t-131.5 -25q-58 0 -109 15t-101 29.5t-106 14.5q-51 0 -88 -15.5t-84 -56.5z" />
    <glyph glyph-name="uni1EC5" unicode="&#x1ec5;" 
d="M608 -20q-161 0 -283.5 65.5t-190.5 183.5t-68 275q0 148 62.5 273t180 201t283.5 76q169 0 282 -70t169.5 -191.5t56.5 -274.5v-90h-652q-1 -62 19 -101t54.5 -57t76.5 -18q53 0 95.5 20t66.5 80h344q-16 -115 -91 -198.5t-182.5 -128.5t-222.5 -45zM446 646h295
q0 39 -17 72.5t-50 53.5t-82 20q-40 0 -73 -20t-53 -53.5t-20 -72.5zM190 1155l276 291h264l268 -291h-278l-124 149l-142 -149h-264zM260 1523l-54 192q39 44 88.5 75.5t127.5 31.5q62 0 118.5 -16.5t108 -33.5t97.5 -17q59 0 108 28t82 54l40 -220q-36 -31 -96.5 -56
t-131.5 -25q-58 0 -109 15t-101 29.5t-106 14.5q-51 0 -88 -15.5t-84 -56.5z" />
    <glyph glyph-name="uni1EC6" unicode="&#x1ec6;" horiz-adv-x="1295" 
d="M135 0v1446h1068l-2 -322h-674v-240h564v-314h-567v-246h681v-324h-1070zM489 -433v291h362v-291h-362zM261 1567l276 291h264l268 -291h-278l-124 149l-142 -149h-264z" />
    <glyph glyph-name="uni1EC7" unicode="&#x1ec7;" 
d="M608 -20q-161 0 -283.5 65.5t-190.5 183.5t-68 275q0 148 62.5 273t180 201t283.5 76q169 0 282 -70t169.5 -191.5t56.5 -274.5v-90h-652q-1 -62 19 -101t54.5 -57t76.5 -18q53 0 95.5 20t66.5 80h344q-16 -115 -91 -198.5t-182.5 -128.5t-222.5 -45zM446 646h295
q0 39 -17 72.5t-50 53.5t-82 20q-40 0 -73 -20t-53 -53.5t-20 -72.5zM420 -433v291h362v-291h-362zM186 1155l276 291h264l268 -291h-278l-124 149l-142 -149h-264z" />
    <glyph glyph-name="uni1EC8" unicode="&#x1ec8;" horiz-adv-x="659" 
d="M135 0v1446h389v-1446h-389zM435 1567l-82 130q36 23 46.5 53.5t-10.5 64.5q-16 27 -52 31t-68 -17l-82 126q98 63 195.5 45.5t146.5 -95.5q59 -94 39 -183t-133 -155z" />
    <glyph glyph-name="uni1EC9" unicode="&#x1ec9;" horiz-adv-x="571" 
d="M100 0v1034h371v-1034h-371zM396 1155l-82 130q36 23 46.5 53.5t-10.5 64.5q-16 27 -52 31t-68 -17l-82 126q98 63 195.5 45.5t146.5 -95.5q59 -94 39 -183t-133 -155z" />
    <glyph glyph-name="uni1ECA" unicode="&#x1eca;" horiz-adv-x="659" 
d="M135 0v1446h389v-1446h-389zM171 -433v291h362v-291h-362z" />
    <glyph glyph-name="uni1ECB" unicode="&#x1ecb;" horiz-adv-x="570" 
d="M100 0v1034h370v-1034h-370zM100 1118v328h370v-328h-370zM105 -433v291h362v-291h-362z" />
    <glyph glyph-name="uni1ECC" unicode="&#x1ecc;" horiz-adv-x="1570" 
d="M787 -20q-215 0 -372.5 91.5t-243.5 257.5t-86 391q0 226 87.5 393.5t245.5 260t369 92.5q210 0 367 -92.5t244 -260t87 -393.5q0 -224 -85.5 -390.5t-242.5 -258t-370 -91.5zM787 292q80 0 142.5 40.5t98 133t35.5 248.5q0 161 -35.5 257.5t-98 139.5t-142.5 43
t-142.5 -43t-98.5 -139.5t-36 -257.5q0 -156 36 -248.5t98.5 -133t142.5 -40.5zM609 -433v291h362v-291h-362z" />
    <glyph glyph-name="uni1ECD" unicode="&#x1ecd;" 
d="M584 -20q-160 0 -277.5 68t-182 187.5t-64.5 274.5q0 163 67.5 285.5t186 190.5t272.5 68q162 0 279.5 -70.5t181 -193.5t63.5 -280q0 -154 -64.5 -273.5t-182.5 -188t-279 -68.5zM586 262q62 0 93.5 42.5t42 103.5t10.5 116q0 56 -10.5 114.5t-42 98t-93.5 39.5
q-63 0 -94.5 -39.5t-42.5 -98t-11 -114.5q0 -55 11 -116t42.5 -103.5t94.5 -42.5zM399 -433v291h362v-291h-362z" />
    <glyph glyph-name="uni1ECE" unicode="&#x1ece;" horiz-adv-x="1570" 
d="M787 -20q-215 0 -372.5 91.5t-243.5 257.5t-86 391q0 226 87.5 393.5t245.5 260t369 92.5q210 0 367 -92.5t244 -260t87 -393.5q0 -224 -85.5 -390.5t-242.5 -258t-370 -91.5zM787 292q80 0 142.5 40.5t98 133t35.5 248.5q0 161 -35.5 257.5t-98 139.5t-142.5 43
t-142.5 -43t-98.5 -139.5t-36 -257.5q0 -156 36 -248.5t98.5 -133t142.5 -40.5zM889 1567l-82 130q36 23 46.5 53.5t-10.5 64.5q-16 27 -52 31t-68 -17l-82 126q98 63 195.5 45.5t146.5 -95.5q59 -94 39 -183t-133 -155z" />
    <glyph glyph-name="uni1ECF" unicode="&#x1ecf;" 
d="M584 -20q-160 0 -277.5 68t-182 187.5t-64.5 274.5q0 163 67.5 285.5t186 190.5t272.5 68q162 0 279.5 -70.5t181 -193.5t63.5 -280q0 -154 -64.5 -273.5t-182.5 -188t-279 -68.5zM586 262q62 0 93.5 42.5t42 103.5t10.5 116q0 56 -10.5 114.5t-42 98t-93.5 39.5
q-63 0 -94.5 -39.5t-42.5 -98t-11 -114.5q0 -55 11 -116t42.5 -103.5t94.5 -42.5zM690 1155l-82 130q36 23 46.5 53.5t-10.5 64.5q-16 27 -52 31t-68 -17l-82 126q98 63 195.5 45.5t146.5 -95.5q59 -94 39 -183t-133 -155z" />
    <glyph glyph-name="uni1ED0" unicode="&#x1ed0;" horiz-adv-x="1570" 
d="M787 -20q-215 0 -372.5 91.5t-243.5 257.5t-86 391q0 226 87.5 393.5t245.5 260t369 92.5q210 0 367 -92.5t244 -260t87 -393.5q0 -224 -85.5 -390.5t-242.5 -258t-370 -91.5zM787 292q80 0 142.5 40.5t98 133t35.5 248.5q0 161 -35.5 257.5t-98 139.5t-142.5 43
t-142.5 -43t-98.5 -139.5t-36 -257.5q0 -156 36 -248.5t98.5 -133t142.5 -40.5zM377 1567l276 291h264l268 -291h-278l-124 149l-142 -149h-264zM1051 1831l157 278h272l-247 -278h-182z" />
    <glyph glyph-name="uni1ED1" unicode="&#x1ed1;" 
d="M584 -20q-160 0 -277.5 68t-182 187.5t-64.5 274.5q0 163 67.5 285.5t186 190.5t272.5 68q162 0 279.5 -70.5t181 -193.5t63.5 -280q0 -154 -64.5 -273.5t-182.5 -188t-279 -68.5zM586 262q62 0 93.5 42.5t42 103.5t10.5 116q0 56 -10.5 114.5t-42 98t-93.5 39.5
q-63 0 -94.5 -39.5t-42.5 -98t-11 -114.5q0 -55 11 -116t42.5 -103.5t94.5 -42.5zM178 1155l276 291h264l268 -291h-278l-124 149l-142 -149h-264zM852 1419l157 278h272l-247 -278h-182z" />
    <glyph glyph-name="uni1ED2" unicode="&#x1ed2;" horiz-adv-x="1570" 
d="M787 -20q-215 0 -372.5 91.5t-243.5 257.5t-86 391q0 226 87.5 393.5t245.5 260t369 92.5q210 0 367 -92.5t244 -260t87 -393.5q0 -224 -85.5 -390.5t-242.5 -258t-370 -91.5zM787 292q80 0 142.5 40.5t98 133t35.5 248.5q0 161 -35.5 257.5t-98 139.5t-142.5 43
t-142.5 -43t-98.5 -139.5t-36 -257.5q0 -156 36 -248.5t98.5 -133t142.5 -40.5zM377 1567l276 291h264l268 -291h-278l-124 149l-142 -149h-264zM1128 1829l-241 278h274l156 -278h-189z" />
    <glyph glyph-name="uni1ED3" unicode="&#x1ed3;" 
d="M584 -20q-160 0 -277.5 68t-182 187.5t-64.5 274.5q0 163 67.5 285.5t186 190.5t272.5 68q162 0 279.5 -70.5t181 -193.5t63.5 -280q0 -154 -64.5 -273.5t-182.5 -188t-279 -68.5zM586 262q62 0 93.5 42.5t42 103.5t10.5 116q0 56 -10.5 114.5t-42 98t-93.5 39.5
q-63 0 -94.5 -39.5t-42.5 -98t-11 -114.5q0 -55 11 -116t42.5 -103.5t94.5 -42.5zM178 1155l276 291h264l268 -291h-278l-124 149l-142 -149h-264zM929 1417l-241 278h274l156 -278h-189z" />
    <glyph glyph-name="uni1ED4" unicode="&#x1ed4;" horiz-adv-x="1570" 
d="M787 -20q-215 0 -372.5 91.5t-243.5 257.5t-86 391q0 226 87.5 393.5t245.5 260t369 92.5q210 0 367 -92.5t244 -260t87 -393.5q0 -224 -85.5 -390.5t-242.5 -258t-370 -91.5zM787 292q80 0 142.5 40.5t98 133t35.5 248.5q0 161 -35.5 257.5t-98 139.5t-142.5 43
t-142.5 -43t-98.5 -139.5t-36 -257.5q0 -156 36 -248.5t98.5 -133t142.5 -40.5zM386 1567l276 291h264l268 -291h-278l-124 149l-142 -149h-264zM1140 1787l-82 130q36 23 46.5 53.5t-10.5 64.5q-16 27 -52 31t-68 -17l-82 126q98 63 195.5 45.5t146.5 -95.5q59 -94 39 -183
t-133 -155z" />
    <glyph glyph-name="uni1ED5" unicode="&#x1ed5;" 
d="M584 -20q-160 0 -277.5 68t-182 187.5t-64.5 274.5q0 163 67.5 285.5t186 190.5t272.5 68q162 0 279.5 -70.5t181 -193.5t63.5 -280q0 -154 -64.5 -273.5t-182.5 -188t-279 -68.5zM586 262q62 0 93.5 42.5t42 103.5t10.5 116q0 56 -10.5 114.5t-42 98t-93.5 39.5
q-63 0 -94.5 -39.5t-42.5 -98t-11 -114.5q0 -55 11 -116t42.5 -103.5t94.5 -42.5zM187 1155l276 291h264l268 -291h-278l-124 149l-142 -149h-264zM941 1375l-82 130q36 23 46.5 53.5t-10.5 64.5q-16 27 -52 31t-68 -17l-82 126q98 63 195.5 45.5t146.5 -95.5
q59 -94 39 -183t-133 -155z" />
    <glyph glyph-name="uni1ED6" unicode="&#x1ed6;" horiz-adv-x="1570" 
d="M787 -20q-215 0 -372.5 91.5t-243.5 257.5t-86 391q0 226 87.5 393.5t245.5 260t369 92.5q210 0 367 -92.5t244 -260t87 -393.5q0 -224 -85.5 -390.5t-242.5 -258t-370 -91.5zM787 292q80 0 142.5 40.5t98 133t35.5 248.5q0 161 -35.5 257.5t-98 139.5t-142.5 43
t-142.5 -43t-98.5 -139.5t-36 -257.5q0 -156 36 -248.5t98.5 -133t142.5 -40.5zM381 1567l276 291h264l268 -291h-278l-124 149l-142 -149h-264zM451 1935l-54 192q39 44 88.5 75.5t127.5 31.5q62 0 118.5 -16.5t108 -33.5t97.5 -17q59 0 108 28t82 54l40 -220
q-36 -31 -96.5 -56t-131.5 -25q-58 0 -109 15t-101 29.5t-106 14.5q-51 0 -88 -15.5t-84 -56.5z" />
    <glyph glyph-name="uni1ED7" unicode="&#x1ed7;" 
d="M584 -20q-160 0 -277.5 68t-182 187.5t-64.5 274.5q0 163 67.5 285.5t186 190.5t272.5 68q162 0 279.5 -70.5t181 -193.5t63.5 -280q0 -154 -64.5 -273.5t-182.5 -188t-279 -68.5zM586 262q62 0 93.5 42.5t42 103.5t10.5 116q0 56 -10.5 114.5t-42 98t-93.5 39.5
q-63 0 -94.5 -39.5t-42.5 -98t-11 -114.5q0 -55 11 -116t42.5 -103.5t94.5 -42.5zM182 1155l276 291h264l268 -291h-278l-124 149l-142 -149h-264zM252 1523l-54 192q39 44 88.5 75.5t127.5 31.5q62 0 118.5 -16.5t108 -33.5t97.5 -17q59 0 108 28t82 54l40 -220
q-36 -31 -96.5 -56t-131.5 -25q-58 0 -109 15t-101 29.5t-106 14.5q-51 0 -88 -15.5t-84 -56.5z" />
    <glyph glyph-name="uni1ED8" unicode="&#x1ed8;" horiz-adv-x="1570" 
d="M787 -20q-215 0 -372.5 91.5t-243.5 257.5t-86 391q0 226 87.5 393.5t245.5 260t369 92.5q210 0 367 -92.5t244 -260t87 -393.5q0 -224 -85.5 -390.5t-242.5 -258t-370 -91.5zM787 292q80 0 142.5 40.5t98 133t35.5 248.5q0 161 -35.5 257.5t-98 139.5t-142.5 43
t-142.5 -43t-98.5 -139.5t-36 -257.5q0 -156 36 -248.5t98.5 -133t142.5 -40.5zM609 -433v291h362v-291h-362zM377 1567l276 291h264l268 -291h-278l-124 149l-142 -149h-264z" />
    <glyph glyph-name="uni1ED9" unicode="&#x1ed9;" 
d="M584 -20q-160 0 -277.5 68t-182 187.5t-64.5 274.5q0 163 67.5 285.5t186 190.5t272.5 68q162 0 279.5 -70.5t181 -193.5t63.5 -280q0 -154 -64.5 -273.5t-182.5 -188t-279 -68.5zM586 262q62 0 93.5 42.5t42 103.5t10.5 116q0 56 -10.5 114.5t-42 98t-93.5 39.5
q-63 0 -94.5 -39.5t-42.5 -98t-11 -114.5q0 -55 11 -116t42.5 -103.5t94.5 -42.5zM399 -433v291h362v-291h-362zM178 1155l276 291h264l268 -291h-278l-124 149l-142 -149h-264z" />
    <glyph glyph-name="uni1EDA" unicode="&#x1eda;" horiz-adv-x="1760" 
d="M787 -20q-215 0 -372.5 91.5t-243.5 257.5t-86 391q0 226 87.5 393.5t245.5 260t369 92.5q154 0 280 -50.5t217 -143.5q52 -1 89 1t61.5 20t39.5 64.5t22 134.5h234q-1 -141 -29 -230.5t-96.5 -132t-193.5 -43.5q36 -78 55 -170t19 -196q0 -224 -85.5 -390.5t-242.5 -258
t-370 -91.5zM787 292q80 0 142.5 40.5t98 133t35.5 248.5q0 161 -35.5 257.5t-98 139.5t-142.5 43t-142.5 -43t-98.5 -139.5t-36 -257.5q0 -156 36 -248.5t98.5 -133t142.5 -40.5zM650 1567l206 291h383l-317 -291h-272z" />
    <glyph glyph-name="uni1EDB" unicode="&#x1edb;" horiz-adv-x="1354" 
d="M434 1155l206 291h383l-317 -291h-272zM584 -20q-160 0 -277.5 68t-182 187.5t-64.5 274.5q0 163 67.5 285.5t186 190.5t272.5 68q125 0 224 -43t167 -120q55 0 90 11t54.5 57.5t28.5 152.5h234q-1 -138 -27.5 -226.5t-92 -131.5t-183.5 -47q29 -93 29 -197
q0 -154 -64.5 -273.5t-182.5 -188t-279 -68.5zM586 262q62 0 93.5 42.5t42 103.5t10.5 116q0 56 -10.5 114.5t-42 98t-93.5 39.5q-63 0 -94.5 -39.5t-42.5 -98t-11 -114.5q0 -55 11 -116t42.5 -103.5t94.5 -42.5z" />
    <glyph glyph-name="uni1EDC" unicode="&#x1edc;" horiz-adv-x="1760" 
d="M787 -20q-215 0 -372.5 91.5t-243.5 257.5t-86 391q0 226 87.5 393.5t245.5 260t369 92.5q154 0 280 -50.5t217 -143.5q52 -1 89 1t61.5 20t39.5 64.5t22 134.5h234q-1 -141 -29 -230.5t-96.5 -132t-193.5 -43.5q36 -78 55 -170t19 -196q0 -224 -85.5 -390.5t-242.5 -258
t-370 -91.5zM787 292q80 0 142.5 40.5t98 133t35.5 248.5q0 161 -35.5 257.5t-98 139.5t-142.5 43t-142.5 -43t-98.5 -139.5t-36 -257.5q0 -156 36 -248.5t98.5 -133t142.5 -40.5zM639 1567l-317 291h383l206 -291h-272z" />
    <glyph glyph-name="uni1EDD" unicode="&#x1edd;" horiz-adv-x="1354" 
d="M428 1155l-317 291h383l206 -291h-272zM584 -20q-160 0 -277.5 68t-182 187.5t-64.5 274.5q0 163 67.5 285.5t186 190.5t272.5 68q125 0 224 -43t167 -120q55 0 90 11t54.5 57.5t28.5 152.5h234q-1 -138 -27.5 -226.5t-92 -131.5t-183.5 -47q29 -93 29 -197
q0 -154 -64.5 -273.5t-182.5 -188t-279 -68.5zM586 262q62 0 93.5 42.5t42 103.5t10.5 116q0 56 -10.5 114.5t-42 98t-93.5 39.5q-63 0 -94.5 -39.5t-42.5 -98t-11 -114.5q0 -55 11 -116t42.5 -103.5t94.5 -42.5z" />
    <glyph glyph-name="uni1EDE" unicode="&#x1ede;" horiz-adv-x="1760" 
d="M787 -20q-215 0 -372.5 91.5t-243.5 257.5t-86 391q0 226 87.5 393.5t245.5 260t369 92.5q154 0 280 -50.5t217 -143.5q52 -1 89 1t61.5 20t39.5 64.5t22 134.5h234q-1 -141 -29 -230.5t-96.5 -132t-193.5 -43.5q36 -78 55 -170t19 -196q0 -224 -85.5 -390.5t-242.5 -258
t-370 -91.5zM787 292q80 0 142.5 40.5t98 133t35.5 248.5q0 161 -35.5 257.5t-98 139.5t-142.5 43t-142.5 -43t-98.5 -139.5t-36 -257.5q0 -156 36 -248.5t98.5 -133t142.5 -40.5zM889 1567l-82 130q36 23 46.5 53.5t-10.5 64.5q-16 27 -52 31t-68 -17l-82 126
q98 63 195.5 45.5t146.5 -95.5q59 -94 39 -183t-133 -155z" />
    <glyph glyph-name="uni1EDF" unicode="&#x1edf;" horiz-adv-x="1354" 
d="M670 1155l-82 130q36 23 46.5 53.5t-10.5 64.5q-16 27 -52 31t-68 -17l-82 126q98 63 195.5 45.5t146.5 -95.5q59 -94 39 -183t-133 -155zM584 -20q-160 0 -277.5 68t-182 187.5t-64.5 274.5q0 163 67.5 285.5t186 190.5t272.5 68q125 0 224 -43t167 -120q55 0 90 11
t54.5 57.5t28.5 152.5h234q-1 -138 -27.5 -226.5t-92 -131.5t-183.5 -47q29 -93 29 -197q0 -154 -64.5 -273.5t-182.5 -188t-279 -68.5zM586 262q62 0 93.5 42.5t42 103.5t10.5 116q0 56 -10.5 114.5t-42 98t-93.5 39.5q-63 0 -94.5 -39.5t-42.5 -98t-11 -114.5
q0 -55 11 -116t42.5 -103.5t94.5 -42.5z" />
    <glyph glyph-name="uni1EE0" unicode="&#x1ee0;" horiz-adv-x="1760" 
d="M787 -20q-215 0 -372.5 91.5t-243.5 257.5t-86 391q0 226 87.5 393.5t245.5 260t369 92.5q154 0 280 -50.5t217 -143.5q52 -1 89 1t61.5 20t39.5 64.5t22 134.5h234q-1 -141 -29 -230.5t-96.5 -132t-193.5 -43.5q36 -78 55 -170t19 -196q0 -224 -85.5 -390.5t-242.5 -258
t-370 -91.5zM787 292q80 0 142.5 40.5t98 133t35.5 248.5q0 161 -35.5 257.5t-98 139.5t-142.5 43t-142.5 -43t-98.5 -139.5t-36 -257.5q0 -156 36 -248.5t98.5 -133t142.5 -40.5zM461 1577l-54 192q39 44 88.5 75.5t127.5 31.5q62 0 118.5 -16.5t108 -33.5t97.5 -17
q59 0 108 28t82 54l40 -220q-36 -31 -96.5 -56t-131.5 -25q-58 0 -109 15t-101 29.5t-106 14.5q-51 0 -88 -15.5t-84 -56.5z" />
    <glyph glyph-name="uni1EE1" unicode="&#x1ee1;" horiz-adv-x="1354" 
d="M242 1165l-54 192q39 44 88.5 75.5t127.5 31.5q62 0 118.5 -16.5t108 -33.5t97.5 -17q59 0 108 28t82 54l40 -220q-36 -31 -96.5 -56t-131.5 -25q-58 0 -109 15t-101 29.5t-106 14.5q-51 0 -88 -15.5t-84 -56.5zM584 -20q-160 0 -277.5 68t-182 187.5t-64.5 274.5
q0 163 67.5 285.5t186 190.5t272.5 68q125 0 224 -43t167 -120q55 0 90 11t54.5 57.5t28.5 152.5h234q-1 -138 -27.5 -226.5t-92 -131.5t-183.5 -47q29 -93 29 -197q0 -154 -64.5 -273.5t-182.5 -188t-279 -68.5zM586 262q62 0 93.5 42.5t42 103.5t10.5 116
q0 56 -10.5 114.5t-42 98t-93.5 39.5q-63 0 -94.5 -39.5t-42.5 -98t-11 -114.5q0 -55 11 -116t42.5 -103.5t94.5 -42.5z" />
    <glyph glyph-name="uni1EE2" unicode="&#x1ee2;" horiz-adv-x="1760" 
d="M787 -20q-215 0 -372.5 91.5t-243.5 257.5t-86 391q0 226 87.5 393.5t245.5 260t369 92.5q154 0 280 -50.5t217 -143.5q52 -1 89 1t61.5 20t39.5 64.5t22 134.5h234q-1 -141 -29 -230.5t-96.5 -132t-193.5 -43.5q36 -78 55 -170t19 -196q0 -224 -85.5 -390.5t-242.5 -258
t-370 -91.5zM787 292q80 0 142.5 40.5t98 133t35.5 248.5q0 161 -35.5 257.5t-98 139.5t-142.5 43t-142.5 -43t-98.5 -139.5t-36 -257.5q0 -156 36 -248.5t98.5 -133t142.5 -40.5zM609 -433v291h362v-291h-362z" />
    <glyph glyph-name="uni1EE3" unicode="&#x1ee3;" horiz-adv-x="1354" 
d="M366 -433v291h362v-291h-362zM584 -20q-160 0 -277.5 68t-182 187.5t-64.5 274.5q0 163 67.5 285.5t186 190.5t272.5 68q125 0 224 -43t167 -120q55 0 90 11t54.5 57.5t28.5 152.5h234q-1 -138 -27.5 -226.5t-92 -131.5t-183.5 -47q29 -93 29 -197q0 -154 -64.5 -273.5
t-182.5 -188t-279 -68.5zM586 262q62 0 93.5 42.5t42 103.5t10.5 116q0 56 -10.5 114.5t-42 98t-93.5 39.5q-63 0 -94.5 -39.5t-42.5 -98t-11 -114.5q0 -55 11 -116t42.5 -103.5t94.5 -42.5z" />
    <glyph glyph-name="uni1EE4" unicode="&#x1ee4;" horiz-adv-x="1491" 
d="M759 -20q-233 0 -369.5 78t-195.5 217t-59 323v848h394v-864q0 -150 69.5 -213t160.5 -63q60 0 112.5 27.5t85 88t32.5 160.5v864h394v-848q0 -184 -59 -323t-195.5 -217t-369.5 -78zM579 -433v291h362v-291h-362z" />
    <glyph glyph-name="uni1EE5" unicode="&#x1ee5;" horiz-adv-x="1217" 
d="M481 -20q-63 0 -131 21.5t-127 63.5t-96 102.5t-37 138.5v728h390v-674q0 -45 33 -75.5t92 -30.5t92.5 30.5t33.5 75.5v674h386v-1034h-288l-46 212q-19 -103 -72 -152.5t-116.5 -64.5t-113.5 -15zM433 -433v291h362v-291h-362z" />
    <glyph glyph-name="uni1EE6" unicode="&#x1ee6;" horiz-adv-x="1491" 
d="M759 -20q-233 0 -369.5 78t-195.5 217t-59 323v848h394v-864q0 -150 69.5 -213t160.5 -63q60 0 112.5 27.5t85 88t32.5 160.5v864h394v-848q0 -184 -59 -323t-195.5 -217t-369.5 -78zM863 1567l-82 130q36 23 46.5 53.5t-10.5 64.5q-16 27 -52 31t-68 -17l-82 126
q98 63 195.5 45.5t146.5 -95.5q59 -94 39 -183t-133 -155z" />
    <glyph glyph-name="uni1EE7" unicode="&#x1ee7;" horiz-adv-x="1217" 
d="M481 -20q-63 0 -131 21.5t-127 63.5t-96 102.5t-37 138.5v728h390v-674q0 -45 33 -75.5t92 -30.5t92.5 30.5t33.5 75.5v674h386v-1034h-288l-46 212q-19 -103 -72 -152.5t-116.5 -64.5t-113.5 -15zM710 1155l-82 130q36 23 46.5 53.5t-10.5 64.5q-16 27 -52 31t-68 -17
l-82 126q98 63 195.5 45.5t146.5 -95.5q59 -94 39 -183t-133 -155z" />
    <glyph glyph-name="uni1EE8" unicode="&#x1ee8;" horiz-adv-x="1812" 
d="M759 -20q-233 0 -369.5 78t-195.5 217t-59 323v848h394v-864q0 -150 69.5 -213t160.5 -63q60 0 112.5 27.5t85 88t32.5 160.5v864h394v-175q46 1 75.5 15.5t46.5 61.5t25 144h234q-2 -152 -34.5 -244t-114 -130.5t-232.5 -29.5v-490q0 -184 -59 -323t-195.5 -217
t-369.5 -78zM624 1567l206 291h383l-317 -291h-272z" />
    <glyph glyph-name="uni1EE9" unicode="&#x1ee9;" horiz-adv-x="1526" 
d="M480 1155l206 291h383l-317 -291h-272zM481 -20q-63 0 -131 21.5t-127 63.5t-96 102.5t-37 138.5v728h390v-674q0 -45 33 -75.5t92 -30.5t92.5 30.5t33.5 75.5v674h386v-143q51 0 83.5 12.5t51 59.5t26.5 149h234q-2 -154 -35.5 -246.5t-118.5 -130t-241 -26.5v-709h-288
l-46 212q-19 -103 -72 -152.5t-116.5 -64.5t-113.5 -15z" />
    <glyph glyph-name="uni1EEA" unicode="&#x1eea;" horiz-adv-x="1812" 
d="M759 -20q-233 0 -369.5 78t-195.5 217t-59 323v848h394v-864q0 -150 69.5 -213t160.5 -63q60 0 112.5 27.5t85 88t32.5 160.5v864h394v-175q46 1 75.5 15.5t46.5 61.5t25 144h234q-2 -152 -34.5 -244t-114 -130.5t-232.5 -29.5v-490q0 -184 -59 -323t-195.5 -217
t-369.5 -78zM613 1567l-317 291h383l206 -291h-272z" />
    <glyph glyph-name="uni1EEB" unicode="&#x1eeb;" horiz-adv-x="1526" 
d="M474 1155l-317 291h383l206 -291h-272zM481 -20q-63 0 -131 21.5t-127 63.5t-96 102.5t-37 138.5v728h390v-674q0 -45 33 -75.5t92 -30.5t92.5 30.5t33.5 75.5v674h386v-143q51 0 83.5 12.5t51 59.5t26.5 149h234q-2 -154 -35.5 -246.5t-118.5 -130t-241 -26.5v-709h-288
l-46 212q-19 -103 -72 -152.5t-116.5 -64.5t-113.5 -15z" />
    <glyph glyph-name="uni1EEC" unicode="&#x1eec;" horiz-adv-x="1812" 
d="M759 -20q-233 0 -369.5 78t-195.5 217t-59 323v848h394v-864q0 -150 69.5 -213t160.5 -63q60 0 112.5 27.5t85 88t32.5 160.5v864h394v-175q46 1 75.5 15.5t46.5 61.5t25 144h234q-2 -152 -34.5 -244t-114 -130.5t-232.5 -29.5v-490q0 -184 -59 -323t-195.5 -217
t-369.5 -78zM863 1567l-82 130q36 23 46.5 53.5t-10.5 64.5q-16 27 -52 31t-68 -17l-82 126q98 63 195.5 45.5t146.5 -95.5q59 -94 39 -183t-133 -155z" />
    <glyph glyph-name="uni1EED" unicode="&#x1eed;" horiz-adv-x="1526" 
d="M716 1155l-82 130q36 23 46.5 53.5t-10.5 64.5q-16 27 -52 31t-68 -17l-82 126q98 63 195.5 45.5t146.5 -95.5q59 -94 39 -183t-133 -155zM481 -20q-63 0 -131 21.5t-127 63.5t-96 102.5t-37 138.5v728h390v-674q0 -45 33 -75.5t92 -30.5t92.5 30.5t33.5 75.5v674h386
v-143q51 0 83.5 12.5t51 59.5t26.5 149h234q-2 -154 -35.5 -246.5t-118.5 -130t-241 -26.5v-709h-288l-46 212q-19 -103 -72 -152.5t-116.5 -64.5t-113.5 -15z" />
    <glyph glyph-name="uni1EEE" unicode="&#x1eee;" horiz-adv-x="1800" 
d="M759 -20q-233 0 -369.5 78t-195.5 217t-59 323v848h394v-864q0 -150 69.5 -213t160.5 -63q60 0 112.5 27.5t85 88t32.5 160.5v864h394v-175q46 1 75.5 15.5t46.5 61.5t25 144h234q-2 -152 -34.5 -244t-114 -130.5t-232.5 -29.5v-490q0 -184 -59 -323t-195.5 -217
t-369.5 -78zM435 1577l-54 192q39 44 88.5 75.5t127.5 31.5q62 0 118.5 -16.5t108 -33.5t97.5 -17q59 0 108 28t82 54l40 -220q-36 -31 -96.5 -56t-131.5 -25q-58 0 -109 15t-101 29.5t-106 14.5q-51 0 -88 -15.5t-84 -56.5z" />
    <glyph glyph-name="uni1EEF" unicode="&#x1eef;" horiz-adv-x="1526" 
d="M288 1165l-54 192q39 44 88.5 75.5t127.5 31.5q62 0 118.5 -16.5t108 -33.5t97.5 -17q59 0 108 28t82 54l40 -220q-36 -31 -96.5 -56t-131.5 -25q-58 0 -109 15t-101 29.5t-106 14.5q-51 0 -88 -15.5t-84 -56.5zM481 -20q-63 0 -131 21.5t-127 63.5t-96 102.5t-37 138.5
v728h390v-674q0 -45 33 -75.5t92 -30.5t92.5 30.5t33.5 75.5v674h386v-143q51 0 83.5 12.5t51 59.5t26.5 149h234q-2 -154 -35.5 -246.5t-118.5 -130t-241 -26.5v-709h-288l-46 212q-19 -103 -72 -152.5t-116.5 -64.5t-113.5 -15z" />
    <glyph glyph-name="uni1EF0" unicode="&#x1ef0;" horiz-adv-x="1812" 
d="M759 -20q-233 0 -369.5 78t-195.5 217t-59 323v848h394v-864q0 -150 69.5 -213t160.5 -63q60 0 112.5 27.5t85 88t32.5 160.5v864h394v-175q46 1 75.5 15.5t46.5 61.5t25 144h234q-2 -152 -34.5 -244t-114 -130.5t-232.5 -29.5v-490q0 -184 -59 -323t-195.5 -217
t-369.5 -78zM579 -433v291h362v-291h-362z" />
    <glyph glyph-name="uni1EF1" unicode="&#x1ef1;" horiz-adv-x="1526" 
d="M420 -433v291h362v-291h-362zM481 -20q-63 0 -131 21.5t-127 63.5t-96 102.5t-37 138.5v728h390v-674q0 -45 33 -75.5t92 -30.5t92.5 30.5t33.5 75.5v674h386v-143q51 0 83.5 12.5t51 59.5t26.5 149h234q-2 -154 -35.5 -246.5t-118.5 -130t-241 -26.5v-709h-288l-46 212
q-19 -103 -72 -152.5t-116.5 -64.5t-113.5 -15z" />
    <glyph glyph-name="Ygrave" unicode="&#x1ef2;" horiz-adv-x="1444" 
d="M524 0v602l-509 844h420l286 -514l283 514h425l-515 -844v-602h-390zM625 1567l-317 291h383l206 -291h-272z" />
    <glyph glyph-name="ygrave" unicode="&#x1ef3;" horiz-adv-x="1177" 
d="M315 -330q-120 0 -172.5 22l-52.5 22v246l99 -6q76 -6 119.5 4.5t63.5 28t26 33.5t7 20l4 20l-401 974h382l196 -562l203 562h381l-404 -974q-67 -163 -137 -247t-147.5 -113.5t-166.5 -29.5zM440 1155l-317 291h383l206 -291h-272z" />
    <glyph glyph-name="uni1EF4" unicode="&#x1ef4;" horiz-adv-x="1444" 
d="M524 0v602l-509 844h420l286 -514l283 514h425l-515 -844v-602h-390zM541 -433v291h362v-291h-362z" />
    <glyph glyph-name="uni1EF5" unicode="&#x1ef5;" horiz-adv-x="1177" 
d="M315 -330q-120 0 -172.5 22l-52.5 22v246l99 -6q76 -6 119.5 4.5t63.5 28t26 33.5t7 20l4 20l-401 974h382l196 -562l203 562h381l-404 -974q-67 -163 -137 -247t-147.5 -113.5t-166.5 -29.5zM749 -368v291h362v-291h-362z" />
    <glyph glyph-name="uni1EF6" unicode="&#x1ef6;" horiz-adv-x="1444" 
d="M524 0v602l-509 844h420l286 -514l283 514h425l-515 -844v-602h-390zM875 1567l-82 130q36 23 46.5 53.5t-10.5 64.5q-16 27 -52 31t-68 -17l-82 126q98 63 195.5 45.5t146.5 -95.5q59 -94 39 -183t-133 -155z" />
    <glyph glyph-name="uni1EF7" unicode="&#x1ef7;" horiz-adv-x="1177" 
d="M315 -330q-120 0 -172.5 22l-52.5 22v246l99 -6q76 -6 119.5 4.5t63.5 28t26 33.5t7 20l4 20l-401 974h382l196 -562l203 562h381l-404 -974q-67 -163 -137 -247t-147.5 -113.5t-166.5 -29.5zM690 1155l-82 130q36 23 46.5 53.5t-10.5 64.5q-16 27 -52 31t-68 -17
l-82 126q98 63 195.5 45.5t146.5 -95.5q59 -94 39 -183t-133 -155z" />
    <glyph glyph-name="uni1EF8" unicode="&#x1ef8;" horiz-adv-x="1444" 
d="M524 0v602l-509 844h420l286 -514l283 514h425l-515 -844v-602h-390zM447 1577l-54 192q39 44 88.5 75.5t127.5 31.5q62 0 118.5 -16.5t108 -33.5t97.5 -17q59 0 108 28t82 54l40 -220q-36 -31 -96.5 -56t-131.5 -25q-58 0 -109 15t-101 29.5t-106 14.5q-51 0 -88 -15.5
t-84 -56.5z" />
    <glyph glyph-name="uni1EF9" unicode="&#x1ef9;" horiz-adv-x="1177" 
d="M315 -330q-120 0 -172.5 22l-52.5 22v246l99 -6q76 -6 119.5 4.5t63.5 28t26 33.5t7 20l4 20l-401 974h382l196 -562l203 562h381l-404 -974q-67 -163 -137 -247t-147.5 -113.5t-166.5 -29.5zM262 1165l-54 192q39 44 88.5 75.5t127.5 31.5q62 0 118.5 -16.5t108 -33.5
t97.5 -17q59 0 108 28t82 54l40 -220q-36 -31 -96.5 -56t-131.5 -25q-58 0 -109 15t-101 29.5t-106 14.5q-51 0 -88 -15.5t-84 -56.5z" />
    <glyph glyph-name="endash" unicode="&#x2013;" horiz-adv-x="1252" 
d="M117 356v274h1018v-274h-1018z" />
    <glyph glyph-name="emdash" unicode="&#x2014;" horiz-adv-x="2355" 
d="M351 356v274h1653v-274h-1653z" />
    <glyph glyph-name="quoteleft" unicode="&#x2018;" horiz-adv-x="568" 
d="M50 860v298l230 346h128l-120 -294l116 -14v-336h-354z" />
    <glyph glyph-name="quoteright" unicode="&#x2019;" horiz-adv-x="578" 
d="M100 802l120 294l-116 14v336h354v-298l-230 -346h-128z" />
    <glyph glyph-name="quotesinglbase" unicode="&#x201a;" horiz-adv-x="618" 
d="M100 -302l120 294l-116 14v338h354v-300l-230 -346h-128z" />
    <glyph glyph-name="quotedblleft" unicode="&#x201c;" horiz-adv-x="1068" 
d="M50 802v298l230 346h128l-120 -294l116 -14v-336h-354zM550 802v298l230 346h128l-120 -294l116 -14v-336h-354z" />
    <glyph glyph-name="quotedblright" unicode="&#x201d;" horiz-adv-x="1078" 
d="M598 802l122 294l-118 14v336h356v-298l-230 -346h-130zM100 802l120 294l-116 14v336h354v-298l-230 -346h-128z" />
    <glyph glyph-name="quotedblbase" unicode="&#x201e;" horiz-adv-x="1130" 
d="M612 -302l120 294l-116 14v338h354v-300l-230 -346h-128zM100 -302l120 294l-116 14v338h354v-300l-230 -346h-128z" />
    <glyph glyph-name="dagger" unicode="&#x2020;" horiz-adv-x="1156" 
d="M388 -322l70 1072l-368 -56v328l356 -50l-62 474h366l-62 -474l358 50v-328l-370 56l72 -1072h-360z" />
    <glyph glyph-name="daggerdbl" unicode="&#x2021;" horiz-adv-x="1156" 
d="M384 -322l64 436l-358 -52v328l364 -54v372l-364 -54v326l356 -50l-62 516h364l-60 -516l358 50v-326l-366 54v-372l366 54v-328l-360 52l64 -436h-366z" />
    <glyph glyph-name="bullet" unicode="&#x2022;" horiz-adv-x="772" 
d="M370 434q-83 0 -151 41t-108.5 109.5t-40.5 151.5q0 82 40.5 150t108.5 109t151 41t151.5 -41t109.5 -109t41 -150q0 -83 -41 -151.5t-109.5 -109.5t-151.5 -41z" />
    <glyph glyph-name="ellipsis" unicode="&#x2026;" horiz-adv-x="2020" 
d="M1490 0v392h410v-392h-410zM90 0v392h410v-392h-410zM790 0v392h410v-392h-410z" />
    <glyph glyph-name="perthousand" unicode="&#x2030;" horiz-adv-x="2792" 
d="M403 -8l977 1470h213l-972 -1470h-218zM468 652q-110 0 -198 57t-139 148.5t-51 196.5q0 107 52 201.5t140 153.5t196 59q107 0 194 -59t138.5 -153.5t51.5 -201.5q0 -105 -50.5 -196.5t-137.5 -148.5t-196 -57zM466 842q62 0 83 53.5t21 158.5q0 111 -22.5 168.5
t-81.5 57.5q-58 0 -81 -58t-23 -168q0 -105 22 -158.5t82 -53.5zM1456 -20q-110 0 -198 57.5t-139 149.5t-51 197q0 106 52 200.5t140 154t196 59.5t195.5 -59.5t139 -154t51.5 -200.5q0 -105 -50.5 -197t-138 -149.5t-197.5 -57.5zM1454 172q62 0 83 53.5t21 156.5
q0 111 -22.5 168.5t-81.5 57.5q-58 0 -80 -58t-22 -168q0 -103 21 -156.5t81 -53.5zM2308 -20q-111 0 -198.5 57.5t-138.5 149.5t-51 197q0 106 51.5 200.5t139.5 154t197 59.5q107 0 194 -59.5t138.5 -154t51.5 -200.5q0 -105 -50.5 -197t-137.5 -149.5t-196 -57.5z
M2306 172q62 0 82 53.5t20 156.5q0 111 -21.5 168.5t-80.5 57.5q-58 0 -81 -58t-23 -168q0 -103 22 -156.5t82 -53.5z" />
    <glyph glyph-name="guilsinglleft" unicode="&#x2039;" horiz-adv-x="674" 
d="M334 118l-214 384l212 400h202l-128 -400l128 -384h-200z" />
    <glyph glyph-name="guilsinglright" unicode="&#x203a;" horiz-adv-x="674" 
d="M140 118l128 384l-128 400h202l212 -400l-214 -384h-200z" />
    <glyph glyph-name="fraction" unicode="&#x2044;" horiz-adv-x="483" 
d="M-137 -8l-215 4l974 1466h213z" />
    <glyph glyph-name="uni2070" unicode="&#x2070;" horiz-adv-x="846" 
d="M425 734q-179 0 -277.5 121t-98.5 342q0 222 99.5 346t276.5 124q175 0 273.5 -124t98.5 -346q0 -221 -97 -342t-275 -121zM423 926q68 0 94.5 60.5t26.5 208.5q0 154 -27.5 219t-93.5 65t-93.5 -65.5t-27.5 -218.5q0 -148 27 -208.5t94 -60.5z" />
    <glyph glyph-name="uni2074" unicode="&#x2074;" horiz-adv-x="852" 
d="M448 746l1 174h-410v190l405 545h238v-536h131v-199h-131v-174h-234zM261 1119h190v253z" />
    <glyph glyph-name="uni2075" unicode="&#x2075;" horiz-adv-x="886" 
d="M461 732q-142 0 -252 55.5t-160 139.5l183 123q41 -52 84 -89.5t116 -37.5q68 0 109 32t41 77q0 43 -37.5 77.5t-108.5 34.5q-30 0 -56.5 -7.5t-67.5 -25.5q-13 -5 -17.5 -5t-18.5 7l-166 89l42 452h622l-10 -197h-424l-14 -151q55 15 93.5 23.5t85.5 8.5
q99 0 173.5 -35.5t116.5 -101.5t42 -160q0 -146 -101.5 -227.5t-274.5 -81.5z" />
    <glyph glyph-name="uni2076" unicode="&#x2076;" horiz-adv-x="871" 
d="M450 737q-189 0 -295 121.5t-106 319.5q0 230 110.5 359t295.5 129q94 0 174 -33.5t129 -97.5t49 -154h-222q-15 51 -45.5 74t-78.5 23q-78 0 -115.5 -64t-23.5 -144q38 23 86 32.5t97 9.5q143 0 230 -75.5t87 -195.5q0 -87 -48 -156t-132 -108.5t-192 -39.5zM439 914
q49 0 87.5 32.5t38.5 83.5q0 59 -40.5 82t-84.5 23q-28 0 -55.5 -12t-46 -27.5t-18.5 -26.5q0 -79 33.5 -117t85.5 -38z" />
    <glyph glyph-name="uni2077" unicode="&#x2077;" horiz-adv-x="775" 
d="M206 748q0 66 27.5 181t93 255t179.5 277h-467v197h717v-197q-48 -52 -99 -138t-94.5 -187t-69.5 -202.5t-24 -185.5h-263z" />
    <glyph glyph-name="uni2078" unicode="&#x2078;" horiz-adv-x="887" 
d="M444 736q-172 0 -278.5 71t-106.5 197q0 52 25 97t63 76t76 40q-50 26 -87.5 73.5t-37.5 114.5q0 128 99 194.5t247 66.5q149 0 247.5 -66.5t98.5 -194.5q0 -67 -37.5 -114.5t-87.5 -73.5q39 -9 76.5 -40t62 -76t24.5 -97q0 -126 -105.5 -197t-278.5 -71zM444 912
q60 0 92.5 27.5t32.5 73.5q0 47 -32.5 75t-92.5 28q-61 0 -93.5 -28t-32.5 -75q0 -46 32.5 -73.5t93.5 -27.5zM444 1307q44 0 74.5 28t30.5 74q0 47 -30.5 74.5t-74.5 27.5q-43 0 -73.5 -27.5t-30.5 -74.5q0 -46 30.5 -74t73.5 -28z" />
    <glyph glyph-name="uni2079" unicode="&#x2079;" horiz-adv-x="865" 
d="M410 736q-94 0 -175 35.5t-130.5 100t-50.5 150.5h230q8 -45 37.5 -71t76.5 -26q78 0 131 47t41 171q-31 -31 -78 -48t-115 -17q-142 0 -235 77.5t-93 205.5q0 88 47 157t130 108.5t190 39.5q189 0 294.5 -121.5t105.5 -320.5q0 -257 -110.5 -372.5t-295.5 -115.5z
M425 1267q28 0 56 12t46.5 28t18.5 26q0 80 -33 118t-86 38q-49 0 -82.5 -32t-33.5 -84q0 -53 35.5 -79.5t78.5 -26.5z" />
    <glyph glyph-name="colonmonetary" unicode="&#x20a1;" horiz-adv-x="1490" 
d="M777 -20q-209 0 -364.5 99t-241.5 271t-86 392t85 382.5t240.5 252t366.5 89.5q172 0 308 -67.5t220 -187t100 -275.5h-406q-11 67 -41 116t-78.5 75.5t-115.5 26.5q-73 0 -130 -38t-89.5 -129.5t-32.5 -250.5q0 -241 71 -342.5t181 -101.5q67 0 115.5 34t78.5 90.5
t41 123.5h406q-15 -112 -50.5 -213t-105 -179.5t-184.5 -123t-288 -44.5zM424 -122l320 1682h154l-320 -1682h-154zM668 -122l320 1682h154l-320 -1682h-154z" />
    <glyph glyph-name="franc" unicode="&#x20a3;" horiz-adv-x="1278" 
d="M108 0v1446h1110l-2 -318h-666v-260h430v-310h-430v-558h-442zM-60 212v198h882v-198h-882z" />
    <glyph glyph-name="lira" unicode="&#x20a4;" horiz-adv-x="1360" 
d="M50 0v318h62q59 0 99 21t55 67q5 12 6.5 26t1.5 30t-18 16h-204v196h196l-12 96h-184v198h156l-6 96q-10 134 58 223.5t183 134t247 44.5q97 0 199 -33.5t188 -106.5t135 -192l-338 -96q-18 50 -44.5 89t-77.5 39q-30 0 -51.5 -14t-33 -41t-11.5 -65q0 -12 1.5 -25.5
t2.5 -28.5q3 -24 24 -24h228v-198h-218l8 -96h210v-196h-222q-12 -32 -30.5 -60.5t-43.5 -53t-56 -44.5h206q83 0 128 36t70 120l326 -64q-45 -199 -175.5 -305.5t-316.5 -106.5h-748z" />
    <glyph glyph-name="uni20A6" unicode="&#x20a6;" horiz-adv-x="1790" 
d="M229 0v1446h392l564 -806v806h389v-1446h-351l-605 862v-862h-389zM20 420v176h1750v-176h-1750zM20 888v176h1750v-176h-1750z" />
    <glyph glyph-name="uni20A9" unicode="&#x20a9;" horiz-adv-x="2400" 
d="M664 0l-436 1446h376l224 -776l216 776h272l224 -776l216 776h376l-432 -1446h-290l-230 786l-230 -786h-286zM20 810v196h2340v-196h-2340zM20 1122v196h2340v-196h-2340z" />
    <glyph glyph-name="dong" unicode="&#x20ab;" horiz-adv-x="1122" 
d="M394 250q-95 0 -168 49t-114.5 146.5t-41.5 242.5q0 136 48 236t125.5 155t166.5 55q54 0 102 -17t96 -65q14 -9 23 -7.5t9 19.5v382h322v-1180h-318v96q-35 -37 -71 -62t-79.5 -37.5t-99.5 -12.5zM132 0v174h830v-174h-830zM526 442q32 0 57.5 13.5t40 38t14.5 56.5v324
q-25 30 -49.5 46t-62.5 16q-57 0 -93.5 -52.5t-36.5 -193.5q0 -92 15 -146.5t44 -78t71 -23.5zM450 1192v156h632v-156h-632z" />
    <glyph glyph-name="Euro" unicode="&#x20ac;" horiz-adv-x="1398" 
d="M804 -20q-137 0 -253 56.5t-201.5 159.5t-132.5 242t-47 304q0 220 82.5 382.5t226.5 252t329 89.5q164 0 296.5 -66.5t213.5 -179.5l-266 -188q-40 50 -87 92t-121 42q-66 0 -117 -41t-80 -135.5t-29 -253.5q0 -161 34 -256.5t88.5 -137.5t115.5 -42q75 0 145.5 49
t104.5 103l206 -214q-81 -108 -214 -183t-294 -75zM20 458v198h900v-198h-900zM20 790v196h900v-196h-900z" />
    <glyph glyph-name="uni20B9" unicode="&#x20b9;" horiz-adv-x="1392" 
d="M698 0l-208 598h-430v272h456q105 0 149.5 47t44.5 141q0 105 -54 151.5t-150 46.5h-446v190h514q281 0 437.5 -106.5t156.5 -295.5q0 -89 -33 -163t-90.5 -128.5t-132.5 -84.5q-17 -6 -6 -36l272 -632h-480zM60 976v176h1272v-176h-1272zM60 1270v176h1272v-176h-1272z
" />
    <glyph glyph-name="uni20BA" unicode="&#x20ba;" horiz-adv-x="1472" 
d="M300 0v1446h444v-1126h46q93 5 174 82t130 210l338 -70q-39 -103 -100.5 -200t-156.5 -174.5t-232 -122.5t-327 -45h-316zM138 368l-68 186l928 338l66 -186zM98 678l-68 186l930 338l68 -184z" />
    <glyph glyph-name="uni2113" unicode="&#x2113;" horiz-adv-x="1257" 
d="M670 -20q-196 0 -305.5 74.5t-152.5 225.5l-92 -62l-80 204l168 128v390q0 176 60.5 293t169.5 175t254 58q142 0 223.5 -49t116 -130t34.5 -177q0 -110 -37 -199t-101 -165t-147 -146t-175 -142q0 -106 30 -151t130 -45q74 0 146.5 42.5t149.5 125.5l120 -128
q-13 -36 -47 -89.5t-94 -107t-151.5 -89.5t-219.5 -36zM606 754q51 50 90.5 96.5t66.5 92t41 91t14 92.5q0 54 -21 88t-71 34q-34 0 -61 -23t-43 -82.5t-16 -168.5v-220z" />
    <glyph glyph-name="uni2116" unicode="&#x2116;" horiz-adv-x="2416" 
d="M135 0v1446h392l564 -806v806h389v-1446h-351l-605 862v-862h-389zM2015 796q-100 0 -177 42.5t-120 117.5t-43 172q0 101 45 177t122 118.5t173 42.5q102 0 178.5 -43.5t119.5 -120t43 -174.5q0 -97 -43.5 -172t-120.5 -117.5t-177 -42.5zM2015 952q50 0 72.5 43
t22.5 137q0 96 -22.5 139t-72.5 43q-48 0 -71 -43t-23 -139q0 -94 23 -137t71 -43z" />
    <glyph glyph-name="uni2117" unicode="&#x2117;" horiz-adv-x="1686" 
d="M832 -20q-154 0 -288.5 57.5t-236.5 159.5t-159.5 237t-57.5 290q0 153 57.5 287.5t159.5 236.5t236.5 160t288.5 58t288.5 -58t237 -160t160.5 -236.5t58 -287.5q0 -155 -58 -290t-160.5 -237t-237 -159.5t-288.5 -57.5zM832 178q119 0 216 38t166.5 109.5t106.5 172.5
t37 226q0 124 -37 224.5t-106.5 173t-166.5 111.5t-216 39q-121 0 -217.5 -39t-165 -111.5t-105 -173t-36.5 -224.5q0 -125 36.5 -226t105 -172.5t165 -109.5t217.5 -38zM532 340v768h376q85 0 156 -28t113.5 -87t42.5 -151q0 -124 -79 -190t-207 -66h-166v-246h-236z
M768 750h132q38 0 59 25.5t21 70.5q0 50 -25.5 72t-60.5 22h-126v-190z" />
    <glyph glyph-name="uni2120" unicode="&#x2120;" horiz-adv-x="2074" 
d="M974 0v904h362l146 -551l147 551h360v-904h-243v655l-177 -655h-175l-176 655v-655h-244zM454 -13q-93 0 -182 31.5t-150 95.5t-69 161h248q10 -48 51.5 -74.5t116.5 -26.5q44 0 87 17t43 62q0 39 -32.5 54t-77.5 22l-154 28q-121 22 -188.5 88t-67.5 181
q0 92 50.5 156.5t137.5 98.5t195 34q118 0 201 -36t127.5 -100.5t45.5 -148.5h-241q-3 34 -20.5 55.5t-47.5 32t-72 10.5q-67 0 -94 -24t-27 -51q0 -28 22 -48t79 -29l134 -22q142 -23 207.5 -94.5t65.5 -180.5q0 -88 -50.5 -153.5t-138.5 -102t-199 -36.5z" />
    <glyph glyph-name="trademark" unicode="&#x2122;" horiz-adv-x="1980" 
d="M880 0v904h362l146 -551l147 551h360v-904h-243v655l-177 -655h-175l-176 655v-655h-244zM275 0v690h-256v214h759v-214h-259v-690h-244z" />
    <glyph glyph-name="uni2126" unicode="&#x2126;" horiz-adv-x="1538" 
d="M82 0v328h242q-38 32 -75 71.5t-69.5 87t-57 102.5t-38.5 117t-14 130q0 123 47 242t138 215t222 153.5t299 57.5q175 0 305 -61.5t216 -160.5t128.5 -216t42.5 -228q0 -76 -17 -144.5t-50 -130.5t-82.5 -120.5t-114.5 -114.5h252v-328h-640v280q40 29 77.5 74.5t68 108
t48.5 144t18 183.5q0 110 -20 187.5t-55 125.5t-80.5 70.5t-96.5 22.5q-49 0 -96 -21t-85.5 -68.5t-61.5 -127.5t-23 -199q0 -121 30 -219t78.5 -169.5t105.5 -111.5v-280h-642z" />
    <glyph glyph-name="uni2153" unicode="&#x2153;" horiz-adv-x="1929" 
d="M190 536v643h-151v128q113 0 171 39t68 100h158v-910h-246zM456 -8l-215 4l974 1466h213zM1466 -14q-184 0 -277.5 82t-93.5 230h231q14 -71 53 -95.5t87 -24.5q70 0 107.5 27t37.5 68q0 37 -33.5 62.5t-92.5 28.5l-92 5v189l80 6q39 3 66 14.5t40.5 31t13.5 47.5
q0 43 -40 61.5t-89 18.5q-38 0 -67.5 -10t-48 -36.5t-23.5 -74.5h-230q0 106 49.5 173.5t134.5 99.5t192 32q108 0 194 -25.5t136.5 -80.5t50.5 -146q0 -67 -36 -116t-124 -78q64 -17 121 -66.5t57 -145.5q0 -95 -56 -156.5t-148 -91t-200 -29.5z" />
    <glyph glyph-name="uni2154" unicode="&#x2154;" horiz-adv-x="2266" 
d="M53 538v108v55q0 80 34 135.5t88 94t114 66.5t114 52.5t88 52.5t34 66q0 41 -28.5 68t-78.5 27t-92 -30.5t-56 -105.5h-231q0 95 42 170t127 119t215 44q168 0 263 -80t95 -209q0 -79 -33 -132.5t-84.5 -88.5t-110 -59.5t-110 -45t-84.5 -45t-33 -60.5v0h449v-202h-722z
M793 -8l-215 4l974 1466h213zM1803 -14q-184 0 -277.5 82t-93.5 230h231q14 -71 53 -95.5t87 -24.5q70 0 107.5 27t37.5 68q0 37 -33.5 62.5t-92.5 28.5l-92 5v189l80 6q39 3 66 14.5t40.5 31t13.5 47.5q0 43 -40 61.5t-89 18.5q-38 0 -67.5 -10t-48 -36.5t-23.5 -74.5h-230
q0 106 49.5 173.5t134.5 99.5t192 32q108 0 194 -25.5t136.5 -80.5t50.5 -146q0 -67 -36 -116t-124 -78q64 -17 121 -66.5t57 -145.5q0 -95 -56 -156.5t-148 -91t-200 -29.5z" />
    <glyph glyph-name="oneeighth" unicode="&#x215b;" horiz-adv-x="1923" 
d="M190 536v643h-151v128q113 0 171 39t68 100h158v-910h-246zM456 -8l-215 4l974 1466h213zM1480 -9q-172 0 -278.5 71t-106.5 197q0 52 25 97t63 76t76 40q-50 26 -87.5 73.5t-37.5 114.5q0 128 99 194.5t247 66.5q149 0 247.5 -66.5t98.5 -194.5q0 -67 -37.5 -114.5
t-87.5 -73.5q39 -9 76.5 -40t62 -76t24.5 -97q0 -126 -105.5 -197t-278.5 -71zM1480 167q60 0 92.5 27.5t32.5 73.5q0 47 -32.5 75t-92.5 28q-61 0 -93.5 -28t-32.5 -75q0 -46 32.5 -73.5t93.5 -27.5zM1480 562q44 0 74.5 28t30.5 74q0 47 -30.5 74.5t-74.5 27.5
q-43 0 -73.5 -27.5t-30.5 -74.5q0 -46 30.5 -74t73.5 -28z" />
    <glyph glyph-name="threeeighths" unicode="&#x215c;" horiz-adv-x="2183" 
d="M430 526q-184 0 -277.5 82t-93.5 230h231q14 -71 53 -95.5t87 -24.5q70 0 107.5 27t37.5 68q0 37 -33.5 62.5t-92.5 28.5l-92 5v189l80 6q39 3 66 14.5t40.5 31t13.5 47.5q0 43 -40 61.5t-89 18.5q-38 0 -67.5 -10.5t-48 -36.5t-23.5 -74h-230q0 106 49.5 173.5
t134.5 99.5t192 32q108 0 194 -25.5t136.5 -80.5t50.5 -146q0 -67 -36 -116t-124 -78q64 -17 121 -66.5t57 -145.5q0 -95 -56 -156.5t-148 -91t-200 -29.5zM716 -8l-215 4l974 1466h213zM1740 -9q-172 0 -278.5 71t-106.5 197q0 52 25 97t63 76t76 40q-50 26 -87.5 73.5
t-37.5 114.5q0 128 99 194.5t247 66.5q149 0 247.5 -66.5t98.5 -194.5q0 -67 -37.5 -114.5t-87.5 -73.5q39 -9 76.5 -40t62 -76t24.5 -97q0 -126 -105.5 -197t-278.5 -71zM1740 167q60 0 92.5 27.5t32.5 73.5q0 47 -32.5 75t-92.5 28q-61 0 -93.5 -28t-32.5 -75
q0 -46 32.5 -73.5t93.5 -27.5zM1740 562q44 0 74.5 28t30.5 74q0 47 -30.5 74.5t-74.5 27.5q-43 0 -73.5 -27.5t-30.5 -74.5q0 -46 30.5 -74t73.5 -28z" />
    <glyph glyph-name="fiveeighths" unicode="&#x215d;" horiz-adv-x="2176" 
d="M461 524q-142 0 -252 55.5t-160 139.5l183 123q41 -52 84 -89.5t116 -37.5q68 0 109 32t41 77q0 43 -37.5 77.5t-108.5 34.5q-30 0 -56.5 -7.5t-67.5 -25.5q-13 -5 -17.5 -5t-18.5 7l-166 89l42 452h622l-10 -197h-424l-14 -151q55 15 93.5 23.5t85.5 8.5
q99 0 173.5 -35.5t116.5 -101.5t42 -160q0 -146 -101.5 -227.5t-274.5 -81.5zM709 -8l-215 4l974 1466h213zM1733 -9q-172 0 -278.5 71t-106.5 197q0 52 25 97t63 76t76 40q-50 26 -87.5 73.5t-37.5 114.5q0 128 99 194.5t247 66.5q149 0 247.5 -66.5t98.5 -194.5
q0 -67 -37.5 -114.5t-87.5 -73.5q39 -9 76.5 -40t62 -76t24.5 -97q0 -126 -105.5 -197t-278.5 -71zM1733 167q60 0 92.5 27.5t32.5 73.5q0 47 -32.5 75t-92.5 28q-61 0 -93.5 -28t-32.5 -75q0 -46 32.5 -73.5t93.5 -27.5zM1733 562q44 0 74.5 28t30.5 74q0 47 -30.5 74.5
t-74.5 27.5q-43 0 -73.5 -27.5t-30.5 -74.5q0 -46 30.5 -74t73.5 -28z" />
    <glyph glyph-name="seveneighths" unicode="&#x215e;" horiz-adv-x="2015" 
d="M206 538q0 66 27.5 181t93 255t179.5 277h-467v197h717v-197q-48 -52 -99 -138t-94.5 -187t-69.5 -202.5t-24 -185.5h-263zM548 -8l-215 4l974 1466h213zM1572 -9q-172 0 -278.5 71t-106.5 197q0 52 25 97t63 76t76 40q-50 26 -87.5 73.5t-37.5 114.5q0 128 99 194.5
t247 66.5q149 0 247.5 -66.5t98.5 -194.5q0 -67 -37.5 -114.5t-87.5 -73.5q39 -9 76.5 -40t62 -76t24.5 -97q0 -126 -105.5 -197t-278.5 -71zM1572 167q60 0 92.5 27.5t32.5 73.5q0 47 -32.5 75t-92.5 28q-61 0 -93.5 -28t-32.5 -75q0 -46 32.5 -73.5t93.5 -27.5zM1572 562
q44 0 74.5 28t30.5 74q0 47 -30.5 74.5t-74.5 27.5q-43 0 -73.5 -27.5t-30.5 -74.5q0 -46 30.5 -74t73.5 -28z" />
    <glyph glyph-name="partialdiff" unicode="&#x2202;" horiz-adv-x="1238" 
d="M582 -20q-165 0 -279.5 64t-173.5 173.5t-59 246.5q0 135 55.5 246t159 176.5t247.5 65.5q66 0 111.5 -13.5t77.5 -34t59 -42.5q24 -19 30 -9.5t6 25.5q0 38 -18 91t-59 103.5t-108.5 84t-166.5 33.5q-96 0 -158 -28.5t-104 -55.5l-102 224q27 22 85.5 54t144.5 57
t196 25q182 0 325 -81.5t225 -249.5t82 -427q0 -216 -62.5 -380t-190 -256t-323.5 -92zM576 246h2q59 0 101 36t67 99.5t34 146.5q3 29 1 41.5t-13 28.5q-14 26 -37 50.5t-54 40t-69 15.5q-53 0 -92.5 -34t-61.5 -92t-22 -130q0 -69 19 -113.5t51.5 -66.5t73.5 -22z" />
    <glyph glyph-name="emptyset" unicode="&#x2205;" horiz-adv-x="1228" 
d="M178 210l-118 124l964 892l114 -122zM606 246q-132 0 -241 65t-174 174.5t-65 242.5q0 132 65 241t174 174t241 65q133 0 242.5 -65t174.5 -174t65 -241q0 -133 -65 -242.5t-174.5 -174.5t-242.5 -65zM606 410q88 0 160 43t115 115t43 160q0 86 -43 158t-115 115t-160 43
q-87 0 -159 -43t-114.5 -115t-42.5 -158q0 -88 42.5 -160t114.5 -115t159 -43z" />
    <glyph glyph-name="uni2206" unicode="&#x2206;" horiz-adv-x="1664" 
d="M30 0l822 1446l782 -1446h-1604zM592 318h498l-238 454z" />
    <glyph glyph-name="product" unicode="&#x220f;" horiz-adv-x="1472" 
d="M202 0v1132h-162v314h1372v-314h-164v-1132h-398v1132h-250v-1132h-398z" />
    <glyph glyph-name="summation" unicode="&#x2211;" horiz-adv-x="1224" 
d="M60 0v228l404 486l-384 476v256h1028v-306h-500l338 -380l-380 -436h578v-324h-1084z" />
    <glyph glyph-name="minus" unicode="&#x2212;" horiz-adv-x="1238" 
d="M110 590v276h1018v-276h-1018z" />
    <glyph glyph-name="uni2215" unicode="&#x2215;" horiz-adv-x="1247" 
d="M295 -8l-215 4l874 1466h213z" />
    <glyph glyph-name="uni2219" unicode="&#x2219;" horiz-adv-x="774" 
d="M372 550q-75 0 -128.5 53.5t-53.5 128.5t53.5 128.5t128.5 53.5t128.5 -53.5t53.5 -128.5t-53.5 -128.5t-128.5 -53.5z" />
    <glyph glyph-name="radical" unicode="&#x221a;" horiz-adv-x="1466" 
d="M548 -322l-278 764l-164 -60l-76 208l446 158l260 -724l400 1628h320l-520 -1974h-388z" />
    <glyph glyph-name="infinity" unicode="&#x221e;" horiz-adv-x="1694" 
d="M452 154q-97 0 -179.5 47t-132.5 133t-50 202q0 115 50.5 201.5t138 134.5t199.5 48q84 0 143 -26t107 -70t98 -98q17 -19 26.5 -18.5t25.5 18.5q38 43 85.5 88t111.5 75.5t151 30.5q102 0 183 -45.5t128 -128.5t47 -196v-4q0 -124 -52 -211.5t-137.5 -134t-186.5 -46.5
q-83 0 -143 28.5t-109 76.5t-98 105q-12 14 -19 15.5t-21 -15.5q-15 -15 -44.5 -49t-74.5 -71t-106.5 -63.5t-140.5 -26.5zM476 380h5q37 0 72.5 19t64.5 47t48 54q15 21 14 32t-16 36q-42 62 -87.5 97t-102.5 35q-66 0 -107 -44.5t-41 -113.5q0 -72 43.5 -117t106.5 -45z
M1212 380q44 0 74.5 24t46 61t15.5 75q0 63 -38 111.5t-104 48.5h-1q-59 0 -106 -41t-85 -85q-16 -19 -13 -35.5t13 -30.5q41 -56 79 -83.5t68.5 -36t50.5 -8.5z" />
    <glyph glyph-name="integral" unicode="&#x222b;" horiz-adv-x="990" 
d="M250 -344q-51 0 -93 7t-74 18t-53 23l76 312q20 -10 51 -21t73 -11q50 0 73 41t23 161q0 111 -5 239t-12 255t-12 237t-5 185q0 190 43 316.5t136.5 190t244.5 63.5q53 0 96.5 -7.5t76 -19t51.5 -23.5l-72 -312q-22 11 -54 22.5t-76 11.5q-51 0 -73.5 -41.5t-22.5 -154.5
q0 -117 5 -244t11 -250t11 -229.5t5 -182.5q0 -197 -44 -327t-137.5 -194.5t-242.5 -64.5z" />
    <glyph glyph-name="approxequal" unicode="&#x2248;" horiz-adv-x="1284" 
d="M220 670l-110 184q89 95 171 156.5t187 61.5q65 0 114 -21t90 -48t80.5 -48t85.5 -21q69 0 127 49t97 119l112 -180q-63 -115 -152.5 -169.5t-175.5 -54.5q-61 0 -110.5 21t-93.5 49t-87 49t-93 21q-76 0 -132 -52.5t-110 -115.5zM222 228l-112 184q89 95 171 156.5
t187 61.5q65 0 114 -21t90 -48t80.5 -48t85.5 -21q69 0 127 49t97 119l112 -180q-63 -115 -152.5 -169.5t-175.5 -54.5q-61 0 -110.5 21t-93.5 49t-87 49t-93 21q-76 0 -132.5 -53t-107.5 -115z" />
    <glyph glyph-name="notequal" unicode="&#x2260;" horiz-adv-x="1238" 
d="M192 22l574 1310h174l-566 -1310h-182zM110 778v276h1018v-276h-1018zM110 308v276h1018v-276h-1018z" />
    <glyph glyph-name="lessequal" unicode="&#x2264;" horiz-adv-x="1238" 
d="M1104 354l-992 384v310l992 382v-322l-580 -218l580 -212v-324zM110 16v274h1018v-274h-1018z" />
    <glyph glyph-name="greaterequal" unicode="&#x2265;" horiz-adv-x="1238" 
d="M132 354v324l582 212l-582 218v322l994 -382v-310zM110 16v274h1018v-274h-1018z" />
    <glyph glyph-name="lozenge" unicode="&#x25ca;" horiz-adv-x="1234" 
d="M518 0l-378 724l386 722h240l378 -718l-388 -728h-238zM644 264l222 460l-222 450l-220 -446z" />
    <glyph glyph-name="i.loclTRK" horiz-adv-x="571" 
d="M100 0v1034h371v-1034h-371zM110 1155v291h362v-291h-362z" />
    <glyph glyph-name="g.ss01" horiz-adv-x="1232" 
d="M572 -336q-126 0 -217 38.5t-150 96t-87 115t-28 94.5h354q0 -15 33 -40.5t91 -25.5q70 0 117 29t71 75.5t24 99.5v34q-43 -72 -122 -95t-178 -23q-74 0 -147 36t-133.5 102t-97 156.5t-36.5 199.5q0 84 25.5 171t77.5 161t129.5 119t181.5 45q59 0 113.5 -20t97.5 -52
t65 -68v120h386l-2 -794q0 -173 -73 -302t-201 -200.5t-294 -71.5zM608 332q50 0 82.5 30t49 80.5t16.5 113.5v0q0 58 -18.5 111t-52 87t-77.5 34q-51 0 -84.5 -34t-50 -87t-16.5 -111t19 -109t53 -83t79 -32z" />
    <glyph glyph-name="l.ss01" horiz-adv-x="670" 
d="M140 0v1486h390v-1486h-390z" />
    <glyph glyph-name="zero.osf" horiz-adv-x="1349" 
d="M677 -22q-285 0 -441 195.5t-156 546.5q0 235 71.5 402t205 255.5t320.5 88.5q279 0 435.5 -196.5t156.5 -549.5q0 -351 -154 -546.5t-438 -195.5zM675 288q107 0 149 96.5t42 333.5q0 245 -43 347.5t-148 102.5q-106 0 -149.5 -103.5t-43.5 -346.5q0 -235 43 -332.5
t150 -97.5z" />
    <glyph glyph-name="one.osf" horiz-adv-x="895" 
d="M319 0v1022h-239v204q119 0 199.5 28t125.5 77.5t55 114.5h250v-1446h-391z" />
    <glyph glyph-name="two.osf" horiz-adv-x="1340" 
d="M102 0v172v88q0 109 40.5 188.5t107.5 138t147 101.5t160 78.5t147 69.5t107.5 73.5t40.5 92.5q0 65 -45 107.5t-125 42.5q-79 0 -146 -48t-90 -168h-366q0 150 66.5 270t201.5 190t342 70q178 0 305.5 -58t196 -161.5t68.5 -240.5q0 -108 -39 -185.5t-104 -131.5
t-142 -92.5t-154 -68.5t-142 -59t-104 -64t-39 -85v0h714v-320h-1148z" />
    <glyph glyph-name="three.osf" horiz-adv-x="1393" 
d="M670 -22q-196 0 -327 59t-197 170.5t-66 268.5h368q22 -114 84 -153t138 -39q74 0 125.5 19.5t78 54t26.5 78.5q0 39 -24 70.5t-69 51t-107 22.5l-145 8v300l126 10q62 5 104.5 23t64.5 49t22 76t-29.5 73.5t-76.5 41.5t-100 13q-61 0 -107.5 -16.5t-75.5 -58.5t-37 -119
h-366q0 169 78.5 276.5t214 158.5t304.5 51q172 0 309.5 -40.5t217.5 -129t80 -232.5q0 -106 -57 -183.5t-197 -124.5q67 -18 132 -58.5t108 -108.5t43 -169q0 -113 -52 -196.5t-142 -138t-205.5 -81t-243.5 -26.5z" />
    <glyph glyph-name="four.osf" horiz-adv-x="1363" 
d="M731 0l1 276h-652v304l646 866h376v-852h208v-318h-208v-276h-371zM434 594h302v402z" />
    <glyph glyph-name="five.osf" horiz-adv-x="1412" 
d="M734 -22q-150 0 -279 41t-225 111.5t-150 159.5l290 196q43 -55 86.5 -101t99 -73.5t133.5 -27.5q107 0 172.5 51t65.5 123q0 45 -27 86t-78.5 66.5t-127.5 25.5q-31 0 -59 -5t-60.5 -16.5t-76.5 -30.5q-20 -9 -28 -8.5t-30 10.5l-263 142l67 718h988l-16 -312h-674
l-21 -240q87 24 147.5 37t136.5 13q157 0 275.5 -56t185 -161.5t66.5 -254.5q0 -155 -72.5 -265.5t-206.5 -169.5t-319 -59z" />
    <glyph glyph-name="six.osf" horiz-adv-x="1389" 
d="M717 -22q-200 0 -343 90.5t-218.5 251t-75.5 370.5q0 243 79.5 417t224.5 266.5t341 92.5q150 0 277 -54t204.5 -155.5t77.5 -244.5h-351q-25 81 -73.5 117.5t-125.5 36.5q-82 0 -136.5 -47.5t-76 -123t-6.5 -159.5q39 24 86.5 38.5t99.5 21t104 6.5q151 0 264 -54.5
t176.5 -151.5t63.5 -224q0 -139 -76.5 -251t-210.5 -177.5t-305 -65.5zM700 266q52 0 97.5 24.5t74 67t28.5 96.5q0 62 -30 99t-75.5 53t-92.5 16q-45 0 -89 -19t-73 -44t-29 -43q0 -84 24 -139.5t67 -83t98 -27.5z" />
    <glyph glyph-name="seven.osf" horiz-adv-x="1299" 
d="M345 0q0 78 24 202.5t79 278.5t146.5 321.5t227.5 331.5h-742v312h1139v-312q-61 -67 -125.5 -169t-124.5 -224.5t-107.5 -252.5t-74.5 -255.5t-24 -232.5h-418z" />
    <glyph glyph-name="eight.osf" horiz-adv-x="1384" 
d="M692 -21q-183 0 -320.5 52.5t-214.5 149t-77 229.5q0 82 39.5 154t99.5 121t121 63q-79 42 -138.5 118t-59.5 182q0 136 72 229t196.5 141t281.5 48t281.5 -48t196.5 -141t72 -229q0 -106 -59 -182t-139 -118q61 -14 121 -63t99.5 -121t39.5 -154q0 -133 -76.5 -229.5
t-214.5 -149t-321 -52.5zM692 264q96 0 148 44t52 116q0 49 -23.5 86t-68 57.5t-108.5 20.5q-63 0 -108 -20.5t-68.5 -57.5t-23.5 -86q0 -72 52.5 -116t147.5 -44zM692 892q69 0 117.5 43.5t48.5 118.5t-48.5 118.5t-117.5 43.5t-117.5 -43.5t-48.5 -118.5t48.5 -118.5
t117.5 -43.5z" />
    <glyph glyph-name="nine.osf" horiz-adv-x="1380" 
d="M653 -22q-149 0 -277.5 58t-207.5 161.5t-80 240.5h366q12 -70 59 -115t123 -45q82 0 148.5 33t101.5 110t22 209q-32 -33 -76.5 -55.5t-101.5 -34.5t-128 -12q-151 0 -269 56t-185.5 157t-67.5 237q0 140 74.5 250.5t206 174t303.5 63.5q200 0 342.5 -88.5t218 -247.5
t75.5 -370q0 -273 -80 -446t-225 -254.5t-342 -81.5zM678 828q45 0 89 19t73.5 44t29.5 43q0 85 -24 140t-67 81.5t-99 26.5q-51 0 -92.5 -23.5t-66.5 -65.5t-25 -97q0 -84 56.5 -126t125.5 -42z" />
    <glyph glyph-name="zero.tf" horiz-adv-x="1400" 
d="M702 -22q-285 0 -441 195.5t-156 546.5q0 235 71.5 402t205 255.5t320.5 88.5q279 0 435.5 -196.5t156.5 -549.5q0 -351 -154 -546.5t-438 -195.5zM700 288q107 0 149 96.5t42 333.5q0 245 -43 347.5t-148 102.5q-106 0 -149.5 -103.5t-43.5 -346.5q0 -235 43 -332.5
t150 -97.5z" />
    <glyph glyph-name="one.tf" horiz-adv-x="1400" 
d="M544 0v1032l-354 -78v328l592 164h136v-1446h-374zM170 0v320h1060v-320h-1060z" />
    <glyph glyph-name="two.tf" horiz-adv-x="1400" 
d="M145 0v172v88q0 109 40.5 188.5t107.5 138t147 101.5t160 78.5t147 69.5t107.5 73.5t40.5 92.5q0 65 -45 107.5t-125 42.5q-79 0 -146 -48t-90 -168h-366q0 150 66.5 270t201.5 190t342 70q178 0 305.5 -58t196 -161.5t68.5 -240.5q0 -108 -39 -185.5t-104 -131.5
t-142 -92.5t-154 -68.5t-142 -59t-104 -64t-39 -85v0h714v-320h-1148z" />
    <glyph glyph-name="three.tf" horiz-adv-x="1400" 
d="M684 -22q-196 0 -327 59t-197 170.5t-66 268.5h368q22 -114 84 -153t138 -39q74 0 125.5 19.5t78 54t26.5 78.5q0 39 -24 70.5t-69 51t-107 22.5l-145 8v300l126 10q62 5 104.5 23t64.5 49t22 76t-29.5 73.5t-76.5 41.5t-100 13q-61 0 -107.5 -16.5t-75.5 -58.5t-37 -119
h-366q0 169 78.5 276.5t214 158.5t304.5 51q172 0 309.5 -40.5t217.5 -129t80 -232.5q0 -106 -57 -183.5t-197 -124.5q67 -18 132 -58.5t108 -108.5t43 -169q0 -113 -52 -196.5t-142 -138t-205.5 -81t-243.5 -26.5z" />
    <glyph glyph-name="four.tf" horiz-adv-x="1400" 
d="M734 0l1 276h-652v304l646 866h376v-852h208v-318h-208v-276h-371zM437 594h302v402z" />
    <glyph glyph-name="five.tf" horiz-adv-x="1400" 
d="M776 -22q-150 0 -279 41t-225 111.5t-150 159.5l290 196q43 -55 86.5 -101t99 -73.5t133.5 -27.5q107 0 172.5 51t65.5 123q0 45 -27 86t-78.5 66.5t-127.5 25.5q-31 0 -59 -5t-60.5 -16.5t-76.5 -30.5q-20 -9 -28 -8.5t-30 10.5l-263 142l67 718h988l-16 -312h-674
l-21 -240q87 24 147.5 37t136.5 13q157 0 275.5 -56t185 -161.5t66.5 -254.5q0 -155 -72.5 -265.5t-206.5 -169.5t-319 -59z" />
    <glyph glyph-name="six.tf" horiz-adv-x="1400" 
d="M723 -22q-200 0 -343 90.5t-218.5 251t-75.5 370.5q0 243 79.5 417t224.5 266.5t341 92.5q150 0 277 -54t204.5 -155.5t77.5 -244.5h-351q-25 81 -73.5 117.5t-125.5 36.5q-82 0 -136.5 -47.5t-76 -123t-6.5 -159.5q39 24 86.5 38.5t99.5 21t104 6.5q151 0 264 -54.5
t176.5 -151.5t63.5 -224q0 -139 -76.5 -251t-210.5 -177.5t-305 -65.5zM706 266q52 0 97.5 24.5t74 67t28.5 96.5q0 62 -30 99t-75.5 53t-92.5 16q-45 0 -89 -19t-73 -44t-29 -43q0 -84 24 -139.5t67 -83t98 -27.5z" />
    <glyph glyph-name="seven.tf" horiz-adv-x="1400" 
d="M365 0q0 78 33 202.5t100 278.5t168 321.5t237 331.5h-802v312h1198v-312q-61 -67 -131.5 -169t-139.5 -224.5t-125.5 -252.5t-89 -255.5t-30.5 -232.5h-418z" />
    <glyph glyph-name="eight.tf" horiz-adv-x="1400" 
d="M700 -21q-183 0 -320.5 52.5t-214.5 149t-77 229.5q0 82 39.5 154t99.5 121t121 63q-79 42 -138.5 118t-59.5 182q0 136 72 229t196.5 141t281.5 48t281.5 -48t196.5 -141t72 -229q0 -106 -59 -182t-139 -118q61 -14 121 -63t99.5 -121t39.5 -154q0 -133 -76.5 -229.5
t-214.5 -149t-321 -52.5zM700 264q96 0 148 44t52 116q0 49 -23.5 86t-68 57.5t-108.5 20.5q-63 0 -108 -20.5t-68.5 -57.5t-23.5 -86q0 -72 52.5 -116t147.5 -44zM700 892q69 0 117.5 43.5t48.5 118.5t-48.5 118.5t-117.5 43.5t-117.5 -43.5t-48.5 -118.5t48.5 -118.5
t117.5 -43.5z" />
    <glyph glyph-name="nine.tf" horiz-adv-x="1400" 
d="M670 -22q-149 0 -277.5 58t-207.5 161.5t-80 240.5h366q12 -70 59 -115t123 -45q82 0 148.5 33t101.5 110t22 209q-32 -33 -76.5 -55.5t-101.5 -34.5t-128 -12q-151 0 -269 56t-185.5 157t-67.5 237q0 140 74.5 250.5t206 174t303.5 63.5q200 0 342.5 -88.5t218 -247.5
t75.5 -370q0 -273 -80 -446t-225 -254.5t-342 -81.5zM695 828q45 0 89 19t73.5 44t29.5 43q0 85 -24 140t-67 81.5t-99 26.5q-51 0 -92.5 -23.5t-66.5 -65.5t-25 -97q0 -84 56.5 -126t125.5 -42z" />
    <glyph glyph-name="zero.subs" horiz-adv-x="846" 
d="M425 -342q-179 0 -277.5 121t-98.5 342q0 222 99.5 346t276.5 124q175 0 273.5 -124t98.5 -346q0 -221 -97 -342t-275 -121zM423 -150q68 0 94.5 60.5t26.5 208.5q0 154 -27.5 219t-93.5 65t-93.5 -65.5t-27.5 -218.5q0 -148 27 -208.5t94 -60.5z" />
    <glyph glyph-name="one.subs" horiz-adv-x="543" 
d="M190 -331v643h-151v128q113 0 171 39t68 100h158v-910h-246z" />
    </font>
</defs>
</svg>
