<?xml version="1.0" standalone="no"?>
<!DOCTYPE svg PUBLIC "-//W3C//DTD SVG 1.1//EN" "http://www.w3.org/Graphics/SVG/1.1/DTD/svg11.dtd" >
<svg xmlns="http://www.w3.org/2000/svg" xmlns:xlink="http://www.w3.org/1999/xlink" version="1.1">
<metadata>
Created by FontForge 20190801 at Fri Apr 29 23:32:12 2022
 By www-data
Copyright 2015 The Public Sans Project Authors (https://github.com/uswds/public-sans)
</metadata>
<defs>
<font id="PublicSansBlackItalic" horiz-adv-x="0" >
  <font-face 
    font-family="PublicSansBlackItalic"
    font-weight="900"
    font-style="italic"
    font-stretch="normal"
    units-per-em="2000"
    panose-1="0 0 0 0 0 0 0 0 0 0"
    ascent="1600"
    descent="-400"
    x-height="1034"
    cap-height="1446"
    bbox="-425 -495 2471 2251"
    underline-thickness="140"
    underline-position="-440"
    slope="-8"
    unicode-range="U+000D-FB02"
  />
<missing-glyph horiz-adv-x="1527" 
d="M327 1652h918q36 0 36 -42v-1876q0 -56 -66 -56h-872q-31 0 -42.5 12t-11.5 36v1880q0 46 38 46zM1179 -114v1634q0 34 -31 34h-685zM391 1433v-1617q0 -19 9.5 -29.5t34.5 -10.5h671z" />
    <glyph glyph-name="fi" unicode="fi" horiz-adv-x="1366" 
d="M114 0l117 770h-165l40 264h165l21 138q20 128 113.5 201t235.5 73h275l-37 -252h-118q-49 0 -71 -21.5t-32 -78.5l-8 -60h195l-40 -264h-187l-118 -770h-386zM822 0l146 1034h370l-146 -1034h-370zM980 1118l46 328h370l-46 -328h-370z" />
    <glyph glyph-name="fl" unicode="fl" horiz-adv-x="1496" 
d="M114 0l117 770h-165l40 264h165l21 138q20 128 113.5 201t235.5 73h275l-37 -252h-118q-49 0 -71 -21.5t-32 -78.5l-8 -60h195l-40 -264h-187l-118 -770h-386zM1208 -22q-142 0 -217.5 30.5t-104 79.5t-28.5 108t8 116l178 1174h380l-170 -1122q-6 -37 8 -70t91 -44
l40 -4l-36 -236q-36 -13 -74.5 -22.5t-74.5 -9.5z" />
    <glyph glyph-name=".notdef" horiz-adv-x="1527" 
d="M327 1652h918q36 0 36 -42v-1876q0 -56 -66 -56h-872q-31 0 -42.5 12t-11.5 36v1880q0 46 38 46zM1179 -114v1634q0 34 -31 34h-685zM391 1433v-1617q0 -19 9.5 -29.5t34.5 -10.5h671z" />
    <glyph glyph-name="uni0000" horiz-adv-x="52" 
 />
    <glyph glyph-name="uni0000" horiz-adv-x="52" 
 />
    <glyph glyph-name="nonmarkingreturn" horiz-adv-x="666" 
 />
    <glyph glyph-name="CR" unicode="&#xd;" horiz-adv-x="484" 
 />
    <glyph glyph-name="space" unicode=" " horiz-adv-x="420" 
 />
    <glyph glyph-name="exclam" unicode="!" horiz-adv-x="618" 
d="M169 518l32 928h448l-242 -928h-238zM1 0l60 384h406l-58 -384h-408z" />
    <glyph glyph-name="quotedbl" unicode="&#x22;" horiz-adv-x="1056" 
d="M727 802l6 644h364l-188 -644h-182zM215 802l6 644h364l-188 -644h-182z" />
    <glyph glyph-name="numbersign" unicode="#" horiz-adv-x="1224" 
d="M842 -6l-190 24l210 1432l188 -18zM54 432v188h1092v-188h-1092zM404 -6l-188 24l210 1432l186 -18zM118 842v188h1092v-188h-1092z" />
    <glyph glyph-name="dollar" unicode="$" horiz-adv-x="1394" 
d="M649 -20q-286 0 -442 109.5t-138 350.5h402q5 -76 62.5 -119t159.5 -43q60 0 102 18.5t65.5 48.5t28.5 65q11 66 -31 89.5t-131 38.5l-218 38q-165 27 -251 134.5t-61 291.5q20 146 117 249.5t243 158t312 54.5q175 0 295.5 -60t174 -163.5t26.5 -232.5h-392
q3 44 -5 79.5t-39 56t-98 20.5q-76 0 -121.5 -17.5t-67 -44t-25.5 -52.5q-7 -49 20 -77.5t118 -48.5l218 -46q201 -43 277 -164t49 -304q-20 -133 -106 -229.5t-225 -148.5t-319 -52zM459 -174l40 260h324l-40 -260h-324zM695 1384l40 260h324l-40 -260h-324z" />
    <glyph glyph-name="percent" unicode="%" horiz-adv-x="1802" 
d="M417 -8l-210 4l1193 1466h208zM457 652q-92 0 -161 47.5t-107 125.5t-38 171q0 52 25 131t76.5 157t131 131t187.5 53q89 0 156.5 -48.5t105.5 -129t38 -175.5q0 -74 -29.5 -155t-84.5 -151t-131 -113.5t-169 -43.5zM481 842q45 0 71.5 37t40.5 91t18.5 107t4.5 84
q0 59 -17 89t-56 30q-43 0 -70 -38t-41.5 -93.5t-20 -109.5t-5.5 -85q0 -55 17.5 -83.5t57.5 -28.5zM1271 -20q-91 0 -159.5 47t-106.5 125t-38 171q0 75 30.5 157.5t86.5 154.5t132.5 117.5t168.5 45.5q90 0 158 -49t106 -129t38 -174q0 -75 -29.5 -156t-84.5 -151.5
t-131.5 -114.5t-170.5 -44zM1295 172q45 0 71.5 36.5t40.5 90.5t18.5 106.5t4.5 83.5q0 59 -17 89t-56 30q-42 0 -68.5 -38.5t-41 -94t-19.5 -109t-5 -83.5q0 -55 16.5 -83t55.5 -28z" />
    <glyph glyph-name="ampersand" unicode="&#x26;" horiz-adv-x="1689" 
d="M512 -10q-174 0 -275 48t-138.5 132t-20.5 192q15 103 69.5 179.5t149.5 141t231 131.5q-39 54 -70.5 97.5t-46.5 90t-5 110.5q16 102 88 182.5t185.5 127t254.5 46.5q137 0 239.5 -41t154.5 -113t38 -166q-12 -76 -63 -142t-127.5 -125t-165.5 -113l116 -170
q14 33 34 78t41 93t37 91h402q-46 -76 -113 -158.5t-135.5 -165t-119.5 -158.5l264 -378h-440l-88 124q-135 -79 -264.5 -106.5t-231.5 -27.5zM656 280q35 0 95.5 15.5t106.5 52.5l-178 250q-61 -33 -114.5 -86t-47.5 -122q6 -58 52 -84t86 -26zM882 954q49 31 80.5 59.5
t47.5 56.5t20 58q6 39 -7 65.5t-40.5 39.5t-64.5 11q-51 -3 -86.5 -31.5t-41.5 -72.5q-3 -18 1 -38.5t17 -45t36 -54.5z" />
    <glyph glyph-name="quotesingle" unicode="'" horiz-adv-x="544" 
d="M215 802l6 644h364l-188 -644h-182z" />
    <glyph glyph-name="parenleft" unicode="(" horiz-adv-x="729" 
d="M258 -322q-63 141 -106.5 277t-57.5 282.5t12 318.5q39 251 150 477t268 413h276q-133 -196 -228.5 -424t-131.5 -468q-34 -229 -8.5 -438.5t100.5 -437.5h-274z" />
    <glyph glyph-name="parenright" unicode=")" horiz-adv-x="729" 
d="M-108 -322q134 197 229 424.5t131 467.5q35 230 9 439t-101 437h274q63 -141 106.5 -277t57.5 -282.5t-12 -318.5q-39 -250 -149.5 -476t-268.5 -414h-276z" />
    <glyph glyph-name="asterisk" unicode="*" horiz-adv-x="1090" 
d="M430 544l-198 140l222 258l-322 88l80 218l302 -138l-26 336h240l-34 -338l308 138l70 -220l-312 -84l218 -256l-200 -138l-174 292z" />
    <glyph glyph-name="plus" unicode="+" horiz-adv-x="1235" 
d="M434 220l154 1018h274l-154 -1018h-274zM120 590l42 276h1012l-42 -276h-1012z" />
    <glyph glyph-name="comma" unicode="," horiz-adv-x="623" 
d="M-16 -306l164 294l-114 14l52 338h352l-46 -300l-280 -346h-128z" />
    <glyph glyph-name="hyphen" unicode="-" horiz-adv-x="811" 
d="M97 376l40 274h576l-40 -274h-576z" />
    <glyph glyph-name="period" unicode="." horiz-adv-x="621" 
d="M17 0l60 392h406l-60 -392h-406z" />
    <glyph glyph-name="slash" unicode="/" horiz-adv-x="830" 
d="M-53 0l726 1446h258l-726 -1446h-258z" />
    <glyph glyph-name="zero" unicode="0" horiz-adv-x="1349" 
d="M601 -22q-285 0 -413 195.5t-79 546.5q33 235 128 402t241 255.5t333 88.5q279 0 408 -196.5t79 -549.5q-49 -351 -231 -546.5t-466 -195.5zM643 288q107 0 162.5 96.5t88.5 333.5q35 245 6.5 347.5t-133.5 102.5q-106 0 -164 -103.5t-93 -346.5q-33 -235 -3.5 -332.5
t136.5 -97.5z" />
    <glyph glyph-name="one" unicode="1" horiz-adv-x="896" 
d="M233 0l157 1022h-239l31 204q119 0 204 28t136.5 77.5t71.5 114.5h248l-220 -1446h-389z" />
    <glyph glyph-name="two" unicode="2" horiz-adv-x="1339" 
d="M29 0l24 172l13 88q18 127 84.5 215t160 149t196 105.5t193 83.5t151 83.5t69.5 105.5q9 65 -30 107.5t-119 42.5q-53 0 -104 -20.5t-93.5 -68t-68.5 -127.5h-366q21 150 104 270t228 190t352 70q178 0 297.5 -58t173.5 -161.5t34 -240.5q-18 -126 -82 -211t-154 -140.5
t-188 -94t-185 -71.5t-145 -72t-66 -97v0h714l-45 -320h-1148z" />
    <glyph glyph-name="three" unicode="3" horiz-adv-x="1394" 
d="M594 -22q-196 0 -319 59t-173 170.5t-28 268.5h368q6 -114 62.5 -153t132.5 -39q74 0 128 19.5t86 54t38 78.5q6 39 -14 70.5t-62 51t-104 22.5l-144 8l42 300l128 10q63 5 108 23t71.5 49t32.5 76t-19.5 73.5t-70.5 41.5t-98 13q-61 0 -110 -16.5t-84 -58.5t-54 -119
h-366q24 169 118 276.5t236.5 158.5t311.5 51q172 0 303.5 -40.5t199.5 -129t47 -232.5q-15 -106 -83 -183.5t-214 -124.5q65 -18 124 -58.5t92.5 -108.5t19.5 -169q-16 -113 -80 -196.5t-161.5 -138t-217 -81t-247.5 -26.5z" />
    <glyph glyph-name="four" unicode="4" horiz-adv-x="1358" 
d="M650 0l44 276h-648l46 304l772 866h374l-128 -852h206l-48 -318h-208l-42 -276h-368zM446 594h300l60 402z" />
    <glyph glyph-name="five" unicode="5" horiz-adv-x="1411" 
d="M658 -22q-151 0 -273.5 41t-209 111.5t-127.5 159.5l317 196q36 -55 73 -101t88.5 -73.5t129.5 -27.5q107 0 179.5 51t82.5 123q7 45 -14.5 86t-69.5 66.5t-124 25.5q-31 0 -60 -5t-62.5 -16.5t-80.5 -30.5q-22 -9 -30 -8.5t-28 10.5l-243 142l168 718h988l-60 -312h-674
l-54 -240q90 24 152.5 37t138.5 13q157 0 267.5 -56t162 -161.5t30.5 -254.5q-21 -155 -109.5 -265.5t-230.5 -169.5t-327 -59z" />
    <glyph glyph-name="six" unicode="6" horiz-adv-x="1388" 
d="M640 -22q-200 0 -330 90.5t-183 251t-23 370.5q34 243 138 417t262 266.5t354 92.5q150 0 269.5 -54t182.5 -155.5t43 -244.5h-351q-13 81 -57 117.5t-121 36.5q-82 0 -143 -47.5t-93 -123t-29 -159.5q43 24 92 38.5t102 21t105 6.5q151 0 256.5 -54.5t155.5 -151.5
t32 -224q-19 -139 -112 -251t-236 -177.5t-314 -65.5zM664 266q52 0 101 24.5t83.5 67t41.5 96.5q9 62 -16 99t-68 53t-90 16q-45 0 -91.5 -19t-79 -44t-35.5 -43q-12 -84 4.5 -139.5t55.5 -83t94 -27.5z" />
    <glyph glyph-name="seven" unicode="7" horiz-adv-x="1295" 
d="M257 0q12 78 55 202.5t120.5 278.5t194.5 321.5t276 331.5h-736l46 312h1133l-49 -312q-70 -67 -149.5 -169t-157.5 -224.5t-144.5 -252.5t-112.5 -255.5t-60 -232.5h-416z" />
    <glyph glyph-name="eight" unicode="8" horiz-adv-x="1384" 
d="M617 -21q-183 0 -313.5 52.5t-193.5 149t-45 229.5q12 82 61.5 154t116.5 121t130 63q-74 42 -122.5 118t-33.5 182q19 136 104 229t216 141t288 48t275 -48t177 -141t40 -229q-15 -106 -85 -182t-155 -118q59 -14 112 -63t82.5 -121t17.5 -154q-18 -133 -108.5 -229.5
t-235.5 -149t-328 -52.5zM657 264q96 0 154 44t68 116q7 49 -11 86t-60 57.5t-106 20.5q-63 0 -111 -20.5t-76.5 -57.5t-35.5 -86q-10 -72 36.5 -116t141.5 -44zM745 892q69 0 124 43.5t65 118.5q11 75 -32 118.5t-112 43.5t-123 -43.5t-65 -118.5q-10 -75 32 -118.5
t111 -43.5z" />
    <glyph glyph-name="nine" unicode="9" horiz-adv-x="1380" 
d="M577 -22q-149 0 -269.5 58t-184.5 161.5t-46 240.5h366q2 -70 43 -115t117 -45q82 0 153 33t117 110t51 209q-36 -33 -83.5 -55.5t-106.5 -34.5t-130 -12q-151 0 -261 56t-163.5 157t-34.5 237q20 140 110 250.5t231 174t312 63.5q200 0 330 -88.5t183 -247.5t23 -370
q-38 -273 -142 -446t-261 -254.5t-354 -81.5zM722 828q45 0 92 19t80 44t35 43q12 85 -4.5 140t-55.5 81.5t-95 26.5q-51 0 -96 -23.5t-75.5 -65.5t-38.5 -97q-12 -84 38.5 -126t119.5 -42z" />
    <glyph glyph-name="colon" unicode=":" horiz-adv-x="629" 
d="M114 640l58 384h408l-58 -384h-408zM18 6l58 384h408l-58 -384h-408z" />
    <glyph glyph-name="semicolon" unicode=";" horiz-adv-x="637" 
d="M-29 -330l194 330h-138l58 386h408l-52 -342l-318 -374h-152zM121 626l60 392h406l-58 -392h-408z" />
    <glyph glyph-name="less" unicode="&#x3c;" horiz-adv-x="1212" 
d="M1039 144l-928 382l46 310l1044 382l-48 -320l-610 -220l544 -210z" />
    <glyph glyph-name="equal" unicode="=" horiz-adv-x="1242" 
d="M153 778l42 276h1012l-42 -276h-1012zM81 308l42 276h1012l-42 -276h-1012z" />
    <glyph glyph-name="greater" unicode="&#x3e;" horiz-adv-x="1215" 
d="M58 144l50 324l610 210l-546 220l48 320l930 -382l-46 -310z" />
    <glyph glyph-name="question" unicode="?" horiz-adv-x="1088" 
d="M358 524q17 108 58.5 185t94 132.5t103.5 99t87 83.5t43 86q8 47 -26.5 74.5t-85.5 27.5q-44 0 -87 -21t-81.5 -61t-69.5 -98l-312 70q92 179 241.5 271.5t350.5 92.5q150 0 256 -47t157 -123t37 -164q-14 -94 -61 -157.5t-109.5 -111.5t-125 -94t-109 -103.5
t-59.5 -141.5h-302zM226 0l58 384h408l-58 -384h-408z" />
    <glyph glyph-name="at" unicode="@" horiz-adv-x="1641" 
d="M713 -220q-180 0 -313 57t-216.5 157.5t-115.5 232.5t-9 283q24 158 100.5 298t198 248.5t281 170t348.5 61.5q135 0 256 -36t210.5 -112t131 -195t16.5 -285q-23 -148 -89 -261t-162.5 -177t-212.5 -64q-91 0 -130 31.5t-55 52.5q-7 11 -10.5 10t-14.5 -12
q-51 -48 -120.5 -79t-148.5 -31q-88 0 -151.5 42.5t-91 120.5t-10.5 183q17 116 81 219t164 167t225 64q83 0 121.5 -25t68.5 -57q5 -6 9.5 -4t8.5 12l8 24h206l-133 -418q-19 -57 -7 -77.5t38 -20.5q34 0 73 29.5t72 93t49 165.5q20 128 -8 214t-90.5 136.5t-149 72
t-185.5 21.5q-161 0 -280.5 -46t-201.5 -126t-129.5 -184t-65.5 -220q-21 -139 4.5 -243.5t92 -174t168 -104t231.5 -34.5q90 0 154 15t116.5 41t105.5 58l82 -142q-73 -57 -210 -104.5t-310 -47.5zM763 348q49 0 92 30t72.5 77t37.5 97q6 39 -2.5 75t-33 59.5t-66.5 23.5
q-44 0 -86.5 -27.5t-73.5 -74t-41 -104.5q-8 -58 14.5 -107t86.5 -49z" />
    <glyph glyph-name="A" unicode="A" horiz-adv-x="1474" 
d="M-43 0l730 1446h394l290 -1446h-382l-52 280h-454l-140 -280h-386zM615 612h284l-70 462z" />
    <glyph glyph-name="B" unicode="B" horiz-adv-x="1392" 
d="M62 0l219 1446h575q301 0 423.5 -98.5t95.5 -283.5q-16 -100 -77.5 -177t-204.5 -143q91 -28 138.5 -71t65 -92t17 -97.5t-6.5 -89.5q-31 -202 -178.5 -298t-459.5 -96h-607zM495 292h232q84 0 134.5 46.5t59.5 103.5q6 40 -9.5 71.5t-49 50t-81.5 18.5h-242zM583 882
h244q34 0 62.5 10t50.5 27.5t36 42t19 52.5q11 65 -31 102.5t-112 37.5h-227z" />
    <glyph glyph-name="C" unicode="C" horiz-adv-x="1485" 
d="M689 -20q-184 0 -314 78t-199.5 216t-69.5 319q0 162 51 317.5t152.5 281t253 200t352.5 74.5q168 0 290 -62.5t188 -181t66 -286.5h-403q-1 67 -24 116t-67.5 75.5t-111.5 26.5q-94 0 -157 -55t-100.5 -143.5t-53.5 -189t-16 -192.5q0 -151 54.5 -216.5t143.5 -65.5
q66 0 119.5 34t92 90.5t59.5 123.5h404q-32 -112 -83 -213t-132 -179.5t-201.5 -123t-293.5 -44.5z" />
    <glyph glyph-name="D" unicode="D" horiz-adv-x="1488" 
d="M62 0l211 1446h68.5h123.5q150 0 293 -7.5t266.5 -36t217.5 -91.5t146.5 -173.5t52.5 -281.5q0 -68 -13.5 -157t-47 -185t-94.5 -187.5t-155.5 -165t-228.5 -117.5t-316 -44h-524zM497 306h129q87 0 162.5 44.5t132.5 121t89 175t32 207.5q0 95 -32.5 158.5t-93 95.5
t-145.5 32h-148z" />
    <glyph glyph-name="E" unicode="E" horiz-adv-x="1302" 
d="M62 0l221 1446h1060l-50 -322h-670l-36 -240h559l-47 -314h-562l-38 -246h676l-50 -324h-1063z" />
    <glyph glyph-name="F" unicode="F" horiz-adv-x="1272" 
d="M62 0l221 1446h1052l-50 -318h-664l-40 -260h556l-48 -310h-554l-84 -558h-389z" />
    <glyph glyph-name="G" unicode="G" horiz-adv-x="1557" 
d="M680 -20q-205 0 -343.5 93.5t-198 260t-25.5 384.5q35 225 150 393.5t287.5 261.5t379.5 93q193 0 321 -76t186.5 -197.5t39.5 -256.5h-404q-4 59 -26 106t-65 74.5t-111 27.5q-72 0 -140 -38.5t-120 -129t-76 -246.5q-20 -133 -5.5 -214.5t52 -124.5t86 -58t94.5 -15
q41 0 77.5 12t66.5 31.5t52 43.5t33 49l25 52h-250l40 262l658 -4l-116 -764h-254l23 160q-42 -37 -98.5 -79t-138 -71.5t-200.5 -29.5z" />
    <glyph glyph-name="H" unicode="H" horiz-adv-x="1547" 
d="M62 0l204 1446h389l-77 -548h499l77 548h389l-204 -1446h-389l82 580h-499l-82 -580h-389z" />
    <glyph glyph-name="I" unicode="I" horiz-adv-x="673" 
d="M62 0l219 1446h388l-218 -1446h-389z" />
    <glyph glyph-name="J" unicode="J" horiz-adv-x="838" 
d="M215 -20q-61 0 -137.5 5.5t-120.5 14.5l52 350q27 -3 61 -6.5t65 -3.5q104 0 146 53t58 165l136 888h386l-150 -988q-24 -160 -74 -266t-149.5 -159t-272.5 -53z" />
    <glyph glyph-name="K" unicode="K" horiz-adv-x="1490" 
d="M62 0l221 1446h402l-88 -584l504 584h434l-480 -552l324 -894h-414l-228 610l-215 -232l-57 -378h-403z" />
    <glyph glyph-name="L" unicode="L" horiz-adv-x="1155" 
d="M62 0l221 1446h386l-170 -1126h574l-49 -320h-962z" />
    <glyph glyph-name="M" unicode="M" horiz-adv-x="1898" 
d="M62 0l219 1446h575l99 -882l368 882h571l-217 -1446h-388l158 1048l-438 -1048h-279l-122 1048l-159 -1048h-387z" />
    <glyph glyph-name="N" unicode="N" horiz-adv-x="1625" 
d="M62 0l221 1446h390l438 -806l121 806h389l-221 -1446h-349l-470 862l-130 -862h-389z" />
    <glyph glyph-name="O" unicode="O" horiz-adv-x="1564" 
d="M700 -20q-214 0 -357 91.5t-203 257.5t-26 391q35 226 147.5 393.5t283.5 260t380 92.5t351 -92.5t203.5 -260t27.5 -393.5q-34 -224 -145 -390.5t-281 -258t-381 -91.5zM746 292q80 0 148 40.5t117.5 133t72.5 248.5q26 161 5 257.5t-76.5 139.5t-134.5 43
q-119 0 -212.5 -99t-131.5 -341q-23 -156 -1 -248.5t78 -133t135 -40.5z" />
    <glyph glyph-name="P" unicode="P" horiz-adv-x="1339" 
d="M62 0l221 1446h568q159 0 278 -57t177.5 -166.5t34.5 -266.5q-22 -143 -100.5 -245.5t-202 -157.5t-281.5 -55h-230l-76 -498h-389zM566 788h223q49 0 92 27.5t72 70.5t36 90q11 75 -34 128.5t-110 53.5h-222z" />
    <glyph glyph-name="Q" unicode="Q" horiz-adv-x="1587" 
d="M1360 -250q-115 0 -201.5 15t-158 66t-140.5 159q-52 -6 -87 -8t-73 -2q-214 0 -357 91.5t-203 257.5t-26 391q35 226 147.5 393.5t283.5 260t380 92.5q210 0 352.5 -92.5t204 -260t27.5 -393.5q-27 -175 -101.5 -315t-186.5 -245q5 -42 58.5 -74t126.5 -32zM746 292
q129 0 216.5 94.5t123.5 329.5q25 161 5.5 257t-75 138.5t-138.5 42.5q-126 0 -215 -98t-127 -340q-34 -235 24.5 -329.5t185.5 -94.5z" />
    <glyph glyph-name="R" unicode="R" horiz-adv-x="1420" 
d="M62 0l219 1446h652q187 0 292 -62t140.5 -167.5t15.5 -236.5q-17 -111 -58.5 -189.5t-101 -134t-132.5 -96.5l168 -560h-396l-133 498h-204l-75 -498h-387zM569 788h222q49 0 92 27.5t72 70.5t36 90q12 75 -33.5 128.5t-110.5 53.5h-222z" />
    <glyph glyph-name="S" unicode="S" horiz-adv-x="1441" 
d="M654 -20q-113 0 -220.5 26.5t-191.5 82.5t-130.5 143t-37.5 208h402q3 -51 30 -87t75 -55.5t115 -19.5q61 0 117 12t94.5 40.5t46.5 79.5q7 44 -24.5 68t-84.5 37t-113 23l-217 38q-166 27 -252.5 134.5t-62.5 291.5q21 146 118.5 249.5t243 158t310.5 54.5
q177 0 303.5 -64.5t193.5 -168.5t62 -223h-393q3 56 -19.5 90.5t-68.5 50t-114 15.5q-75 0 -121 -17.5t-67.5 -44t-25.5 -52.5q-7 -49 20.5 -79t118.5 -47l217 -38q153 -27 234 -83.5t112 -127.5t32 -141t-7 -124q-18 -123 -115 -220.5t-248 -153.5t-332 -56z" />
    <glyph glyph-name="T" unicode="T" horiz-adv-x="1269" 
d="M352 0l166 1104h-406l52 342h1206l-52 -342h-412l-168 -1104h-386z" />
    <glyph glyph-name="U" unicode="U" horiz-adv-x="1492" 
d="M673 -20q-232 0 -356 78t-161.5 217t-9.5 323l128 848h393l-132 -864q-15 -100 7.5 -160.5t71 -88t109.5 -27.5q89 0 168.5 63t101.5 213l130 864h392l-128 -848q-28 -184 -108 -323t-227.5 -217t-378.5 -78z" />
    <glyph glyph-name="V" unicode="V" horiz-adv-x="1456" 
d="M427 0l-266 1446h364l184 -990l481 990h367l-706 -1446h-424z" />
    <glyph glyph-name="W" unicode="W" horiz-adv-x="1952" 
d="M375 0l-214 1446h374l104 -776l332 776h270l106 -776l332 776h374l-650 -1446h-288l-108 786l-348 -786h-284z" />
    <glyph glyph-name="X" unicode="X" horiz-adv-x="1476" 
d="M-43 0l580 730l-348 716h478l164 -392l280 392h404l-528 -660l386 -786h-482l-196 454l-326 -454h-412z" />
    <glyph glyph-name="Y" unicode="Y" horiz-adv-x="1436" 
d="M434 0l89 602l-377 844h417l207 -514l359 514h423l-641 -844l-92 -602h-385z" />
    <glyph glyph-name="Z" unicode="Z" horiz-adv-x="1408" 
d="M17 0l27 178l821 948h-615l51 320h1170l-26 -170l-836 -952h679l-49 -324h-1222z" />
    <glyph glyph-name="bracketleft" unicode="[" horiz-adv-x="751" 
d="M2 -322l268 1768h532l-32 -208h-224l-204 -1352h224l-32 -208h-532z" />
    <glyph glyph-name="backslash" unicode="\" horiz-adv-x="798" 
d="M439 0l-288 1446h256l288 -1446h-256z" />
    <glyph glyph-name="bracketright" unicode="]" horiz-adv-x="751" 
d="M-38 -322l32 208h224l204 1352h-224l32 208h532l-268 -1768h-532z" />
    <glyph glyph-name="asciicircum" unicode="^" horiz-adv-x="982" 
d="M620 234l-116 444l-250 -444h-244l434 748q27 45 72.5 61.5t86.5 2t55 -61.5l204 -750h-242z" />
    <glyph glyph-name="underscore" unicode="_" horiz-adv-x="1167" 
d="M-7 -312l42 272h934l-42 -272h-934z" />
    <glyph glyph-name="grave" unicode="`" horiz-adv-x="698" 
d="M500 1155l-358 291h389l247 -291h-278z" />
    <glyph glyph-name="a" unicode="a" horiz-adv-x="1158" 
d="M344 -20q-98 0 -173 38t-112 111.5t-22 180.5q26 168 173.5 261t427.5 93h80l6 44q8 50 -17 73t-81 21q-41 -1 -92 -19t-83 -71h-313q25 122 103.5 197.5t193 110t247.5 34.5q178 0 273 -41t126 -113.5t17 -167.5l-112 -732h-320l-9 164q-63 -105 -136 -144.5t-177 -39.5
zM516 226q29 0 54.5 10t46 27.5t34.5 39.5t19 47l20 130h-62q-31 0 -80.5 -11.5t-91 -39.5t-49.5 -79q-8 -58 25.5 -91t83.5 -33z" />
    <glyph glyph-name="b" unicode="b" horiz-adv-x="1238" 
d="M658 -20q-63 0 -111 16t-82 46t-55.5 73t-31.5 97l-76 -212h-275l209 1486h390l-80 -570q30 40 66.5 66.5t77 42t81.5 22.5t80 7q191 0 276.5 -142.5t51.5 -387.5q-35 -247 -170.5 -395.5t-350.5 -148.5zM604 252q66 0 121.5 59.5t77.5 212.5q20 144 -19 200t-105 56
q-68 0 -118.5 -59t-69.5 -197q-22 -153 11.5 -212.5t101.5 -59.5z" />
    <glyph glyph-name="c" unicode="c" horiz-adv-x="1096" 
d="M496 -20q-147 0 -254 67t-157 187t-26 278q24 160 110 282t213.5 191t275.5 69q146 0 236.5 -62t127 -163t21.5 -217h-314q1 29 -6 65t-31 62.5t-74 26.5q-74 0 -129 -62.5t-75 -187.5q-19 -127 20.5 -197.5t112.5 -70.5q49 0 81 29.5t49.5 65.5t22.5 57h305
q-16 -110 -83.5 -206t-176 -155t-249.5 -59z" />
    <glyph glyph-name="d" unicode="d" horiz-adv-x="1238" 
d="M428 -20q-214 0 -308 148.5t-59 395.5q34 245 160 387.5t316 142.5q39 0 78.5 -7t75.5 -22.5t65.5 -42t47.5 -66.5l80 570h390l-209 -1486h-275l-16 212q-25 -54 -58.5 -97t-76.5 -73t-95.5 -46t-115.5 -16zM558 252q68 0 118.5 59.5t72.5 212.5q13 92 1.5 148.5
t-41.5 82t-76 25.5q-66 0 -121 -56t-75 -200q-22 -153 16.5 -212.5t104.5 -59.5z" />
    <glyph glyph-name="e" unicode="e" horiz-adv-x="1161" 
d="M522 -20q-160 0 -271.5 65.5t-161 183.5t-25.5 275q22 148 103 273t209.5 201t292.5 76q169 0 270.5 -70t139.5 -191.5t15 -274.5l-15 -90h-647q-11 -62 2.5 -101t45.5 -57t74 -18q53 0 98 20t78 80h342q-33 -115 -120 -198.5t-201 -128.5t-229 -45zM461 646h295
q6 39 -5.5 72.5t-41.5 53.5t-80 20q-39 0 -75.5 -20t-61 -53.5t-31.5 -72.5z" />
    <glyph glyph-name="f" unicode="f" horiz-adv-x="795" 
d="M114 0l117 770h-165l40 264h165l21 138q20 128 113.5 201t235.5 73h275l-37 -252h-118q-49 0 -71 -21.5t-32 -78.5l-8 -60h195l-40 -264h-187l-118 -770h-386z" />
    <glyph glyph-name="g" unicode="g" horiz-adv-x="1267" 
d="M516 -342q-313 0 -458 76.5t-130 183.5q7 46 39 75t72.5 45t74 24t42.5 11q-10 6 -42.5 26t-59 59.5t-17.5 101.5q8 53 69 100t191 66q-99 48 -144 140.5t-32 183.5q13 90 86.5 157.5t193 105t271.5 37.5q118 0 183 -24t112 -51q34 13 78.5 29.5t94 35t99.5 37.5t95 37
l-32 -280l-184 -35q7 -53 2 -91q-12 -82 -77.5 -159t-180 -126t-274.5 -49q-31 0 -74.5 2t-62.5 3q-22 2 -34.5 4.5t-10.5 -8.5q5 -24 45.5 -33.5t94.5 -14.5q34 -3 90 -5.5t114 -7.5q220 -14 311 -108t73 -222q-20 -142 -175.5 -234t-442.5 -92zM569 -138q109 0 148 24.5
t44 61.5q3 25 -24.5 39t-86.5 18l-187 12q-54 3 -87.5 -10t-49.5 -34t-19 -44q-6 -41 57 -54t205 -13zM593 578q62 0 108.5 45.5t55.5 112.5q8 50 -15.5 87t-72.5 37q-62 0 -109 -50.5t-57 -117.5q-7 -50 17 -82t73 -32z" />
    <glyph glyph-name="h" unicode="h" horiz-adv-x="1216" 
d="M27 0l226 1486h389l-88 -580q41 45 104.5 86.5t184.5 41.5q96 0 171.5 -42.5t114 -119.5t22.5 -180l-106 -692h-388l98 646q8 44 -27 69t-79 25q-29 0 -58.5 -12.5t-51 -34.5t-25.5 -51l-99 -642h-388z" />
    <glyph glyph-name="i" unicode="i" horiz-adv-x="571" 
d="M27 0l146 1034h370l-146 -1034h-370zM185 1118l46 328h370l-46 -328h-370z" />
    <glyph glyph-name="j" unicode="j" horiz-adv-x="639" 
d="M-7 -332q-76 0 -102 17l-26 17l37 260l63 10q57 12 79 32.5t26 51.5l149 978h387l-149 -978q-28 -192 -143 -290t-321 -98zM236 1158l51 328h388l-50 -328h-389z" />
    <glyph glyph-name="k" unicode="k" horiz-adv-x="1194" 
d="M27 0l224 1486h389l-122 -800l336 348h403l-442 -428l287 -606h-376l-179 380l-88 -88l-46 -292h-386z" />
    <glyph glyph-name="l" unicode="l" horiz-adv-x="701" 
d="M413 -22q-142 0 -217.5 30.5t-104 79.5t-28.5 108t8 116l178 1174h380l-170 -1122q-6 -37 8 -70t91 -44l40 -4l-36 -236q-36 -13 -74.5 -22.5t-74.5 -9.5z" />
    <glyph glyph-name="m" unicode="m" horiz-adv-x="1843" 
d="M27 0l157 1034h381l-20 -124q60 62 148 103t208 41q75 0 150 -31.5t112 -112.5q65 66 158.5 105t175.5 39q60 0 116 -22t99 -64t63 -102.5t8 -137.5l-110 -728h-388l105 682q5 30 -10 51.5t-40.5 33t-54.5 11.5q-56 0 -85.5 -19.5t-43 -55t-21.5 -83.5l-94 -620h-386
l104 682q6 30 -9 51.5t-41.5 33t-55.5 11.5q-28 0 -57.5 -11.5t-51 -33t-26.5 -51.5l-105 -682h-386z" />
    <glyph glyph-name="n" unicode="n" horiz-adv-x="1218" 
d="M27 0l159 1034h381l-18 -124q37 33 74.5 62t89.5 47.5t133 18.5q90 0 165.5 -44.5t116.5 -121.5t25 -174l-106 -698h-388l98 646q8 44 -27 69t-77 25q-28 0 -59 -11.5t-53.5 -32.5t-26.5 -50l-99 -646h-388z" />
    <glyph glyph-name="o" unicode="o" horiz-adv-x="1164" 
d="M498 -20q-158 0 -264.5 68t-152 187.5t-22.5 274.5q25 163 110.5 285.5t214 190.5t280.5 68q162 0 268 -70.5t150.5 -193.5t20.5 -280q-24 -154 -106.5 -273.5t-210 -188t-288.5 -68.5zM545 262q61 0 98.5 42.5t57.5 103.5t28 116q9 56 6.5 114.5t-27.5 98t-86 39.5
q-63 0 -101 -39.5t-57 -98t-27 -114.5q-8 -55 -6.5 -116t26.5 -103.5t88 -42.5z" />
    <glyph glyph-name="p" unicode="p" horiz-adv-x="1236" 
d="M-18 -322l191 1356h391l-17 -120q47 53 103.5 83.5t114.5 43.5t106 13q108 0 186 -57t111.5 -175.5t7.5 -301.5q-28 -197 -104.5 -315.5t-180 -171.5t-213.5 -53q-32 0 -66.5 8t-67.5 25.5t-61.5 45t-48.5 67.5l-63 -448h-389zM615 258q65 0 123.5 61.5t77.5 200.5
q17 126 -23 193t-105 67q-85 0 -134.5 -77.5t-63.5 -182.5q-9 -63 -1 -123.5t38.5 -99.5t87.5 -39z" />
    <glyph glyph-name="q" unicode="q" horiz-adv-x="1234" 
d="M627 -322l63 448q-41 -53 -91 -85t-100 -46.5t-93 -14.5q-110 0 -199 53t-132 171.5t-15 315.5q26 183 92.5 301.5t160.5 175.5t202 57q36 0 76 -7t78.5 -23t72 -43t57.5 -67l17 120h391l-191 -1356h-389zM547 258q57 0 98.5 39t66.5 99.5t34 123.5q14 105 -13 182.5
t-113 77.5q-64 0 -123.5 -67t-76.5 -193q-19 -139 22 -200.5t105 -61.5z" />
    <glyph glyph-name="r" unicode="r" horiz-adv-x="849" 
d="M28 0l145 1034h376l-40 -286q35 83 89.5 152.5t129.5 111.5t171 42h11h4l-52 -368q-3 1 -5 1t-7 1q-143 15 -218.5 -11.5t-106 -76.5t-38.5 -104l-70 -496h-389z" />
    <glyph glyph-name="s" unicode="s" horiz-adv-x="1092" 
d="M481 -20q-108 0 -209 37t-166.5 118t-69.5 213h330q6 -50 35.5 -74t63 -31t50.5 -7q65 0 107 15.5t46 46.5q5 29 -20.5 45.5t-93.5 26.5l-149 24q-145 27 -225.5 102t-62.5 214q13 96 78.5 174t177 124t262.5 46q212 0 323.5 -92t88.5 -250h-317q-4 47 -43 69.5t-92 22.5
q-54 0 -93.5 -16t-43.5 -46q-4 -27 29.5 -43.5t114.5 -30.5l130 -24q96 -24 152 -65t82 -88.5t31.5 -93t0.5 -77.5q-15 -111 -88 -186.5t-185 -114.5t-244 -39z" />
    <glyph glyph-name="t" unicode="t" horiz-adv-x="880" 
d="M519 -16q-162 0 -244 40.5t-105.5 108.5t-11.5 151l74 486h-166l40 264h180l107 322h313l-48 -320h225l-40 -266h-225l-69 -468q-5 -34 11.5 -45t42.5 -11h160l-34 -230q-23 -10 -70 -21t-140 -11z" />
    <glyph glyph-name="u" unicode="u" horiz-adv-x="1218" 
d="M406 -20q-63 0 -128 21.5t-118 63.5t-81.5 102.5t-17.5 138.5l102 728h390l-95 -674q-6 -45 22.5 -75.5t87.5 -30.5t97 30.5t44 75.5l95 674h386l-145 -1034h-288l-16 212q-33 -103 -93.5 -152.5t-126 -64.5t-115.5 -15z" />
    <glyph glyph-name="v" unicode="v" horiz-adv-x="1063" 
d="M323 0l-242 1034h344l100 -528v0l254 528h350l-558 -1034h-248z" />
    <glyph glyph-name="w" unicode="w" horiz-adv-x="1583" 
d="M272 0l-190 1034h336l84 -502v0l228 502h268l70 -504v0l237 504h343l-520 -1034h-275l-77 502l-240 -502h-264z" />
    <glyph glyph-name="x" unicode="x" horiz-adv-x="1211" 
d="M-63 0l477 540l-282 494h396l132 -224l196 224h398l-436 -494l310 -540h-396l-156 274l-240 -274h-399z" />
    <glyph glyph-name="y" unicode="y" horiz-adv-x="1169" 
d="M179 -330q-118 0 -167 22l-49 22l36 246l98 -6q100 -8 147.5 11.5t62.5 44t18 30.5l8 20l-252 974h380l108 -562l288 562h378l-547 -974q-92 -163 -174.5 -247t-164 -113.5t-170.5 -29.5z" />
    <glyph glyph-name="z" unicode="z" horiz-adv-x="1025" 
d="M-20 0l26 206l523 562h-414l37 266h892l-25 -206l-524 -562h443l-38 -266h-920z" />
    <glyph glyph-name="braceleft" unicode="{" horiz-adv-x="878" 
d="M481 -322q-79 0 -156.5 28t-124.5 86.5t-33 151.5l58 384q8 47 -9 82t-63.5 54.5t-127.5 19.5l28 180q122 0 179 38.5t69 125.5l54 354q14 91 78 149.5t149 86.5t161 28h186l-32 -208h-102q-61 0 -88.5 -15t-36.5 -39t-13 -50l-56 -370q-13 -66 -55 -104.5t-95 -56.5
t-100 -23q-12 -1 -13 -5.5t11 -6.5q44 -4 92 -20.5t78 -59t20 -124.5l-56 -374q-9 -55 13.5 -79.5t94.5 -24.5h100l-32 -208h-178z" />
    <glyph glyph-name="bar" unicode="|" horiz-adv-x="564" 
d="M17 -322l297 1974h275l-298 -1974h-274z" />
    <glyph glyph-name="braceright" unicode="}" horiz-adv-x="869" 
d="M-98 -322l32 208h102q61 0 89 15t36.5 39t12.5 50l56 370q13 66 55 104.5t95 56.5t100 23q12 2 13 6.5t-11 5.5q-44 4 -92 20.5t-78 59t-20 124.5l56 374q9 56 -13.5 80t-94.5 24h-100l32 208h178q79 0 157 -27.5t124.5 -86.5t32.5 -152l-58 -384q-8 -47 9 -82
t63.5 -54.5t127.5 -19.5l-28 -180q-121 0 -178.5 -38.5t-69.5 -125.5l-54 -354q-14 -91 -78 -149.5t-149 -86.5t-161 -28h-186z" />
    <glyph glyph-name="asciitilde" unicode="~" horiz-adv-x="1299" 
d="M217 510l-82 184q102 95 193.5 156.5t196.5 61.5q64 0 109 -21t82 -48t73 -48t82 -21q69 0 134 49t114 119l84 -180q-79 -115 -176.5 -169.5t-183.5 -54.5q-61 0 -106.5 21t-84.5 49t-79 49t-90 21q-76 0 -139.5 -52.5t-126.5 -115.5z" />
    <glyph glyph-name="uni00A0" unicode="&#xa0;" horiz-adv-x="420" 
 />
    <glyph glyph-name="exclamdown" unicode="&#xa1;" horiz-adv-x="622" 
d="M-48 -322l228 836h236l-12 -836h-452zM110 650l54 384h410l-54 -384h-410z" />
    <glyph glyph-name="cent" unicode="&#xa2;" horiz-adv-x="1229" 
d="M604 202q-159 0 -274.5 67t-169.5 187t-28 278q26 160 118.5 282t230 191t298.5 69q157 0 254.5 -62t137.5 -163t23 -217h-339q1 29 -6.5 65t-33.5 62.5t-80 26.5q-80 0 -139 -62.5t-81 -187.5q-20 -127 22 -197.5t122 -70.5q53 0 87.5 29.5t53 65.5t24.5 57h329
q-17 -110 -89.5 -206t-190.5 -155t-269 -59zM428 0l58 382h242l-58 -382h-242zM625 1064l58 382h242l-58 -382h-242z" />
    <glyph glyph-name="sterling" unicode="&#xa3;" horiz-adv-x="1356" 
d="M-23 0l48 318h62q72 0 121 32.5t61 111.5q8 45 9.5 86.5t4.5 119.5h-206l32 202h160l20 194q8 101 56.5 176t125.5 125.5t171.5 75.5t192.5 25q119 0 213 -37t158.5 -111t94.5 -184l-348 -96q-19 71 -39.5 99.5t-62.5 28.5q-45 0 -75 -31.5t-39 -88.5q-4 -28 -5 -67.5
t-1 -108.5h264l-30 -202h-238q-7 -66 -17 -107.5t-31 -86.5q-15 -32 -32 -55t-42.5 -45.5t-65.5 -53.5h198q90 0 133.5 35.5t86.5 120.5l314 -64q-79 -204 -215 -308t-337 -104h-742z" />
    <glyph glyph-name="currency" unicode="&#xa4;" horiz-adv-x="1228" 
d="M150 178l-126 156l164 142q-27 60 -35.5 117.5t1.5 132.5q11 66 34 123t62 111q8 12 8.5 18.5t-8.5 15.5l-106 128l174 158l124 -146q62 35 129 55.5t131 20.5q130 0 238 -68q10 -7 22 2l130 116l128 -156l-144 -124q27 -58 36 -120.5t-2 -131.5q-9 -64 -35.5 -128.5
t-70.5 -117.5q-4 -8 -2 -10l104 -120l-176 -156l-104 126q-63 -36 -128.5 -56t-133.5 -20q-129 0 -230 64q-18 12 -34 -4zM596 488q68 0 126.5 33.5t98 88t49.5 118.5q10 63 -12.5 117.5t-71.5 88.5t-118 34q-67 0 -126 -34t-99 -88.5t-49 -117.5q-10 -64 13 -118.5t72 -88
t117 -33.5z" />
    <glyph glyph-name="yen" unicode="&#xa5;" horiz-adv-x="1394" 
d="M397 0l90 602l-386 844h502l200 -504l350 504h402l-622 -808l-98 -638h-438zM135 186l30 196h1018l-28 -196h-1020zM185 516l30 198h1020l-30 -198h-1020z" />
    <glyph glyph-name="brokenbar" unicode="&#xa6;" horiz-adv-x="564" 
d="M190 824l124 828h275l-124 -828h-275zM17 -322l124 828h274l-124 -828h-274z" />
    <glyph glyph-name="section" unicode="&#xa7;" horiz-adv-x="1061" 
d="M425 -166q-129 0 -222.5 34t-150 87.5t-75.5 112.5l248 112q30 -43 77 -82.5t147 -39.5q63 0 104.5 19t47.5 59q5 30 -16.5 53.5t-89.5 50.5l-128 50q-166 66 -235.5 141.5t-50.5 202.5q14 92 65.5 158.5t132.5 105.5q-66 50 -89 107t-13 127q14 94 76.5 169.5t165 120
t236.5 44.5q112 0 197.5 -33.5t140 -87t72.5 -113.5l-246 -110q-34 42 -76.5 81t-113.5 39q-45 0 -74 -19.5t-34 -52.5q-4 -28 21 -44t41 -22l138 -54q165 -66 234.5 -141t49.5 -203q-13 -90 -61 -154.5t-125 -109.5q83 -51 111.5 -110t14.5 -142q-16 -105 -80 -185
t-174.5 -125.5t-265.5 -45.5zM591 552q31 -4 54 9.5t35.5 38t12.5 54.5q-3 29 -30.5 53.5t-89.5 48.5l-68 28q-37 -3 -60 -16t-35.5 -33t-16.5 -43q-4 -34 18.5 -55t103.5 -53z" />
    <glyph glyph-name="dieresis" unicode="&#xa8;" horiz-adv-x="918" 
d="M636 1155l44 291h358l-44 -291h-358zM100 1155l44 291h358l-44 -291h-358z" />
    <glyph glyph-name="copyright" unicode="&#xa9;" horiz-adv-x="1678" 
d="M745 -20q-153 0 -278 57.5t-211 159.5t-123 237t-14 290q23 153 101 287.5t195 236.5t259.5 160t294.5 58q153 0 278.5 -58t212 -160t123.5 -236.5t14 -287.5q-24 -155 -102.5 -290t-195.5 -237t-259.5 -159.5t-294.5 -57.5zM801 314q-118 0 -202.5 52t-124 144.5
t-21.5 213.5q19 124 86.5 217t168 145t217.5 52q110 0 180 -45.5t104 -113t36 -133.5l-262 -14q1 24 -3 51.5t-21 47t-54 19.5q-36 0 -65.5 -22t-51 -71t-33.5 -129q-19 -126 8.5 -176t91.5 -50q65 0 101.5 37t70.5 91l178 -36q-10 -32 -39.5 -79t-80 -93t-121.5 -77
t-163 -31zM775 178q119 0 220.5 38t181 109.5t131.5 172.5t71 226q19 124 -2.5 224.5t-79 173t-147.5 111.5t-209 39q-120 0 -222 -39t-181 -111.5t-130.5 -173t-70.5 -224.5q-26 -167 19 -289.5t152 -189.5t267 -67z" />
    <glyph glyph-name="ordfeminine" unicode="&#xaa;" horiz-adv-x="756" 
d="M299 796q-94 0 -137 52t-31 134q14 99 111 163.5t245 64.5h46l4 40q8 47 -15.5 58.5t-40.5 11.5q-27 0 -56 -14.5t-50 -59.5l-188 40q50 89 117 134.5t203 45.5q159 -1 208.5 -54t35.5 -146q-12 -85 -19.5 -138.5t-16.5 -125.5q-1 -7 -5 -36.5t-7 -62t-3 -47.5l7 -48
h-218l-6 56q-52 -33 -92 -50.5t-92 -17.5zM408 940q44 0 71 24q9 8 16 15.5t8 22.5l12 88h-36q-49 0 -86.5 -25t-43.5 -67q-3 -25 12 -41.5t47 -16.5z" />
    <glyph glyph-name="guillemotleft" unicode="&#xab;" horiz-adv-x="1078" 
d="M674 118l-156 384l274 400h200l-188 -400l70 -384h-200zM272 118l-154 384l270 400h202l-188 -400l68 -384h-198z" />
    <glyph glyph-name="logicalnot" unicode="&#xac;" horiz-adv-x="1235" 
d="M120 590l42 276h1012l-42 -276h-1012zM774 274l74 492h310l-74 -492h-310z" />
    <glyph glyph-name="uni00AD" unicode="&#xad;" horiz-adv-x="811" 
d="M97 376l40 274h576l-40 -274h-576z" />
    <glyph glyph-name="registered" unicode="&#xae;" horiz-adv-x="1124" 
d="M552 536q-129 0 -224.5 62t-142 167.5t-27.5 234.5q20 129 98 235t192.5 168.5t243.5 62.5q127 0 222 -62.5t141.5 -168.5t26.5 -235q-19 -129 -97 -234.5t-192 -167.5t-241 -62zM572 674q95 0 171 40.5t125 113.5t64 172t-12 173t-90.5 114.5t-157.5 40.5
q-97 0 -173 -40.5t-125 -114.5t-64 -173q-22 -148 48 -237t214 -89zM392 768l70 460h222q89 0 134 -33t36 -95q-7 -43 -37 -75t-71 -49l60 -208h-154l-34 192h-58l-28 -192h-140zM574 1052h82q21 0 35 12t17 30q3 21 -11.5 31.5t-34.5 10.5h-76z" />
    <glyph glyph-name="macron" unicode="&#xaf;" horiz-adv-x="902" 
d="M144 1178l36 238h796l-36 -238h-796z" />
    <glyph glyph-name="degree" unicode="&#xb0;" horiz-adv-x="964" 
d="M530 962q-101 0 -173.5 45t-106.5 125t-18 184q16 103 74 183.5t144.5 126.5t187.5 46q100 0 172.5 -46t106.5 -126.5t19 -183.5q-16 -104 -74.5 -184t-145 -125t-186.5 -45zM560 1168q62 0 105.5 41t52.5 105q11 63 -21 103.5t-95 40.5t-107 -40.5t-53 -103.5
q-7 -64 23.5 -105t94.5 -41z" />
    <glyph glyph-name="plusminus" unicode="&#xb1;" horiz-adv-x="1243" 
d="M468 406l154 1018h276l-156 -1018h-274zM42 30l42 274h1010l-40 -274h-1012zM154 776l42 276h1012l-42 -276h-1012z" />
    <glyph glyph-name="uni00B2" unicode="&#xb2;" horiz-adv-x="826" 
d="M59 768l15 108l9 56q11 80 52.5 135t101 93.5t123.5 66.5t121 52.5t95.5 52.5t43.5 66q5 41 -19.5 68t-74.5 27t-96.5 -30.5t-70.5 -105.5h-231q20 141 127.5 237t303.5 96q168 0 252 -80t65 -209q-11 -79 -51.5 -132.5t-97 -88.5t-118 -59.5t-116 -45t-91 -45
t-41.5 -61.5v0h449l-29 -201h-722z" />
    <glyph glyph-name="uni00B3" unicode="&#xb3;" horiz-adv-x="886" 
d="M435 754q-185 0 -266.5 82.5t-60.5 230.5h231q4 -71 39.5 -95.5t83.5 -24.5q70 0 111 27t47 68q5 37 -25 62.5t-88 28.5l-91 5l27 189l80 6q40 3 68 14t45 31t21 48q5 43 -32 61.5t-87 18.5q-38 0 -69 -10.5t-53 -36.5t-34 -75h-230q15 107 74 174.5t149 99.5t196 32
q108 0 191 -25.5t125.5 -81t29.5 -146.5q-10 -67 -52.5 -115.5t-134.5 -77.5q41 -12 78 -37.5t58.5 -68t12.5 -106.5q-13 -95 -78.5 -156.5t-162 -91.5t-203.5 -30z" />
    <glyph glyph-name="acute" unicode="&#xb4;" horiz-adv-x="616" 
d="M100 1155l247 291h389l-358 -291h-278z" />
    <glyph glyph-name="uni00B5" unicode="&#xb5;" horiz-adv-x="1251" 
d="M-29 -330l210 1390h397l-92 -602q-3 -32 9.5 -56t39 -37t64.5 -13q50 0 87.5 29t47.5 77l90 602h403l-168 -1060h-388l23 164q-24 -30 -57 -52t-71 -34q-32 -10 -68 -13t-69 3l-61 -398h-397z" />
    <glyph glyph-name="paragraph" unicode="&#xb6;" horiz-adv-x="1266" 
d="M349 -166l116 766q-99 12 -183 59t-128 136.5t-23 228.5q18 120 87 215.5t182 151t262 55.5h645l-32 -212h-128l-212 -1400h-229l213 1400h-128l-215 -1400h-227z" />
    <glyph glyph-name="periodcentered" unicode="&#xb7;" horiz-adv-x="575" 
d="M95 554l54 348h360l-54 -348h-360z" />
    <glyph glyph-name="cedilla" unicode="&#xb8;" horiz-adv-x="620" 
d="M166 -438q-70 0 -136.5 12t-119.5 46l66 118q32 -19 74.5 -35.5t85.5 -16.5q41 0 68.5 14t31.5 38q5 36 -30 56t-136 20q-15 0 -20.5 4t4.5 20l100 172h156l-58 -114q81 0 126 -25.5t61 -63.5t11 -75q-8 -52 -50 -90t-104 -59t-130 -21z" />
    <glyph glyph-name="uni00B9" unicode="&#xb9;" horiz-adv-x="543" 
d="M186 760l98 643h-150l19 128q113 0 177 38.5t83 100.5h156l-139 -910h-244z" />
    <glyph glyph-name="ordmasculine" unicode="&#xba;" horiz-adv-x="748" 
d="M411 796q-137 0 -211 93.5t-54 238.5q15 101 67 177t129 118.5t166 42.5q140 0 213.5 -95.5t52.5 -242.5q-13 -97 -64.5 -172t-128.5 -117.5t-170 -42.5zM434 952q46 0 73.5 43t40.5 137q14 96 -1.5 139t-60.5 43t-72 -43t-41 -139q-13 -94 2.5 -137t58.5 -43z" />
    <glyph glyph-name="guillemotright" unicode="&#xbb;" horiz-adv-x="1078" 
d="M484 118l188 384l-68 400h202l150 -400l-270 -384h-202zM84 118l184 384l-66 400h202l150 -400l-272 -384h-198z" />
    <glyph glyph-name="onequarter" unicode="&#xbc;" horiz-adv-x="1738" 
d="M186 552l98 643h-150l19 128q113 0 177 38.5t83 100.5h156l-139 -910h-244zM378 -8l-210 4l1193 1466h208zM1260 0l28 174h-408l29 191l485 545h236l-81 -536h130l-30 -200h-131l-27 -174h-231zM1132 374h188l38 252z" />
    <glyph glyph-name="onehalf" unicode="&#xbd;" horiz-adv-x="1870" 
d="M186 552l98 643h-150l19 128q113 0 177 38.5t83 100.5h156l-139 -910h-244zM378 -8l-210 4l1193 1466h208zM1024 0l15 108l9 56q11 80 52.5 135t101 93.5t123.5 66.5t121 52.5t95.5 52.5t43.5 66q5 41 -19.5 68t-74.5 27t-96.5 -30.5t-70.5 -105.5h-231q20 141 127.5 237
t303.5 96q168 0 252 -80t65 -209q-11 -79 -51.5 -132.5t-97 -88.5t-118 -59.5t-116 -45t-91 -45t-41.5 -61.5v0h449l-29 -201h-722z" />
    <glyph glyph-name="threequarters" unicode="&#xbe;" horiz-adv-x="1996" 
d="M435 544q-185 0 -266.5 82.5t-60.5 230.5h231q4 -71 39.5 -95.5t83.5 -24.5q70 0 111 27t47 68q5 37 -25 62.5t-88 28.5l-91 5l27 189l80 6q40 3 68 14t45 31t21 48q5 43 -32 61.5t-87 18.5q-38 0 -69 -10.5t-53 -36.5t-34 -75h-230q15 107 74 174.5t149 99.5t196 32
q108 0 191 -25.5t125.5 -81t29.5 -146.5q-10 -67 -52.5 -115.5t-134.5 -77.5q41 -12 78 -37.5t58.5 -68t12.5 -106.5q-13 -95 -78.5 -156.5t-162 -91.5t-203.5 -30zM636 -8l-210 4l1193 1466h208zM1518 0l28 174h-408l29 191l485 545h236l-81 -536h130l-30 -200h-131
l-27 -174h-231zM1390 374h188l38 252z" />
    <glyph glyph-name="questiondown" unicode="&#xbf;" horiz-adv-x="1133" 
d="M454 -342q-171 0 -276 47t-149.5 123.5t-32.5 165.5q14 95 60.5 157.5t107.5 105.5t122 80t104.5 81.5t53.5 109.5h306q-13 -89 -52 -153t-90 -111t-100.5 -86t-85 -77t-42.5 -85q-6 -40 28.5 -67t85.5 -27q44 0 87.5 20.5t82 58.5t66.5 91l314 -68q-88 -178 -237.5 -272
t-352.5 -94zM410 650l54 384h410l-54 -384h-410z" />
    <glyph glyph-name="Agrave" unicode="&#xc0;" horiz-adv-x="1474" 
d="M-43 0l730 1446h394l290 -1446h-382l-52 280h-454l-140 -280h-386zM615 612h284l-70 462zM748 1567l-358 291h389l247 -291h-278z" />
    <glyph glyph-name="Aacute" unicode="&#xc1;" horiz-adv-x="1474" 
d="M-43 0l730 1446h394l290 -1446h-382l-52 280h-454l-140 -280h-386zM615 612h284l-70 462zM763 1567l247 291h389l-358 -291h-278z" />
    <glyph glyph-name="Acircumflex" unicode="&#xc2;" horiz-adv-x="1474" 
d="M-43 0l730 1446h394l290 -1446h-382l-52 280h-454l-140 -280h-386zM615 612h284l-70 462zM422 1567l276 291h264l268 -291h-278l-124 149l-142 -149h-264z" />
    <glyph glyph-name="Atilde" unicode="&#xc3;" horiz-adv-x="1474" 
d="M-43 0l730 1446h394l290 -1446h-382l-52 280h-454l-140 -280h-386zM615 612h284l-70 462zM584 1584l-28 178q47 44 100.5 75t131.5 31q61 0 115 -16.5t102.5 -33t94.5 -16.5q57 0 110.5 27.5t89.5 54.5l10 -206q-40 -31 -104.5 -56.5t-135.5 -25.5q-58 0 -106 15
t-95.5 30t-102.5 15q-51 0 -90 -15.5t-92 -56.5z" />
    <glyph glyph-name="Adieresis" unicode="&#xc4;" horiz-adv-x="1474" 
d="M-43 0l730 1446h394l290 -1446h-382l-52 280h-454l-140 -280h-386zM615 612h284l-70 462zM987 1567l44 291h358l-44 -291h-358zM451 1567l44 291h358l-44 -291h-358z" />
    <glyph glyph-name="Aring" unicode="&#xc5;" horiz-adv-x="1474" 
d="M-43 0l730 1446h394l290 -1446h-382l-52 280h-454l-140 -280h-386zM615 612h284l-70 462zM899 1530q-96 0 -151.5 67.5t-40.5 164.5q9 61 47.5 111t94.5 79.5t118 29.5q95 0 151 -65.5t41 -158.5q-9 -64 -47.5 -115.5t-94.5 -82t-118 -30.5zM917 1660q39 0 69.5 29.5
t36.5 66.5q6 39 -16.5 65.5t-61.5 26.5t-71.5 -26.5t-38.5 -65.5q-6 -37 18.5 -66.5t63.5 -29.5z" />
    <glyph glyph-name="AE" unicode="&#xc6;" horiz-adv-x="2189" 
d="M-73 0l964 1446h1334l-50 -318h-676l-38 -244h567l-48 -314h-565l-38 -250h694l-48 -320h-1136l42 280h-438l-178 -280h-386zM683 612h295l91 590z" />
    <glyph glyph-name="Ccedilla" unicode="&#xc7;" horiz-adv-x="1485" 
d="M637 -438q-70 0 -136.5 12t-119.5 46l66 118q32 -19 74.5 -35.5t85.5 -16.5q41 0 68.5 14t31.5 38q5 36 -30 56t-136 20q-15 0 -20.5 4t4.5 20l100 172h156l-58 -114q81 0 126 -25.5t61 -63.5t11 -75q-8 -52 -50 -90t-104 -59t-130 -21zM689 -20q-184 0 -314 78
t-199.5 216t-69.5 319q0 162 51 317.5t152.5 281t253 200t352.5 74.5q168 0 290 -62.5t188 -181t66 -286.5h-403q-1 67 -24 116t-67.5 75.5t-111.5 26.5q-94 0 -157 -55t-100.5 -143.5t-53.5 -189t-16 -192.5q0 -151 54.5 -216.5t143.5 -65.5q66 0 119.5 34t92 90.5
t59.5 123.5h404q-32 -112 -83 -213t-132 -179.5t-201.5 -123t-293.5 -44.5z" />
    <glyph glyph-name="Egrave" unicode="&#xc8;" horiz-adv-x="1302" 
d="M62 0l221 1446h1060l-50 -322h-670l-36 -240h559l-47 -314h-562l-38 -246h676l-50 -324h-1063zM654 1567l-358 291h389l247 -291h-278z" />
    <glyph glyph-name="Eacute" unicode="&#xc9;" horiz-adv-x="1302" 
d="M62 0l221 1446h1060l-50 -322h-670l-36 -240h559l-47 -314h-562l-38 -246h676l-50 -324h-1063zM669 1567l247 291h389l-358 -291h-278z" />
    <glyph glyph-name="Ecircumflex" unicode="&#xca;" horiz-adv-x="1302" 
d="M62 0l221 1446h1060l-50 -322h-670l-36 -240h559l-47 -314h-562l-38 -246h676l-50 -324h-1063zM403 1567l276 291h264l268 -291h-278l-124 149l-142 -149h-264z" />
    <glyph glyph-name="Edieresis" unicode="&#xcb;" horiz-adv-x="1302" 
d="M62 0l221 1446h1060l-50 -322h-670l-36 -240h559l-47 -314h-562l-38 -246h676l-50 -324h-1063zM893 1567l44 291h358l-44 -291h-358zM357 1567l44 291h358l-44 -291h-358z" />
    <glyph glyph-name="Igrave" unicode="&#xcc;" horiz-adv-x="673" 
d="M62 0l219 1446h388l-218 -1446h-389zM340 1567l-358 291h389l247 -291h-278z" />
    <glyph glyph-name="Iacute" unicode="&#xcd;" horiz-adv-x="673" 
d="M62 0l219 1446h388l-218 -1446h-389zM355 1567l247 291h389l-358 -291h-278z" />
    <glyph glyph-name="Icircumflex" unicode="&#xce;" horiz-adv-x="673" 
d="M62 0l219 1446h388l-218 -1446h-389zM89 1567l276 291h264l268 -291h-278l-124 149l-142 -149h-264z" />
    <glyph glyph-name="Idieresis" unicode="&#xcf;" horiz-adv-x="673" 
d="M62 0l219 1446h388l-218 -1446h-389zM579 1567l44 291h358l-44 -291h-358zM43 1567l44 291h358l-44 -291h-358z" />
    <glyph glyph-name="Eth" unicode="&#xd0;" horiz-adv-x="1634" 
d="M78 572l40 274h860l-40 -274h-860zM208 0l211 1446h68.5h123.5q150 0 293 -7.5t266.5 -36t217.5 -91.5t146.5 -173.5t52.5 -281.5q0 -68 -13.5 -157t-47 -185t-94.5 -187.5t-155.5 -165t-228.5 -117.5t-316 -44h-524zM643 306h129q87 0 162.5 44.5t132.5 121t89 175
t32 207.5q0 95 -32.5 158.5t-93 95.5t-145.5 32h-148z" />
    <glyph glyph-name="Ntilde" unicode="&#xd1;" horiz-adv-x="1625" 
d="M62 0l221 1446h390l438 -806l121 806h389l-221 -1446h-349l-470 862l-130 -862h-389zM650 1584l-28 178q47 44 100.5 75t131.5 31q61 0 115 -16.5t102.5 -33t94.5 -16.5q57 0 110.5 27.5t89.5 54.5l10 -206q-40 -31 -104.5 -56.5t-135.5 -25.5q-58 0 -106 15t-95.5 30
t-102.5 15q-51 0 -90 -15.5t-92 -56.5z" />
    <glyph glyph-name="Ograve" unicode="&#xd2;" horiz-adv-x="1564" 
d="M700 -20q-214 0 -357 91.5t-203 257.5t-26 391q35 226 147.5 393.5t283.5 260t380 92.5t351 -92.5t203.5 -260t27.5 -393.5q-34 -224 -145 -390.5t-281 -258t-381 -91.5zM746 292q80 0 148 40.5t117.5 133t72.5 248.5q26 161 5 257.5t-76.5 139.5t-134.5 43
q-119 0 -212.5 -99t-131.5 -341q-23 -156 -1 -248.5t78 -133t135 -40.5zM765 1567l-358 291h389l247 -291h-278z" />
    <glyph glyph-name="Oacute" unicode="&#xd3;" horiz-adv-x="1564" 
d="M700 -20q-214 0 -357 91.5t-203 257.5t-26 391q35 226 147.5 393.5t283.5 260t380 92.5t351 -92.5t203.5 -260t27.5 -393.5q-34 -224 -145 -390.5t-281 -258t-381 -91.5zM746 292q80 0 148 40.5t117.5 133t72.5 248.5q26 161 5 257.5t-76.5 139.5t-134.5 43
q-119 0 -212.5 -99t-131.5 -341q-23 -156 -1 -248.5t78 -133t135 -40.5zM780 1567l247 291h389l-358 -291h-278z" />
    <glyph glyph-name="Ocircumflex" unicode="&#xd4;" horiz-adv-x="1564" 
d="M700 -20q-214 0 -357 91.5t-203 257.5t-26 391q35 226 147.5 393.5t283.5 260t380 92.5t351 -92.5t203.5 -260t27.5 -393.5q-34 -224 -145 -390.5t-281 -258t-381 -91.5zM746 292q80 0 148 40.5t117.5 133t72.5 248.5q26 161 5 257.5t-76.5 139.5t-134.5 43
q-119 0 -212.5 -99t-131.5 -341q-23 -156 -1 -248.5t78 -133t135 -40.5zM514 1567l276 291h264l268 -291h-278l-124 149l-142 -149h-264z" />
    <glyph glyph-name="Otilde" unicode="&#xd5;" horiz-adv-x="1564" 
d="M700 -20q-214 0 -357 91.5t-203 257.5t-26 391q35 226 147.5 393.5t283.5 260t380 92.5t351 -92.5t203.5 -260t27.5 -393.5q-34 -224 -145 -390.5t-281 -258t-381 -91.5zM746 292q80 0 148 40.5t117.5 133t72.5 248.5q26 161 5 257.5t-76.5 139.5t-134.5 43
q-119 0 -212.5 -99t-131.5 -341q-23 -156 -1 -248.5t78 -133t135 -40.5zM601 1584l-28 178q47 44 100.5 75t131.5 31q61 0 115 -16.5t102.5 -33t94.5 -16.5q57 0 110.5 27.5t89.5 54.5l10 -206q-40 -31 -104.5 -56.5t-135.5 -25.5q-58 0 -106 15t-95.5 30t-102.5 15
q-51 0 -90 -15.5t-92 -56.5z" />
    <glyph glyph-name="Odieresis" unicode="&#xd6;" horiz-adv-x="1564" 
d="M700 -20q-214 0 -357 91.5t-203 257.5t-26 391q35 226 147.5 393.5t283.5 260t380 92.5t351 -92.5t203.5 -260t27.5 -393.5q-34 -224 -145 -390.5t-281 -258t-381 -91.5zM746 292q80 0 148 40.5t117.5 133t72.5 248.5q26 161 5 257.5t-76.5 139.5t-134.5 43
q-119 0 -212.5 -99t-131.5 -341q-23 -156 -1 -248.5t78 -133t135 -40.5zM1004 1567l44 291h358l-44 -291h-358zM468 1567l44 291h358l-44 -291h-358z" />
    <glyph glyph-name="multiply" unicode="&#xd7;" horiz-adv-x="1217" 
d="M257 230l-160 196l918 802l164 -196zM859 230l-672 802l220 196l676 -802z" />
    <glyph glyph-name="Oslash" unicode="&#xd8;" horiz-adv-x="1600" 
d="M106 -28l-130 162l186 158q-37 87 -48 194.5t8 233.5q34 226 146 393.5t283 260t381 92.5q137 0 244 -39t182 -113l188 158l126 -160l-198 -172q38 -85 48 -191t-8 -229q-34 -224 -144.5 -390.5t-280.5 -258t-381 -91.5q-135 0 -241 37.5t-183 104.5zM754 284
q84 0 144 51.5t100 166.5q20 56 35.5 127t28.5 161l-476 -410q41 -96 168 -96zM572 640l480 412q-18 60 -59.5 87t-104.5 27q-93 0 -156.5 -64.5t-105.5 -207.5q-17 -52 -30 -115.5t-24 -138.5z" />
    <glyph glyph-name="Ugrave" unicode="&#xd9;" horiz-adv-x="1492" 
d="M673 -20q-232 0 -356 78t-161.5 217t-9.5 323l128 848h393l-132 -864q-15 -100 7.5 -160.5t71 -88t109.5 -27.5q89 0 168.5 63t101.5 213l130 864h392l-128 -848q-28 -184 -108 -323t-227.5 -217t-378.5 -78zM757 1567l-358 291h389l247 -291h-278z" />
    <glyph glyph-name="Uacute" unicode="&#xda;" horiz-adv-x="1492" 
d="M673 -20q-232 0 -356 78t-161.5 217t-9.5 323l128 848h393l-132 -864q-15 -100 7.5 -160.5t71 -88t109.5 -27.5q89 0 168.5 63t101.5 213l130 864h392l-128 -848q-28 -184 -108 -323t-227.5 -217t-378.5 -78zM772 1567l247 291h389l-358 -291h-278z" />
    <glyph glyph-name="Ucircumflex" unicode="&#xdb;" horiz-adv-x="1492" 
d="M673 -20q-232 0 -356 78t-161.5 217t-9.5 323l128 848h393l-132 -864q-15 -100 7.5 -160.5t71 -88t109.5 -27.5q89 0 168.5 63t101.5 213l130 864h392l-128 -848q-28 -184 -108 -323t-227.5 -217t-378.5 -78zM506 1567l276 291h264l268 -291h-278l-124 149l-142 -149
h-264z" />
    <glyph glyph-name="Udieresis" unicode="&#xdc;" horiz-adv-x="1492" 
d="M673 -20q-232 0 -356 78t-161.5 217t-9.5 323l128 848h393l-132 -864q-15 -100 7.5 -160.5t71 -88t109.5 -27.5q89 0 168.5 63t101.5 213l130 864h392l-128 -848q-28 -184 -108 -323t-227.5 -217t-378.5 -78zM996 1567l44 291h358l-44 -291h-358zM460 1567l44 291h358
l-44 -291h-358z" />
    <glyph glyph-name="Yacute" unicode="&#xdd;" horiz-adv-x="1436" 
d="M434 0l89 602l-377 844h417l207 -514l359 514h423l-641 -844l-92 -602h-385zM707 1567l247 291h389l-358 -291h-278z" />
    <glyph glyph-name="Thorn" unicode="&#xde;" horiz-adv-x="1415" 
d="M62 0l204 1446h388l-37 -260h264q165 0 286 -51t180 -153t38 -255q-20 -141 -107.5 -242t-223.5 -155t-301 -54h-264l-39 -276h-388zM533 588h264q33 0 73 16t71.5 47t37.5 76t-16.5 78t-57.5 51t-68 18l-264 1z" />
    <glyph glyph-name="germandbls" unicode="&#xdf;" horiz-adv-x="1231" 
d="M675 -20q-82 0 -138 18.5t-94 45.5l130 232q20 -16 50.5 -36t77.5 -20q42 0 77.5 21t40.5 67q4 28 -8.5 47t-40.5 36t-71 39q-54 28 -93.5 68t-57.5 94.5t-9 125.5q13 77 48.5 130t75.5 92q31 29 58.5 55.5t46.5 53.5t23 59q6 39 -18 67.5t-82 28.5q-70 0 -112.5 -47
t-51.5 -113l-146 -1044h-352l134 968q16 88 54 173t105 154t169 110t246 41q132 0 222 -35t131 -105t25 -174q-8 -68 -40.5 -121.5t-95 -97.5t-162.5 -85q-4 -1 -6.5 -5t-4.5 -7q0 -4 2 -8.5t9 -7.5q70 -37 134 -75.5t111.5 -88.5t70 -119t9.5 -167q-17 -121 -79.5 -203.5
t-161 -124.5t-226.5 -42z" />
    <glyph glyph-name="agrave" unicode="&#xe0;" horiz-adv-x="1177" 
d="M356 -20q-98 0 -173 38t-112 111.5t-22 180.5q26 168 173.5 261t427.5 93h80l6 44q8 50 -17 73t-81 21q-41 -1 -92 -19t-83 -71h-313q25 122 103.5 197.5t193 110t247.5 34.5q178 0 273 -41t126 -113.5t17 -167.5l-112 -732h-320l-9 164q-63 -105 -136 -144.5t-177 -39.5
zM528 226q29 0 54.5 10t46 27.5t34.5 39.5t19 47l20 130h-62q-31 0 -80.5 -11.5t-91 -39.5t-49.5 -79q-8 -58 25.5 -91t83.5 -33zM555 1155l-358 291h389l247 -291h-278z" />
    <glyph glyph-name="aacute" unicode="&#xe1;" horiz-adv-x="1165" 
d="M344 -20q-98 0 -173 38t-112 111.5t-22 180.5q26 168 173.5 261t427.5 93h80l6 44q8 50 -17 73t-81 21q-41 -1 -92 -19t-83 -71h-313q25 122 103.5 197.5t193 110t247.5 34.5q178 0 273 -41t126 -113.5t17 -167.5l-112 -732h-320l-9 164q-63 -105 -136 -144.5t-177 -39.5
zM516 226q29 0 54.5 10t46 27.5t34.5 39.5t19 47l20 130h-62q-31 0 -80.5 -11.5t-91 -39.5t-49.5 -79q-8 -58 25.5 -91t83.5 -33zM539 1155l247 291h389l-358 -291h-278z" />
    <glyph glyph-name="acircumflex" unicode="&#xe2;" horiz-adv-x="1165" 
d="M344 -20q-98 0 -173 38t-112 111.5t-22 180.5q26 168 173.5 261t427.5 93h80l6 44q8 50 -17 73t-81 21q-41 -1 -92 -19t-83 -71h-313q25 122 103.5 197.5t193 110t247.5 34.5q178 0 273 -41t126 -113.5t17 -167.5l-112 -732h-320l-9 164q-63 -105 -136 -144.5t-177 -39.5
zM516 226q29 0 54.5 10t46 27.5t34.5 39.5t19 47l20 130h-62q-31 0 -80.5 -11.5t-91 -39.5t-49.5 -79q-8 -58 25.5 -91t83.5 -33zM273 1155l276 291h264l268 -291h-278l-124 149l-142 -149h-264z" />
    <glyph glyph-name="atilde" unicode="&#xe3;" horiz-adv-x="1165" 
d="M344 -20q-98 0 -173 38t-112 111.5t-22 180.5q26 168 173.5 261t427.5 93h80l6 44q8 50 -17 73t-81 21q-41 -1 -92 -19t-83 -71h-313q25 122 103.5 197.5t193 110t247.5 34.5q178 0 273 -41t126 -113.5t17 -167.5l-112 -732h-320l-9 164q-63 -105 -136 -144.5t-177 -39.5
zM516 226q29 0 54.5 10t46 27.5t34.5 39.5t19 47l20 130h-62q-31 0 -80.5 -11.5t-91 -39.5t-49.5 -79q-8 -58 25.5 -91t83.5 -33zM360 1172l-28 178q47 44 100.5 75t131.5 31q61 0 115 -16.5t102.5 -33t94.5 -16.5q57 0 110.5 27.5t89.5 54.5l10 -206q-40 -31 -104.5 -56.5
t-135.5 -25.5q-58 0 -106 15t-95.5 30t-102.5 15q-51 0 -90 -15.5t-92 -56.5z" />
    <glyph glyph-name="adieresis" unicode="&#xe4;" horiz-adv-x="1165" 
d="M344 -20q-98 0 -173 38t-112 111.5t-22 180.5q26 168 173.5 261t427.5 93h80l6 44q8 50 -17 73t-81 21q-41 -1 -92 -19t-83 -71h-313q25 122 103.5 197.5t193 110t247.5 34.5q178 0 273 -41t126 -113.5t17 -167.5l-112 -732h-320l-9 164q-63 -105 -136 -144.5t-177 -39.5
zM516 226q29 0 54.5 10t46 27.5t34.5 39.5t19 47l20 130h-62q-31 0 -80.5 -11.5t-91 -39.5t-49.5 -79q-8 -58 25.5 -91t83.5 -33zM762 1149l44 291h358l-44 -291h-358zM226 1149l44 291h358l-44 -291h-358z" />
    <glyph glyph-name="aring" unicode="&#xe5;" horiz-adv-x="1165" 
d="M917 1501l-82 -146q48 -24 73.5 -72t15.5 -110q-13 -90 -84 -145t-160 -55q-88 0 -141.5 56.5t-39.5 147.5q10 68 56 117t110 69l53 138h199zM802 1171q6 39 -17 65.5t-63 26.5q-36 0 -68.5 -26.5t-38.5 -65.5q-6 -37 18 -66.5t62 -29.5q39 0 70 29.5t37 66.5zM344 -20
q-98 0 -173 38t-112 111.5t-22 180.5q26 168 173.5 261t427.5 93h80l6 44q8 50 -17 73t-81 21q-41 -1 -92 -19t-83 -71h-313q25 122 103.5 197.5t193 110t247.5 34.5q178 0 273 -41t126 -113.5t17 -167.5l-112 -732h-320l-9 164q-63 -105 -136 -144.5t-177 -39.5zM516 226
q29 0 54.5 10t46 27.5t34.5 39.5t19 47l20 130h-62q-31 0 -80.5 -11.5t-91 -39.5t-49.5 -79q-8 -58 25.5 -91t83.5 -33z" />
    <glyph glyph-name="ae" unicode="&#xe6;" horiz-adv-x="1817" 
d="M348 -20q-97 0 -173 38t-114.5 111.5t-23.5 180.5q23 168 170.5 261t429.5 93h80l6 44q7 50 -18 73t-84 21q-40 -1 -90.5 -19t-82.5 -71h-315q23 122 101 197.5t192.5 110t247.5 34.5q129 0 214 -21.5t134 -60.5q65 39 141.5 60.5t161.5 21.5q169 0 270.5 -70
t139.5 -191.5t15 -274.5l-15 -90h-647q-11 -62 2.5 -101t45.5 -57t74 -18q53 0 98 20t78 80h342q-33 -115 -120 -198.5t-201 -128.5t-229 -45q-139 0 -242 50t-160 140q-37 -61 -92.5 -103.5t-137.5 -64.5t-198 -22zM519 226q38 0 70.5 17.5t55 45.5t28.5 61l18 130h-63
q-30 0 -80 -11.5t-91.5 -39.5t-48.5 -79q-8 -58 26.5 -91t84.5 -33zM1117 646h295q6 39 -5.5 72.5t-41.5 53.5t-80 20q-39 0 -75 -20t-61 -53.5t-32 -72.5z" />
    <glyph glyph-name="ccedilla" unicode="&#xe7;" horiz-adv-x="1096" 
d="M440 -438q-70 0 -136.5 12t-119.5 46l66 118q32 -19 74.5 -35.5t85.5 -16.5q41 0 68.5 14t31.5 38q5 36 -30 56t-136 20q-15 0 -20.5 4t4.5 20l100 172h156l-58 -114q81 0 126 -25.5t61 -63.5t11 -75q-8 -52 -50 -90t-104 -59t-130 -21zM496 -20q-147 0 -254 67t-157 187
t-26 278q24 160 110 282t213.5 191t275.5 69q146 0 236.5 -62t127 -163t21.5 -217h-314q1 29 -6 65t-31 62.5t-74 26.5q-74 0 -129 -62.5t-75 -187.5q-19 -127 20.5 -197.5t112.5 -70.5q49 0 81 29.5t49.5 65.5t22.5 57h305q-16 -110 -83.5 -206t-176 -155t-249.5 -59z" />
    <glyph glyph-name="egrave" unicode="&#xe8;" horiz-adv-x="1161" 
d="M522 -20q-160 0 -271.5 65.5t-161 183.5t-25.5 275q22 148 103 273t209.5 201t292.5 76q169 0 270.5 -70t139.5 -191.5t15 -274.5l-15 -90h-647q-11 -62 2.5 -101t45.5 -57t74 -18q53 0 98 20t78 80h342q-33 -115 -120 -198.5t-201 -128.5t-229 -45zM461 646h295
q6 39 -5.5 72.5t-41.5 53.5t-80 20q-39 0 -75.5 -20t-61 -53.5t-31.5 -72.5zM530 1155l-358 291h389l247 -291h-278z" />
    <glyph glyph-name="eacute" unicode="&#xe9;" horiz-adv-x="1161" 
d="M522 -20q-160 0 -271.5 65.5t-161 183.5t-25.5 275q22 148 103 273t209.5 201t292.5 76q169 0 270.5 -70t139.5 -191.5t15 -274.5l-15 -90h-647q-11 -62 2.5 -101t45.5 -57t74 -18q53 0 98 20t78 80h342q-33 -115 -120 -198.5t-201 -128.5t-229 -45zM461 646h295
q6 39 -5.5 72.5t-41.5 53.5t-80 20q-39 0 -75.5 -20t-61 -53.5t-31.5 -72.5zM545 1155l247 291h389l-358 -291h-278z" />
    <glyph glyph-name="ecircumflex" unicode="&#xea;" horiz-adv-x="1161" 
d="M522 -20q-160 0 -271.5 65.5t-161 183.5t-25.5 275q22 148 103 273t209.5 201t292.5 76q169 0 270.5 -70t139.5 -191.5t15 -274.5l-15 -90h-647q-11 -62 2.5 -101t45.5 -57t74 -18q53 0 98 20t78 80h342q-33 -115 -120 -198.5t-201 -128.5t-229 -45zM461 646h295
q6 39 -5.5 72.5t-41.5 53.5t-80 20q-39 0 -75.5 -20t-61 -53.5t-31.5 -72.5zM279 1155l276 291h264l268 -291h-278l-124 149l-142 -149h-264z" />
    <glyph glyph-name="edieresis" unicode="&#xeb;" horiz-adv-x="1161" 
d="M522 -20q-160 0 -271.5 65.5t-161 183.5t-25.5 275q22 148 103 273t209.5 201t292.5 76q169 0 270.5 -70t139.5 -191.5t15 -274.5l-15 -90h-647q-11 -62 2.5 -101t45.5 -57t74 -18q53 0 98 20t78 80h342q-33 -115 -120 -198.5t-201 -128.5t-229 -45zM461 646h295
q6 39 -5.5 72.5t-41.5 53.5t-80 20q-39 0 -75.5 -20t-61 -53.5t-31.5 -72.5zM769 1155l44 291h358l-44 -291h-358zM233 1155l44 291h358l-44 -291h-358z" />
    <glyph glyph-name="igrave" unicode="&#xec;" horiz-adv-x="600" 
d="M27 0l158 1034h388l-158 -1034h-388zM261 1155l-243 291h360l156 -288z" />
    <glyph glyph-name="iacute" unicode="&#xed;" horiz-adv-x="600" 
d="M27 0l158 1034h388l-158 -1034h-388zM529 1155l-283 3l186 288h370z" />
    <glyph glyph-name="icircumflex" unicode="&#xee;" horiz-adv-x="600" 
d="M27 0l158 1034h388l-158 -1034h-388zM-3 1155l276 291h264l268 -291h-278l-124 149l-142 -149h-264z" />
    <glyph glyph-name="idieresis" unicode="&#xef;" horiz-adv-x="600" 
d="M27 0l158 1034h388l-158 -1034h-388zM487 1155l44 291h358l-44 -291h-358zM-49 1155l44 291h358l-44 -291h-358z" />
    <glyph glyph-name="eth" unicode="&#xf0;" horiz-adv-x="1173" 
d="M523 -20q-142 0 -247.5 57.5t-163 162t-57.5 245.5q0 82 29.5 179.5t96 186.5t175 146t265.5 57q146 0 222.5 -74.5t76.5 -215.5l-199 181q0 83 -31 174.5t-93 192t-156 209.5h293q121 -87 209 -215t136 -278t48 -303q0 -129 -35.5 -254.5t-109 -227t-187.5 -162.5
t-272 -61zM555 262q53 0 89 33t57.5 84t30.5 106t9 98q0 80 -29.5 122t-88.5 42q-54 0 -90.5 -32t-57.5 -81.5t-30 -103t-9 -97.5q0 -82 30.5 -126.5t88.5 -44.5zM380 1072l-25 155l783 219l26 -155z" />
    <glyph glyph-name="ntilde" unicode="&#xf1;" horiz-adv-x="1218" 
d="M27 0l159 1034h381l-18 -124q37 33 74.5 62t89.5 47.5t133 18.5q90 0 165.5 -44.5t116.5 -121.5t25 -174l-106 -698h-388l98 646q8 44 -27 69t-77 25q-28 0 -59 -11.5t-53.5 -32.5t-26.5 -50l-99 -646h-388zM392 1172l-28 178q47 44 100.5 75t131.5 31q61 0 115 -16.5
t102.5 -33t94.5 -16.5q57 0 110.5 27.5t89.5 54.5l10 -206q-40 -31 -104.5 -56.5t-135.5 -25.5q-58 0 -106 15t-95.5 30t-102.5 15q-51 0 -90 -15.5t-92 -56.5z" />
    <glyph glyph-name="ograve" unicode="&#xf2;" horiz-adv-x="1164" 
d="M498 -20q-158 0 -264.5 68t-152 187.5t-22.5 274.5q25 163 110.5 285.5t214 190.5t280.5 68q162 0 268 -70.5t150.5 -193.5t20.5 -280q-24 -154 -106.5 -273.5t-210 -188t-288.5 -68.5zM545 262q61 0 98.5 42.5t57.5 103.5t28 116q9 56 6.5 114.5t-27.5 98t-86 39.5
q-63 0 -101 -39.5t-57 -98t-27 -114.5q-8 -55 -6.5 -116t26.5 -103.5t88 -42.5zM523 1155l-358 291h389l247 -291h-278z" />
    <glyph glyph-name="oacute" unicode="&#xf3;" horiz-adv-x="1164" 
d="M498 -20q-158 0 -264.5 68t-152 187.5t-22.5 274.5q25 163 110.5 285.5t214 190.5t280.5 68q162 0 268 -70.5t150.5 -193.5t20.5 -280q-24 -154 -106.5 -273.5t-210 -188t-288.5 -68.5zM545 262q61 0 98.5 42.5t57.5 103.5t28 116q9 56 6.5 114.5t-27.5 98t-86 39.5
q-63 0 -101 -39.5t-57 -98t-27 -114.5q-8 -55 -6.5 -116t26.5 -103.5t88 -42.5zM538 1155l247 291h389l-358 -291h-278z" />
    <glyph glyph-name="ocircumflex" unicode="&#xf4;" horiz-adv-x="1164" 
d="M498 -20q-158 0 -264.5 68t-152 187.5t-22.5 274.5q25 163 110.5 285.5t214 190.5t280.5 68q162 0 268 -70.5t150.5 -193.5t20.5 -280q-24 -154 -106.5 -273.5t-210 -188t-288.5 -68.5zM545 262q61 0 98.5 42.5t57.5 103.5t28 116q9 56 6.5 114.5t-27.5 98t-86 39.5
q-63 0 -101 -39.5t-57 -98t-27 -114.5q-8 -55 -6.5 -116t26.5 -103.5t88 -42.5zM272 1155l276 291h264l268 -291h-278l-124 149l-142 -149h-264z" />
    <glyph glyph-name="otilde" unicode="&#xf5;" horiz-adv-x="1164" 
d="M498 -20q-158 0 -264.5 68t-152 187.5t-22.5 274.5q25 163 110.5 285.5t214 190.5t280.5 68q162 0 268 -70.5t150.5 -193.5t20.5 -280q-24 -154 -106.5 -273.5t-210 -188t-288.5 -68.5zM545 262q61 0 98.5 42.5t57.5 103.5t28 116q9 56 6.5 114.5t-27.5 98t-86 39.5
q-63 0 -101 -39.5t-57 -98t-27 -114.5q-8 -55 -6.5 -116t26.5 -103.5t88 -42.5zM359 1172l-28 178q47 44 100.5 75t131.5 31q61 0 115 -16.5t102.5 -33t94.5 -16.5q57 0 110.5 27.5t89.5 54.5l10 -206q-40 -31 -104.5 -56.5t-135.5 -25.5q-58 0 -106 15t-95.5 30t-102.5 15
q-51 0 -90 -15.5t-92 -56.5z" />
    <glyph glyph-name="odieresis" unicode="&#xf6;" horiz-adv-x="1164" 
d="M498 -20q-158 0 -264.5 68t-152 187.5t-22.5 274.5q25 163 110.5 285.5t214 190.5t280.5 68q162 0 268 -70.5t150.5 -193.5t20.5 -280q-24 -154 -106.5 -273.5t-210 -188t-288.5 -68.5zM545 262q61 0 98.5 42.5t57.5 103.5t28 116q9 56 6.5 114.5t-27.5 98t-86 39.5
q-63 0 -101 -39.5t-57 -98t-27 -114.5q-8 -55 -6.5 -116t26.5 -103.5t88 -42.5zM762 1155l44 291h358l-44 -291h-358zM226 1155l44 291h358l-44 -291h-358z" />
    <glyph glyph-name="divide" unicode="&#xf7;" horiz-adv-x="1235" 
d="M120 590l42 276h1012l-42 -276h-1012zM372 118l54 356h368l-54 -356h-368zM504 982l54 356h368l-54 -356h-368z" />
    <glyph glyph-name="oslash" unicode="&#xf8;" horiz-adv-x="1192" 
d="M118 -18l-116 124l1016 944l114 -124zM516 -20q-158 0 -264.5 68t-152 187.5t-22.5 274.5q25 163 110.5 285.5t214 190.5t280.5 68q162 0 268 -70.5t150.5 -193.5t20.5 -280q-24 -154 -106.5 -273.5t-210 -188t-288.5 -68.5zM563 262q61 0 98.5 42.5t57.5 103.5t28 116
q9 56 6.5 114.5t-27.5 98t-86 39.5q-63 0 -101 -39.5t-57 -98t-27 -114.5q-8 -55 -6.5 -116t26.5 -103.5t88 -42.5z" />
    <glyph glyph-name="ugrave" unicode="&#xf9;" horiz-adv-x="1218" 
d="M406 -20q-63 0 -128 21.5t-118 63.5t-81.5 102.5t-17.5 138.5l102 728h390l-95 -674q-6 -45 22.5 -75.5t87.5 -30.5t97 30.5t44 75.5l95 674h386l-145 -1034h-288l-16 212q-33 -103 -93.5 -152.5t-126 -64.5t-115.5 -15zM540 1155l-358 291h389l247 -291h-278z" />
    <glyph glyph-name="uacute" unicode="&#xfa;" horiz-adv-x="1218" 
d="M406 -20q-63 0 -128 21.5t-118 63.5t-81.5 102.5t-17.5 138.5l102 728h390l-95 -674q-6 -45 22.5 -75.5t87.5 -30.5t97 30.5t44 75.5l95 674h386l-145 -1034h-288l-16 212q-33 -103 -93.5 -152.5t-126 -64.5t-115.5 -15zM555 1155l247 291h389l-358 -291h-278z" />
    <glyph glyph-name="ucircumflex" unicode="&#xfb;" horiz-adv-x="1218" 
d="M406 -20q-63 0 -128 21.5t-118 63.5t-81.5 102.5t-17.5 138.5l102 728h390l-95 -674q-6 -45 22.5 -75.5t87.5 -30.5t97 30.5t44 75.5l95 674h386l-145 -1034h-288l-16 212q-33 -103 -93.5 -152.5t-126 -64.5t-115.5 -15zM289 1155l276 291h264l268 -291h-278l-124 149
l-142 -149h-264z" />
    <glyph glyph-name="udieresis" unicode="&#xfc;" horiz-adv-x="1218" 
d="M406 -20q-63 0 -128 21.5t-118 63.5t-81.5 102.5t-17.5 138.5l102 728h390l-95 -674q-6 -45 22.5 -75.5t87.5 -30.5t97 30.5t44 75.5l95 674h386l-145 -1034h-288l-16 212q-33 -103 -93.5 -152.5t-126 -64.5t-115.5 -15zM779 1155l44 291h358l-44 -291h-358zM243 1155
l44 291h358l-44 -291h-358z" />
    <glyph glyph-name="yacute" unicode="&#xfd;" horiz-adv-x="1169" 
d="M179 -330q-118 0 -167 22l-49 22l36 246l98 -6q100 -8 147.5 11.5t62.5 44t18 30.5l8 20l-252 974h380l108 -562l288 562h378l-547 -974q-92 -163 -174.5 -247t-164 -113.5t-170.5 -29.5zM523 1155l247 291h389l-358 -291h-278z" />
    <glyph glyph-name="thorn" unicode="&#xfe;" horiz-adv-x="1239" 
d="M-18 -322l268 1768h391l-80 -532q47 44 94.5 75.5t102.5 48t122 16.5q109 0 186 -57t109 -175.5t4 -301.5q-29 -197 -100.5 -315.5t-169 -171.5t-205.5 -53q-66 0 -123.5 21t-109.5 79q-22 21 -28.5 20.5t-11.5 -30.5l-61 -392h-388zM586 216q50 0 88.5 27t67.5 95.5
t48 193.5q17 113 9 175t-38.5 86.5t-81.5 24.5q-38 0 -71 -14.5t-55 -39.5t-27 -56l-62 -414q18 -34 47 -56t75 -22z" />
    <glyph glyph-name="ydieresis" unicode="&#xff;" horiz-adv-x="1169" 
d="M179 -330q-118 0 -167 22l-49 22l36 246l98 -6q100 -8 147.5 11.5t62.5 44t18 30.5l8 20l-252 974h380l108 -562l288 562h378l-547 -974q-92 -163 -174.5 -247t-164 -113.5t-170.5 -29.5zM747 1155l44 291h358l-44 -291h-358zM211 1155l44 291h358l-44 -291h-358z" />
    <glyph glyph-name="Amacron" unicode="&#x100;" horiz-adv-x="1474" 
d="M-43 0l730 1446h394l290 -1446h-382l-52 280h-454l-140 -280h-386zM615 612h284l-70 462zM518 1590l36 238h796l-36 -238h-796z" />
    <glyph glyph-name="amacron" unicode="&#x101;" horiz-adv-x="1165" 
d="M344 -20q-98 0 -173 38t-112 111.5t-22 180.5q26 168 173.5 261t427.5 93h80l6 44q8 50 -17 73t-81 21q-41 -1 -92 -19t-83 -71h-313q25 122 103.5 197.5t193 110t247.5 34.5q178 0 273 -41t126 -113.5t17 -167.5l-112 -732h-320l-9 164q-63 -105 -136 -144.5t-177 -39.5
zM516 226q29 0 54.5 10t46 27.5t34.5 39.5t19 47l20 130h-62q-31 0 -80.5 -11.5t-91 -39.5t-49.5 -79q-8 -58 25.5 -91t83.5 -33zM293 1178l36 238h796l-36 -238h-796z" />
    <glyph glyph-name="Abreve" unicode="&#x102;" horiz-adv-x="1474" 
d="M-43 0l730 1446h394l290 -1446h-382l-52 280h-454l-140 -280h-386zM615 612h284l-70 462zM903 1568q-86 0 -160 30.5t-124 94.5t-64 165h210q14 -34 36 -60t53.5 -41t74.5 -15q66 0 115 32.5t85 83.5h210q-44 -98 -112.5 -162.5t-152 -96t-171.5 -31.5z" />
    <glyph glyph-name="abreve" unicode="&#x103;" horiz-adv-x="1165" 
d="M344 -20q-98 0 -173 38t-112 111.5t-22 180.5q26 168 173.5 261t427.5 93h80l6 44q8 50 -17 73t-81 21q-41 -1 -92 -19t-83 -71h-313q25 122 103.5 197.5t193 110t247.5 34.5q178 0 273 -41t126 -113.5t17 -167.5l-112 -732h-320l-9 164q-63 -105 -136 -144.5t-177 -39.5
zM516 226q29 0 54.5 10t46 27.5t34.5 39.5t19 47l20 130h-62q-31 0 -80.5 -11.5t-91 -39.5t-49.5 -79q-8 -58 25.5 -91t83.5 -33zM678 1156q-86 0 -160 30.5t-124 94.5t-64 165h210q14 -34 36 -60t53.5 -41t74.5 -15q66 0 115 32.5t85 83.5h210q-44 -98 -112.5 -162.5
t-152 -96t-171.5 -31.5z" />
    <glyph glyph-name="Aogonek" unicode="&#x104;" horiz-adv-x="1474" 
d="M-43 0l730 1446h394l290 -1446h-382l-52 280h-454l-140 -280h-386zM615 612h284l-70 462zM1107 -350q-106 0 -164.5 41.5t-45.5 128.5q8 50 49 96t159 86h266q-115 -36 -154.5 -65.5t-45.5 -62.5q-3 -28 8 -42t38 -14q44 0 78.5 14.5t73.5 35.5l-24 -164
q-33 -19 -98.5 -36.5t-139.5 -17.5z" />
    <glyph glyph-name="aogonek" unicode="&#x105;" horiz-adv-x="1157" 
d="M344 -20q-98 0 -173 38t-112 111.5t-22 180.5q26 168 173.5 261t427.5 93h80l6 44q8 50 -17 73t-81 21q-41 -1 -92 -19t-83 -71h-313q25 122 103.5 197.5t193 110t247.5 34.5q178 0 273 -41t126 -113.5t17 -167.5l-112 -732h-320l-9 164q-63 -105 -136 -144.5t-177 -39.5
zM516 226q29 0 54.5 10t46 27.5t34.5 39.5t19 47l20 130h-62q-31 0 -80.5 -11.5t-91 -39.5t-49.5 -79q-8 -58 25.5 -91t83.5 -33zM696 -340q-106 0 -164.5 41.5t-45.5 128.5q8 50 49 96t159 86h266q-115 -36 -154.5 -65.5t-45.5 -62.5q-3 -28 8 -42t38 -14q44 0 78.5 14.5
t73.5 35.5l-24 -164q-33 -19 -98.5 -36.5t-139.5 -17.5z" />
    <glyph glyph-name="Cacute" unicode="&#x106;" horiz-adv-x="1485" 
d="M689 -20q-184 0 -314 78t-199.5 216t-69.5 319q0 162 51 317.5t152.5 281t253 200t352.5 74.5q168 0 290 -62.5t188 -181t66 -286.5h-403q-1 67 -24 116t-67.5 75.5t-111.5 26.5q-94 0 -157 -55t-100.5 -143.5t-53.5 -189t-16 -192.5q0 -151 54.5 -216.5t143.5 -65.5
q66 0 119.5 34t92 90.5t59.5 123.5h404q-32 -112 -83 -213t-132 -179.5t-201.5 -123t-293.5 -44.5zM789 1567l247 291h389l-358 -291h-278z" />
    <glyph glyph-name="cacute" unicode="&#x107;" horiz-adv-x="1075" 
d="M496 -20q-147 0 -254 67t-157 187t-26 278q24 160 110 282t213.5 191t275.5 69q146 0 236.5 -62t127 -163t21.5 -217h-314q1 29 -6 65t-31 62.5t-74 26.5q-74 0 -129 -62.5t-75 -187.5q-19 -127 20.5 -197.5t112.5 -70.5q49 0 81 29.5t49.5 65.5t22.5 57h305
q-16 -110 -83.5 -206t-176 -155t-249.5 -59zM515 1155l247 291h389l-358 -291h-278z" />
    <glyph glyph-name="Ccircumflex" unicode="&#x108;" horiz-adv-x="1485" 
d="M689 -20q-184 0 -314 78t-199.5 216t-69.5 319q0 162 51 317.5t152.5 281t253 200t352.5 74.5q168 0 290 -62.5t188 -181t66 -286.5h-403q-1 67 -24 116t-67.5 75.5t-111.5 26.5q-94 0 -157 -55t-100.5 -143.5t-53.5 -189t-16 -192.5q0 -151 54.5 -216.5t143.5 -65.5
q66 0 119.5 34t92 90.5t59.5 123.5h404q-32 -112 -83 -213t-132 -179.5t-201.5 -123t-293.5 -44.5zM523 1567l276 291h264l268 -291h-278l-124 149l-142 -149h-264z" />
    <glyph glyph-name="ccircumflex" unicode="&#x109;" horiz-adv-x="1096" 
d="M496 -20q-147 0 -254 67t-157 187t-26 278q24 160 110 282t213.5 191t275.5 69q146 0 236.5 -62t127 -163t21.5 -217h-314q1 29 -6 65t-31 62.5t-74 26.5q-74 0 -129 -62.5t-75 -187.5q-19 -127 20.5 -197.5t112.5 -70.5q49 0 81 29.5t49.5 65.5t22.5 57h305
q-16 -110 -83.5 -206t-176 -155t-249.5 -59zM269 1155l276 291h264l268 -291h-278l-124 149l-142 -149h-264z" />
    <glyph glyph-name="Cdotaccent" unicode="&#x10a;" horiz-adv-x="1485" 
d="M689 -20q-184 0 -314 78t-199.5 216t-69.5 319q0 162 51 317.5t152.5 281t253 200t352.5 74.5q168 0 290 -62.5t188 -181t66 -286.5h-403q-1 67 -24 116t-67.5 75.5t-111.5 26.5q-94 0 -157 -55t-100.5 -143.5t-53.5 -189t-16 -192.5q0 -151 54.5 -216.5t143.5 -65.5
q66 0 119.5 34t92 90.5t59.5 123.5h404q-32 -112 -83 -213t-132 -179.5t-201.5 -123t-293.5 -44.5zM749 1567l44 291h358l-44 -291h-358z" />
    <glyph glyph-name="cdotaccent" unicode="&#x10b;" horiz-adv-x="1096" 
d="M496 -20q-147 0 -254 67t-157 187t-26 278q24 160 110 282t213.5 191t275.5 69q146 0 236.5 -62t127 -163t21.5 -217h-314q1 29 -6 65t-31 62.5t-74 26.5q-74 0 -129 -62.5t-75 -187.5q-19 -127 20.5 -197.5t112.5 -70.5q49 0 81 29.5t49.5 65.5t22.5 57h305
q-16 -110 -83.5 -206t-176 -155t-249.5 -59zM495 1155l44 291h358l-44 -291h-358z" />
    <glyph glyph-name="Ccaron" unicode="&#x10c;" horiz-adv-x="1485" 
d="M689 -20q-184 0 -314 78t-199.5 216t-69.5 319q0 162 51 317.5t152.5 281t253 200t352.5 74.5q168 0 290 -62.5t188 -181t66 -286.5h-403q-1 67 -24 116t-67.5 75.5t-111.5 26.5q-94 0 -157 -55t-100.5 -143.5t-53.5 -189t-16 -192.5q0 -151 54.5 -216.5t143.5 -65.5
q66 0 119.5 34t92 90.5t59.5 123.5h404q-32 -112 -83 -213t-132 -179.5t-201.5 -123t-293.5 -44.5zM789 1567l-232 293h264l119 -164l147 164h278l-310 -293h-266z" />
    <glyph glyph-name="ccaron" unicode="&#x10d;" horiz-adv-x="1096" 
d="M496 -20q-147 0 -254 67t-157 187t-26 278q24 160 110 282t213.5 191t275.5 69q146 0 236.5 -62t127 -163t21.5 -217h-314q1 29 -6 65t-31 62.5t-74 26.5q-74 0 -129 -62.5t-75 -187.5q-19 -127 20.5 -197.5t112.5 -70.5q49 0 81 29.5t49.5 65.5t22.5 57h305
q-16 -110 -83.5 -206t-176 -155t-249.5 -59zM535 1155l-232 293h264l119 -164l147 164h278l-310 -293h-266z" />
    <glyph glyph-name="Dcaron" unicode="&#x10e;" horiz-adv-x="1488" 
d="M62 0l211 1446h68.5h123.5q150 0 293 -7.5t266.5 -36t217.5 -91.5t146.5 -173.5t52.5 -281.5q0 -68 -13.5 -157t-47 -185t-94.5 -187.5t-155.5 -165t-228.5 -117.5t-316 -44h-524zM497 306h129q87 0 162.5 44.5t132.5 121t89 175t32 207.5q0 95 -32.5 158.5t-93 95.5
t-145.5 32h-148zM866 1567l-232 293h264l119 -164l147 164h278l-310 -293h-266z" />
    <glyph glyph-name="dcaron" unicode="&#x10f;" horiz-adv-x="1238" 
d="M428 -20q-214 0 -308 148.5t-59 395.5q34 245 160 387.5t316 142.5q39 0 78.5 -7t75.5 -22.5t65.5 -42t47.5 -66.5l80 570h390l-209 -1486h-275l-16 212q-25 -54 -58.5 -97t-76.5 -73t-95.5 -46t-115.5 -16zM558 252q68 0 118.5 59.5t72.5 212.5q13 92 1.5 148.5
t-41.5 82t-76 25.5q-66 0 -121 -56t-75 -200q-22 -153 16.5 -212.5t104.5 -59.5zM1308 1006l118 218l-82 14l38 248h240l-40 -260l-124 -220h-150z" />
    <glyph glyph-name="Dcroat" unicode="&#x110;" horiz-adv-x="1634" 
d="M78 572l40 274h860l-40 -274h-860zM208 0l211 1446h68.5h123.5q150 0 293 -7.5t266.5 -36t217.5 -91.5t146.5 -173.5t52.5 -281.5q0 -68 -13.5 -157t-47 -185t-94.5 -187.5t-155.5 -165t-228.5 -117.5t-316 -44h-524zM643 306h129q87 0 162.5 44.5t132.5 121t89 175
t32 207.5q0 95 -32.5 158.5t-93 95.5t-145.5 32h-148z" />
    <glyph glyph-name="dcroat" unicode="&#x111;" horiz-adv-x="1298" 
d="M600 1132l28 208h724l-28 -208h-724zM428 -20q-214 0 -308 148.5t-59 395.5q34 245 160 387.5t316 142.5q39 0 78.5 -7t75.5 -22.5t65.5 -42t47.5 -66.5l80 570h390l-209 -1486h-275l-16 212q-25 -54 -58.5 -97t-76.5 -73t-95.5 -46t-115.5 -16zM558 252q68 0 118.5 59.5
t72.5 212.5q13 92 1.5 148.5t-41.5 82t-76 25.5q-66 0 -121 -56t-75 -200q-22 -153 16.5 -212.5t104.5 -59.5z" />
    <glyph glyph-name="Emacron" unicode="&#x112;" horiz-adv-x="1302" 
d="M62 0l221 1446h1060l-50 -322h-670l-36 -240h559l-47 -314h-562l-38 -246h676l-50 -324h-1063zM424 1590l36 238h796l-36 -238h-796z" />
    <glyph glyph-name="emacron" unicode="&#x113;" horiz-adv-x="1161" 
d="M522 -20q-160 0 -271.5 65.5t-161 183.5t-25.5 275q22 148 103 273t209.5 201t292.5 76q169 0 270.5 -70t139.5 -191.5t15 -274.5l-15 -90h-647q-11 -62 2.5 -101t45.5 -57t74 -18q53 0 98 20t78 80h342q-33 -115 -120 -198.5t-201 -128.5t-229 -45zM461 646h295
q6 39 -5.5 72.5t-41.5 53.5t-80 20q-39 0 -75.5 -20t-61 -53.5t-31.5 -72.5zM300 1178l36 238h796l-36 -238h-796z" />
    <glyph glyph-name="Ebreve" unicode="&#x114;" horiz-adv-x="1302" 
d="M62 0l221 1446h1060l-50 -322h-670l-36 -240h559l-47 -314h-562l-38 -246h676l-50 -324h-1063zM809 1568q-86 0 -160 30.5t-124 94.5t-64 165h210q14 -34 36 -60t53.5 -41t74.5 -15q66 0 115 32.5t85 83.5h210q-44 -98 -112.5 -162.5t-152 -96t-171.5 -31.5z" />
    <glyph glyph-name="ebreve" unicode="&#x115;" horiz-adv-x="1161" 
d="M522 -20q-160 0 -271.5 65.5t-161 183.5t-25.5 275q22 148 103 273t209.5 201t292.5 76q169 0 270.5 -70t139.5 -191.5t15 -274.5l-15 -90h-647q-11 -62 2.5 -101t45.5 -57t74 -18q53 0 98 20t78 80h342q-33 -115 -120 -198.5t-201 -128.5t-229 -45zM461 646h295
q6 39 -5.5 72.5t-41.5 53.5t-80 20q-39 0 -75.5 -20t-61 -53.5t-31.5 -72.5zM685 1156q-86 0 -160 30.5t-124 94.5t-64 165h210q14 -34 36 -60t53.5 -41t74.5 -15q66 0 115 32.5t85 83.5h210q-44 -98 -112.5 -162.5t-152 -96t-171.5 -31.5z" />
    <glyph glyph-name="Edotaccent" unicode="&#x116;" horiz-adv-x="1302" 
d="M62 0l221 1446h1060l-50 -322h-670l-36 -240h559l-47 -314h-562l-38 -246h676l-50 -324h-1063zM629 1567l44 291h358l-44 -291h-358z" />
    <glyph glyph-name="edotaccent" unicode="&#x117;" horiz-adv-x="1161" 
d="M522 -20q-160 0 -271.5 65.5t-161 183.5t-25.5 275q22 148 103 273t209.5 201t292.5 76q169 0 270.5 -70t139.5 -191.5t15 -274.5l-15 -90h-647q-11 -62 2.5 -101t45.5 -57t74 -18q53 0 98 20t78 80h342q-33 -115 -120 -198.5t-201 -128.5t-229 -45zM461 646h295
q6 39 -5.5 72.5t-41.5 53.5t-80 20q-39 0 -75.5 -20t-61 -53.5t-31.5 -72.5zM505 1155l44 291h358l-44 -291h-358z" />
    <glyph glyph-name="Eogonek" unicode="&#x118;" horiz-adv-x="1302" 
d="M62 0l221 1446h1060l-50 -322h-670l-36 -240h559l-47 -314h-562l-38 -246h676l-50 -324h-1063zM857 -340q-106 0 -164.5 41.5t-45.5 128.5q8 50 49 96t159 86h266q-115 -36 -154.5 -65.5t-45.5 -62.5q-3 -28 8 -42t38 -14q44 0 78.5 14.5t73.5 35.5l-24 -164
q-33 -19 -98.5 -36.5t-139.5 -17.5z" />
    <glyph glyph-name="eogonek" unicode="&#x119;" horiz-adv-x="1161" 
d="M669 1054q169 0 271.5 -70.5t141 -191.5t12.5 -274l-15 -90h-647q-11 -62 2.5 -101t45.5 -57t74 -18q53 0 98 20t78 80h342q-33 -115 -106 -187.5t-182 -125.5q-71 -34 -115.5 -63.5t-50.5 -61.5q-3 -28 8 -42t38 -14q44 0 78.5 14.5t73.5 35.5l-24 -164
q-33 -19 -98.5 -36.5t-139.5 -17.5q-106 0 -164.5 41.5t-45.5 128.5q5 33 30 64.5t68 60.5q-135 16 -227.5 84.5t-132.5 180t-18 254.5q22 148 103 273t209.5 201t292.5 76zM461 646h295q6 39 -5.5 72.5t-41.5 53.5t-80 20q-39 0 -75.5 -20t-61 -53.5t-31.5 -72.5z" />
    <glyph glyph-name="Ecaron" unicode="&#x11a;" horiz-adv-x="1302" 
d="M62 0l221 1446h1060l-50 -322h-670l-36 -240h559l-47 -314h-562l-38 -246h676l-50 -324h-1063zM669 1567l-232 293h264l119 -164l147 164h278l-310 -293h-266z" />
    <glyph glyph-name="ecaron" unicode="&#x11b;" horiz-adv-x="1139" 
d="M522 -20q-160 0 -271.5 65.5t-161 183.5t-25.5 275q22 148 103 273t209.5 201t292.5 76q169 0 270.5 -70t139.5 -191.5t15 -274.5l-15 -90h-647q-11 -62 2.5 -101t45.5 -57t74 -18q53 0 98 20t78 80h342q-33 -115 -120 -198.5t-201 -128.5t-229 -45zM461 646h295
q6 39 -5.5 72.5t-41.5 53.5t-80 20q-39 0 -75.5 -20t-61 -53.5t-31.5 -72.5zM536 1155l-232 293h264l119 -164l147 164h278l-310 -293h-266z" />
    <glyph glyph-name="Gcircumflex" unicode="&#x11c;" horiz-adv-x="1557" 
d="M680 -20q-205 0 -343.5 93.5t-198 260t-25.5 384.5q35 225 150 393.5t287.5 261.5t379.5 93q193 0 321 -76t186.5 -197.5t39.5 -256.5h-404q-4 59 -26 106t-65 74.5t-111 27.5q-72 0 -140 -38.5t-120 -129t-76 -246.5q-20 -133 -5.5 -214.5t52 -124.5t86 -58t94.5 -15
q41 0 77.5 12t66.5 31.5t52 43.5t33 49l25 52h-250l40 262l658 -4l-116 -764h-254l23 160q-42 -37 -98.5 -79t-138 -71.5t-200.5 -29.5zM527 1567l276 291h264l268 -291h-278l-124 149l-142 -149h-264z" />
    <glyph glyph-name="gcircumflex" unicode="&#x11d;" horiz-adv-x="1267" 
d="M516 -342q-313 0 -458 76.5t-130 183.5q7 46 39 75t72.5 45t74 24t42.5 11q-10 6 -42.5 26t-59 59.5t-17.5 101.5q8 53 69 100t191 66q-99 48 -144 140.5t-32 183.5q13 90 86.5 157.5t193 105t271.5 37.5q118 0 183 -24t112 -51q34 13 78.5 29.5t94 35t99.5 37.5t95 37
l-32 -280l-184 -35q7 -53 2 -91q-12 -82 -77.5 -159t-180 -126t-274.5 -49q-31 0 -74.5 2t-62.5 3q-22 2 -34.5 4.5t-10.5 -8.5q5 -24 45.5 -33.5t94.5 -14.5q34 -3 90 -5.5t114 -7.5q220 -14 311 -108t73 -222q-20 -142 -175.5 -234t-442.5 -92zM569 -138q109 0 148 24.5
t44 61.5q3 25 -24.5 39t-86.5 18l-187 12q-54 3 -87.5 -10t-49.5 -34t-19 -44q-6 -41 57 -54t205 -13zM593 578q62 0 108.5 45.5t55.5 112.5q8 50 -15.5 87t-72.5 37q-62 0 -109 -50.5t-57 -117.5q-7 -50 17 -82t73 -32zM384 1155l276 291h264l268 -291h-278l-124 149
l-142 -149h-264z" />
    <glyph glyph-name="Gbreve" unicode="&#x11e;" horiz-adv-x="1557" 
d="M680 -20q-205 0 -343.5 93.5t-198 260t-25.5 384.5q35 225 150 393.5t287.5 261.5t379.5 93q193 0 321 -76t186.5 -197.5t39.5 -256.5h-404q-4 59 -26 106t-65 74.5t-111 27.5q-72 0 -140 -38.5t-120 -129t-76 -246.5q-20 -133 -5.5 -214.5t52 -124.5t86 -58t94.5 -15
q41 0 77.5 12t66.5 31.5t52 43.5t33 49l25 52h-250l40 262l658 -4l-116 -764h-254l23 160q-42 -37 -98.5 -79t-138 -71.5t-200.5 -29.5zM933 1568q-86 0 -160 30.5t-124 94.5t-64 165h210q14 -34 36 -60t53.5 -41t74.5 -15q66 0 115 32.5t85 83.5h210q-44 -98 -112.5 -162.5
t-152 -96t-171.5 -31.5z" />
    <glyph glyph-name="gbreve" unicode="&#x11f;" horiz-adv-x="1267" 
d="M516 -342q-313 0 -458 76.5t-130 183.5q7 46 39 75t72.5 45t74 24t42.5 11q-10 6 -42.5 26t-59 59.5t-17.5 101.5q8 53 69 100t191 66q-99 48 -144 140.5t-32 183.5q13 90 86.5 157.5t193 105t271.5 37.5q118 0 183 -24t112 -51q34 13 78.5 29.5t94 35t99.5 37.5t95 37
l-32 -280l-184 -35q7 -53 2 -91q-12 -82 -77.5 -159t-180 -126t-274.5 -49q-31 0 -74.5 2t-62.5 3q-22 2 -34.5 4.5t-10.5 -8.5q5 -24 45.5 -33.5t94.5 -14.5q34 -3 90 -5.5t114 -7.5q220 -14 311 -108t73 -222q-20 -142 -175.5 -234t-442.5 -92zM569 -138q109 0 148 24.5
t44 61.5q3 25 -24.5 39t-86.5 18l-187 12q-54 3 -87.5 -10t-49.5 -34t-19 -44q-6 -41 57 -54t205 -13zM593 578q62 0 108.5 45.5t55.5 112.5q8 50 -15.5 87t-72.5 37q-62 0 -109 -50.5t-57 -117.5q-7 -50 17 -82t73 -32zM790 1156q-86 0 -160 30.5t-124 94.5t-64 165h210
q14 -34 36 -60t53.5 -41t74.5 -15q66 0 115 32.5t85 83.5h210q-44 -98 -112.5 -162.5t-152 -96t-171.5 -31.5z" />
    <glyph glyph-name="Gdotaccent" unicode="&#x120;" horiz-adv-x="1557" 
d="M680 -20q-205 0 -343.5 93.5t-198 260t-25.5 384.5q35 225 150 393.5t287.5 261.5t379.5 93q193 0 321 -76t186.5 -197.5t39.5 -256.5h-404q-4 59 -26 106t-65 74.5t-111 27.5q-72 0 -140 -38.5t-120 -129t-76 -246.5q-20 -133 -5.5 -214.5t52 -124.5t86 -58t94.5 -15
q41 0 77.5 12t66.5 31.5t52 43.5t33 49l25 52h-250l40 262l658 -4l-116 -764h-254l23 160q-42 -37 -98.5 -79t-138 -71.5t-200.5 -29.5zM753 1567l44 291h358l-44 -291h-358z" />
    <glyph glyph-name="gdotaccent" unicode="&#x121;" horiz-adv-x="1267" 
d="M516 -342q-313 0 -458 76.5t-130 183.5q7 46 39 75t72.5 45t74 24t42.5 11q-10 6 -42.5 26t-59 59.5t-17.5 101.5q8 53 69 100t191 66q-99 48 -144 140.5t-32 183.5q13 90 86.5 157.5t193 105t271.5 37.5q118 0 183 -24t112 -51q34 13 78.5 29.5t94 35t99.5 37.5t95 37
l-32 -280l-184 -35q7 -53 2 -91q-12 -82 -77.5 -159t-180 -126t-274.5 -49q-31 0 -74.5 2t-62.5 3q-22 2 -34.5 4.5t-10.5 -8.5q5 -24 45.5 -33.5t94.5 -14.5q34 -3 90 -5.5t114 -7.5q220 -14 311 -108t73 -222q-20 -142 -175.5 -234t-442.5 -92zM569 -138q109 0 148 24.5
t44 61.5q3 25 -24.5 39t-86.5 18l-187 12q-54 3 -87.5 -10t-49.5 -34t-19 -44q-6 -41 57 -54t205 -13zM593 578q62 0 108.5 45.5t55.5 112.5q8 50 -15.5 87t-72.5 37q-62 0 -109 -50.5t-57 -117.5q-7 -50 17 -82t73 -32zM610 1155l44 291h358l-44 -291h-358z" />
    <glyph glyph-name="uni0122" unicode="&#x122;" horiz-adv-x="1557" 
d="M680 -20q-205 0 -343.5 93.5t-198 260t-25.5 384.5q35 225 150 393.5t287.5 261.5t379.5 93q193 0 321 -76t186.5 -197.5t39.5 -256.5h-404q-4 59 -26 106t-65 74.5t-111 27.5q-72 0 -140 -38.5t-120 -129t-76 -246.5q-20 -133 -5.5 -214.5t52 -124.5t86 -58t94.5 -15
q41 0 77.5 12t66.5 31.5t52 43.5t33 49l25 52h-250l40 262l658 -4l-116 -764h-254l23 160q-42 -37 -98.5 -79t-138 -71.5t-200.5 -29.5zM456 -495l124 172l-94 14l31 218h304l-26 -180l-211 -224h-128z" />
    <glyph glyph-name="uni0123" unicode="&#x123;" horiz-adv-x="1267" 
d="M516 -342q-313 0 -458 76.5t-130 183.5q7 46 39 75t72.5 45t74 24t42.5 11q-10 6 -42.5 26t-59 59.5t-17.5 101.5q8 53 69 100t191 66q-99 48 -144 140.5t-32 183.5q13 90 86.5 157.5t193 105t271.5 37.5q118 0 183 -24t112 -51q34 13 78.5 29.5t94 35t99.5 37.5t95 37
l-32 -280l-184 -35q7 -53 2 -91q-12 -82 -77.5 -159t-180 -126t-274.5 -49q-31 0 -74.5 2t-62.5 3q-22 2 -34.5 4.5t-10.5 -8.5q5 -24 45.5 -33.5t94.5 -14.5q34 -3 90 -5.5t114 -7.5q220 -14 311 -108t73 -222q-20 -142 -175.5 -234t-442.5 -92zM569 -138q109 0 148 24.5
t44 61.5q3 25 -24.5 39t-86.5 18l-187 12q-54 3 -87.5 -10t-49.5 -34t-19 -44q-6 -41 57 -54t205 -13zM593 578q62 0 108.5 45.5t55.5 112.5q8 50 -15.5 87t-72.5 37q-62 0 -109 -50.5t-57 -117.5q-7 -50 17 -82t73 -32zM658 1155l30 216l156 168h132l-160 -184h122
l-28 -200h-252z" />
    <glyph glyph-name="Hcircumflex" unicode="&#x124;" horiz-adv-x="1547" 
d="M62 0l204 1446h389l-77 -548h499l77 548h389l-204 -1446h-389l82 580h-499l-82 -580h-389zM526 1567l276 291h264l268 -291h-278l-124 149l-142 -149h-264z" />
    <glyph glyph-name="hcircumflex" unicode="&#x125;" horiz-adv-x="1216" 
d="M27 0l226 1486h389l-88 -580q41 45 104.5 86.5t184.5 41.5q96 0 171.5 -42.5t114 -119.5t22.5 -180l-106 -692h-388l98 646q8 44 -27 69t-79 25q-29 0 -58.5 -12.5t-51 -34.5t-25.5 -51l-99 -642h-388zM48 1567l276 291h264l268 -291h-278l-124 149l-142 -149h-264z" />
    <glyph glyph-name="Hbar" unicode="&#x126;" horiz-adv-x="1679" 
d="M119 1082l30 202h1598l-30 -202h-1598zM134 0l204 1446h389l-77 -548h499l77 548h389l-204 -1446h-389l82 580h-499l-82 -580h-389z" />
    <glyph glyph-name="hbar" unicode="&#x127;" horiz-adv-x="1316" 
d="M128 1132l28 208h722l-28 -208h-722zM127 0l226 1486h389l-88 -580q41 45 104.5 86.5t184.5 41.5q96 0 171.5 -42.5t114 -119.5t22.5 -180l-106 -692h-388l98 646q8 44 -27 69t-79 25q-29 0 -58.5 -12.5t-51 -34.5t-25.5 -51l-99 -642h-388z" />
    <glyph glyph-name="Itilde" unicode="&#x128;" horiz-adv-x="673" 
d="M62 0l219 1446h388l-218 -1446h-389zM176 1584l-28 178q47 44 100.5 75t131.5 31q61 0 115 -16.5t102.5 -33t94.5 -16.5q57 0 110.5 27.5t89.5 54.5l10 -206q-40 -31 -104.5 -56.5t-135.5 -25.5q-58 0 -106 15t-95.5 30t-102.5 15q-51 0 -90 -15.5t-92 -56.5z" />
    <glyph glyph-name="itilde" unicode="&#x129;" horiz-adv-x="600" 
d="M27 0l158 1034h388l-158 -1034h-388zM84 1172l-28 178q47 44 100.5 75t131.5 31q61 0 115 -16.5t102.5 -33t94.5 -16.5q57 0 110.5 27.5t89.5 54.5l10 -206q-40 -31 -104.5 -56.5t-135.5 -25.5q-58 0 -106 15t-95.5 30t-102.5 15q-51 0 -90 -15.5t-92 -56.5z" />
    <glyph glyph-name="Imacron" unicode="&#x12a;" horiz-adv-x="673" 
d="M62 0l219 1446h388l-218 -1446h-389zM110 1590l36 238h796l-36 -238h-796z" />
    <glyph glyph-name="imacron" unicode="&#x12b;" horiz-adv-x="600" 
d="M27 0l158 1034h388l-158 -1034h-388zM18 1178l36 238h796l-36 -238h-796z" />
    <glyph glyph-name="Ibreve" unicode="&#x12c;" horiz-adv-x="673" 
d="M62 0l219 1446h388l-218 -1446h-389zM495 1568q-86 0 -160 30.5t-124 94.5t-64 165h210q14 -34 36 -60t53.5 -41t74.5 -15q66 0 115 32.5t85 83.5h210q-44 -98 -112.5 -162.5t-152 -96t-171.5 -31.5z" />
    <glyph glyph-name="ibreve" unicode="&#x12d;" horiz-adv-x="600" 
d="M27 0l158 1034h388l-158 -1034h-388zM403 1156q-86 0 -160 30.5t-124 94.5t-64 165h210q14 -34 36 -60t53.5 -41t74.5 -15q66 0 115 32.5t85 83.5h210q-44 -98 -112.5 -162.5t-152 -96t-171.5 -31.5z" />
    <glyph glyph-name="Iogonek" unicode="&#x12e;" horiz-adv-x="673" 
d="M62 0l219 1446h388l-218 -1446h-389zM183 -351q-106 0 -164.5 41.5t-45.5 128.5q8 50 49 96t159 86h266q-115 -36 -154.5 -65.5t-45.5 -62.5q-3 -28 8 -42t38 -14q44 0 78.5 14.5t73.5 35.5l-24 -164q-33 -19 -98.5 -36.5t-139.5 -17.5z" />
    <glyph glyph-name="iogonek" unicode="&#x12f;" horiz-adv-x="571" 
d="M27 0l146 1034h370l-146 -1034h-370zM185 1118l46 328h370l-46 -328h-370zM143 -342q-106 0 -164.5 41.5t-45.5 128.5q8 50 49 96t159 86h266q-115 -36 -154.5 -65.5t-45.5 -62.5q-3 -28 8 -42t38 -14q44 0 78.5 14.5t73.5 35.5l-24 -164q-33 -19 -98.5 -36.5
t-139.5 -17.5z" />
    <glyph glyph-name="Idotaccent" unicode="&#x130;" horiz-adv-x="673" 
d="M62 0l219 1446h388l-218 -1446h-389zM315 1567l44 291h358l-44 -291h-358z" />
    <glyph glyph-name="dotlessi" unicode="&#x131;" horiz-adv-x="600" 
d="M27 0l158 1034h388l-158 -1034h-388z" />
    <glyph glyph-name="Jcircumflex" unicode="&#x134;" horiz-adv-x="838" 
d="M215 -20q-61 0 -137.5 5.5t-120.5 14.5l52 350q27 -3 61 -6.5t65 -3.5q104 0 146 53t58 165l136 888h386l-150 -988q-24 -160 -74 -266t-149.5 -159t-272.5 -53zM271 1567l276 291h264l268 -291h-278l-124 149l-142 -149h-264z" />
    <glyph glyph-name="jcircumflex" unicode="&#x135;" horiz-adv-x="633" 
d="M-9 -332q-76 0 -101 17l-25 17l37 260l61 10q57 12 80 32.5t27 51.5l149 978h387l-147 -978q-30 -192 -145.5 -290t-322.5 -98zM23 1155l276 291h264l268 -291h-278l-124 149l-142 -149h-264z" />
    <glyph glyph-name="uni0136" unicode="&#x136;" horiz-adv-x="1490" 
d="M62 0l221 1446h402l-88 -584l504 584h434l-480 -552l324 -894h-414l-228 610l-215 -232l-57 -378h-403zM413 -495l124 172l-94 14l31 218h304l-26 -180l-211 -224h-128z" />
    <glyph glyph-name="uni0137" unicode="&#x137;" horiz-adv-x="1194" 
d="M27 0l224 1486h389l-122 -800l336 348h403l-442 -428l287 -606h-376l-179 380l-88 -88l-46 -292h-386zM298 -495l124 172l-94 14l31 218h304l-26 -180l-211 -224h-128z" />
    <glyph glyph-name="kgreenlandic" unicode="&#x138;" horiz-adv-x="1246" 
d="M27 0l159 1034h385l-57 -390l399 390h380l-380 -334l250 -700h-435l-113 422l-156 -130l-44 -292h-388z" />
    <glyph glyph-name="Lacute" unicode="&#x139;" horiz-adv-x="1155" 
d="M62 0l221 1446h386l-170 -1126h574l-49 -320h-962zM345 1567l247 291h389l-358 -291h-278z" />
    <glyph glyph-name="lacute" unicode="&#x13a;" horiz-adv-x="723" 
d="M413 -22q-142 0 -217.5 30.5t-104 79.5t-28.5 108t8 116l178 1174h380l-170 -1122q-6 -37 8 -70t91 -44l40 -4l-36 -236q-36 -13 -74.5 -22.5t-74.5 -9.5zM335 1651l247 291h389l-358 -291h-278z" />
    <glyph glyph-name="uni013B" unicode="&#x13b;" horiz-adv-x="1155" 
d="M62 0l221 1446h386l-170 -1126h574l-49 -320h-962zM306 -495l124 172l-94 14l31 218h304l-26 -180l-211 -224h-128z" />
    <glyph glyph-name="uni013C" unicode="&#x13c;" horiz-adv-x="701" 
d="M413 -22q-142 0 -217.5 30.5t-104 79.5t-28.5 108t8 116l178 1174h380l-170 -1122q-6 -37 8 -70t91 -44l40 -4l-36 -236q-36 -13 -74.5 -22.5t-74.5 -9.5zM-41 -495l124 172l-94 14l31 218h304l-26 -180l-211 -224h-128z" />
    <glyph glyph-name="Lcaron" unicode="&#x13d;" horiz-adv-x="1155" 
d="M62 0l221 1446h386l-170 -1126h574l-49 -320h-962zM834 966l118 218l-82 14l38 248h240l-40 -260l-124 -220h-150z" />
    <glyph glyph-name="lcaron" unicode="&#x13e;" horiz-adv-x="701" 
d="M413 -22q-142 0 -217.5 30.5t-104 79.5t-28.5 108t8 116l178 1174h380l-170 -1122q-6 -37 8 -70t91 -44l40 -4l-36 -236q-36 -13 -74.5 -22.5t-74.5 -9.5zM663 1006l118 218l-82 14l38 248h240l-40 -260l-124 -220h-150z" />
    <glyph glyph-name="Ldot" unicode="&#x13f;" horiz-adv-x="1217" 
d="M62 0l221 1446h386l-170 -1126h574l-49 -320h-962zM789 640l54 348h360l-54 -348h-360z" />
    <glyph glyph-name="ldot" unicode="&#x140;" horiz-adv-x="983" 
d="M413 -22q-142 0 -217.5 30.5t-104 79.5t-28.5 108t8 116l178 1174h380l-170 -1122q-6 -37 8 -70t91 -44l40 -4l-36 -236q-36 -13 -74.5 -22.5t-74.5 -9.5zM622 640l54 348h360l-54 -348h-360z" />
    <glyph glyph-name="Lslash" unicode="&#x141;" horiz-adv-x="1243" 
d="M48 538v318l874 232v-302zM150 0l221 1446h386l-170 -1126h574l-49 -320h-962z" />
    <glyph glyph-name="lslash" unicode="&#x142;" horiz-adv-x="944" 
d="M94 364v324l831 460v-306zM588 -22q-142 0 -217.5 30.5t-104 79.5t-28.5 108t8 116l178 1174h380l-170 -1122q-6 -37 8 -70t91 -44l40 -4l-36 -236q-36 -13 -74.5 -22.5t-74.5 -9.5z" />
    <glyph glyph-name="Nacute" unicode="&#x143;" horiz-adv-x="1625" 
d="M62 0l221 1446h390l438 -806l121 806h389l-221 -1446h-349l-470 862l-130 -862h-389zM829 1567l247 291h389l-358 -291h-278z" />
    <glyph glyph-name="nacute" unicode="&#x144;" horiz-adv-x="1218" 
d="M27 0l159 1034h381l-18 -124q37 33 74.5 62t89.5 47.5t133 18.5q90 0 165.5 -44.5t116.5 -121.5t25 -174l-106 -698h-388l98 646q8 44 -27 69t-77 25q-28 0 -59 -11.5t-53.5 -32.5t-26.5 -50l-99 -646h-388zM571 1155l247 291h389l-358 -291h-278z" />
    <glyph glyph-name="uni0145" unicode="&#x145;" horiz-adv-x="1625" 
d="M62 0l221 1446h390l438 -806l121 806h389l-221 -1446h-349l-470 862l-130 -862h-389zM499 -495l124 172l-94 14l31 218h304l-26 -180l-211 -224h-128z" />
    <glyph glyph-name="uni0146" unicode="&#x146;" horiz-adv-x="1218" 
d="M27 0l159 1034h381l-18 -124q37 33 74.5 62t89.5 47.5t133 18.5q90 0 165.5 -44.5t116.5 -121.5t25 -174l-106 -698h-388l98 646q8 44 -27 69t-77 25q-28 0 -59 -11.5t-53.5 -32.5t-26.5 -50l-99 -646h-388zM306 -495l124 172l-94 14l31 218h304l-26 -180l-211 -224h-128
z" />
    <glyph glyph-name="Ncaron" unicode="&#x147;" horiz-adv-x="1625" 
d="M62 0l221 1446h390l438 -806l121 806h389l-221 -1446h-349l-470 862l-130 -862h-389zM829 1567l-232 293h264l119 -164l147 164h278l-310 -293h-266z" />
    <glyph glyph-name="ncaron" unicode="&#x148;" horiz-adv-x="1218" 
d="M27 0l159 1034h381l-18 -124q37 33 74.5 62t89.5 47.5t133 18.5q90 0 165.5 -44.5t116.5 -121.5t25 -174l-106 -698h-388l98 646q8 44 -27 69t-77 25q-28 0 -59 -11.5t-53.5 -32.5t-26.5 -50l-99 -646h-388zM571 1155l-232 293h264l119 -164l147 164h278l-310 -293h-266z
" />
    <glyph glyph-name="Eng" unicode="&#x14a;" horiz-adv-x="1625" 
d="M901 -480q-60 0 -136 5.5t-120 14.5l52 350q27 -3 61 -6.5t65 -3.5q87 0 133.5 36.5t59.5 115.5l4 25l-439 805l-130 -862h-389l221 1446h390l438 -806l121 806h389l-221 -1446q-27 -178 -83 -283t-156 -151t-260 -46z" />
    <glyph glyph-name="eng" unicode="&#x14b;" horiz-adv-x="1146" 
d="M562 -332q-79 0 -96 13l-17 13l38 270l44 6q42 8 64 25.5t26 54.5l90 634q6 44 -16 69t-66 25q-42 0 -77 -24t-67 -74l-95 -680h-363l153 1034h349l-22 -162q48 52 102.5 93t113 65t116.5 24q126 0 192 -86t46 -230l-96 -682q-17 -120 -76 -207t-147.5 -134t-195.5 -47z
" />
    <glyph glyph-name="Omacron" unicode="&#x14c;" horiz-adv-x="1564" 
d="M700 -20q-214 0 -357 91.5t-203 257.5t-26 391q35 226 147.5 393.5t283.5 260t380 92.5t351 -92.5t203.5 -260t27.5 -393.5q-34 -224 -145 -390.5t-281 -258t-381 -91.5zM746 292q80 0 148 40.5t117.5 133t72.5 248.5q26 161 5 257.5t-76.5 139.5t-134.5 43
q-119 0 -212.5 -99t-131.5 -341q-23 -156 -1 -248.5t78 -133t135 -40.5zM535 1590l36 238h796l-36 -238h-796z" />
    <glyph glyph-name="omacron" unicode="&#x14d;" horiz-adv-x="1164" 
d="M498 -20q-158 0 -264.5 68t-152 187.5t-22.5 274.5q25 163 110.5 285.5t214 190.5t280.5 68q162 0 268 -70.5t150.5 -193.5t20.5 -280q-24 -154 -106.5 -273.5t-210 -188t-288.5 -68.5zM545 262q61 0 98.5 42.5t57.5 103.5t28 116q9 56 6.5 114.5t-27.5 98t-86 39.5
q-63 0 -101 -39.5t-57 -98t-27 -114.5q-8 -55 -6.5 -116t26.5 -103.5t88 -42.5zM293 1178l36 238h796l-36 -238h-796z" />
    <glyph glyph-name="Obreve" unicode="&#x14e;" horiz-adv-x="1564" 
d="M700 -20q-214 0 -357 91.5t-203 257.5t-26 391q35 226 147.5 393.5t283.5 260t380 92.5t351 -92.5t203.5 -260t27.5 -393.5q-34 -224 -145 -390.5t-281 -258t-381 -91.5zM746 292q80 0 148 40.5t117.5 133t72.5 248.5q26 161 5 257.5t-76.5 139.5t-134.5 43
q-119 0 -212.5 -99t-131.5 -341q-23 -156 -1 -248.5t78 -133t135 -40.5zM920 1568q-86 0 -160 30.5t-124 94.5t-64 165h210q14 -34 36 -60t53.5 -41t74.5 -15q66 0 115 32.5t85 83.5h210q-44 -98 -112.5 -162.5t-152 -96t-171.5 -31.5z" />
    <glyph glyph-name="obreve" unicode="&#x14f;" horiz-adv-x="1164" 
d="M498 -20q-158 0 -264.5 68t-152 187.5t-22.5 274.5q25 163 110.5 285.5t214 190.5t280.5 68q162 0 268 -70.5t150.5 -193.5t20.5 -280q-24 -154 -106.5 -273.5t-210 -188t-288.5 -68.5zM545 262q61 0 98.5 42.5t57.5 103.5t28 116q9 56 6.5 114.5t-27.5 98t-86 39.5
q-63 0 -101 -39.5t-57 -98t-27 -114.5q-8 -55 -6.5 -116t26.5 -103.5t88 -42.5zM678 1156q-86 0 -160 30.5t-124 94.5t-64 165h210q14 -34 36 -60t53.5 -41t74.5 -15q66 0 115 32.5t85 83.5h210q-44 -98 -112.5 -162.5t-152 -96t-171.5 -31.5z" />
    <glyph glyph-name="Ohungarumlaut" unicode="&#x150;" horiz-adv-x="1564" 
d="M700 -20q-214 0 -357 91.5t-203 257.5t-26 391q35 226 147.5 393.5t283.5 260t380 92.5t351 -92.5t203.5 -260t27.5 -393.5q-34 -224 -145 -390.5t-281 -258t-381 -91.5zM746 292q80 0 148 40.5t117.5 133t72.5 248.5q26 161 5 257.5t-76.5 139.5t-134.5 43
q-119 0 -212.5 -99t-131.5 -341q-23 -156 -1 -248.5t78 -133t135 -40.5zM990 1567l215 291h340l-289 -291h-266zM570 1567l165 291h327l-227 -291h-265z" />
    <glyph glyph-name="ohungarumlaut" unicode="&#x151;" horiz-adv-x="1053" 
d="M498 -20q-158 0 -264.5 68t-152 187.5t-22.5 274.5q25 163 110.5 285.5t214 190.5t280.5 68q162 0 268 -70.5t150.5 -193.5t20.5 -280q-24 -154 -106.5 -273.5t-210 -188t-288.5 -68.5zM545 262q61 0 98.5 42.5t57.5 103.5t28 116q9 56 6.5 114.5t-27.5 98t-86 39.5
q-63 0 -101 -39.5t-57 -98t-27 -114.5q-8 -55 -6.5 -116t26.5 -103.5t88 -42.5zM729 1155l215 291h340l-289 -291h-266zM309 1155l165 291h327l-227 -291h-265z" />
    <glyph glyph-name="OE" unicode="&#x152;" horiz-adv-x="2251" 
d="M2292 1446l-50 -322h-670l-36 -240h559l-47 -314h-562l-38 -246h676l-50 -324h-1063l6 42q-72 -30 -151.5 -46t-165.5 -16q-214 0 -357 91.5t-203 257.5t-26 391q35 226 147.5 393.5t283.5 260t380 92.5q86 0 161.5 -16t138.5 -48l7 44h1060zM746 292q80 0 148 40.5
t117.5 133t72.5 248.5q26 161 5 257.5t-76.5 139.5t-134.5 43q-119 0 -212.5 -99t-131.5 -341q-23 -156 -1 -248.5t78 -133t135 -40.5z" />
    <glyph glyph-name="oe" unicode="&#x153;" horiz-adv-x="1834" 
d="M1342 1054q169 0 271.5 -70.5t141 -191.5t12.5 -274l-15 -90h-647q-11 -62 2.5 -101t45.5 -57t74 -18q53 0 98 20t78 80h342q-33 -115 -120 -198.5t-201 -128.5t-229 -45q-106 0 -191.5 29.5t-145.5 83.5q-74 -54 -165 -83.5t-195 -29.5q-158 0 -264.5 68t-152 187.5
t-22.5 274.5q25 163 110.5 285.5t214 190.5t280.5 68q104 0 186 -30.5t139 -85.5q72 54 161 85t192 31zM545 262q61 0 98.5 42.5t57.5 103.5t28 116q9 56 6.5 114.5t-27.5 98t-86 39.5q-63 0 -101 -39.5t-57 -98t-27 -114.5q-8 -55 -6.5 -116t26.5 -103.5t88 -42.5z
M1134 646h295q6 39 -5.5 72.5t-41.5 53.5t-80 20q-39 0 -75 -20t-61 -53.5t-32 -72.5z" />
    <glyph glyph-name="Racute" unicode="&#x154;" horiz-adv-x="1420" 
d="M62 0l219 1446h652q187 0 292 -62t140.5 -167.5t15.5 -236.5q-17 -111 -58.5 -189.5t-101 -134t-132.5 -96.5l168 -560h-396l-133 498h-204l-75 -498h-387zM569 788h222q49 0 92 27.5t72 70.5t36 90q12 75 -33.5 128.5t-110.5 53.5h-222zM721 1567l247 291h389l-358 -291
h-278z" />
    <glyph glyph-name="racute" unicode="&#x155;" horiz-adv-x="868" 
d="M28 0l145 1034h376l-40 -286q35 83 89.5 152.5t129.5 111.5t171 42h11h4l-52 -368q-3 1 -5 1t-7 1q-143 15 -218.5 -11.5t-106 -76.5t-38.5 -104l-70 -496h-389zM441 1155l247 291h389l-358 -291h-278z" />
    <glyph glyph-name="uni0156" unicode="&#x156;" horiz-adv-x="1420" 
d="M62 0l219 1446h652q187 0 292 -62t140.5 -167.5t15.5 -236.5q-17 -111 -58.5 -189.5t-101 -134t-132.5 -96.5l168 -560h-396l-133 498h-204l-75 -498h-387zM569 788h222q49 0 92 27.5t72 70.5t36 90q12 75 -33.5 128.5t-110.5 53.5h-222zM412 -495l124 172l-94 14l31 218
h304l-26 -180l-211 -224h-128z" />
    <glyph glyph-name="uni0157" unicode="&#x157;" horiz-adv-x="849" 
d="M28 0l145 1034h376l-40 -286q35 83 89.5 152.5t129.5 111.5t171 42h11h4l-52 -368q-3 1 -5 1t-7 1q-143 15 -218.5 -11.5t-106 -76.5t-38.5 -104l-70 -496h-389zM-14 -495l124 172l-94 14l31 218h304l-26 -180l-211 -224h-128z" />
    <glyph glyph-name="Rcaron" unicode="&#x158;" horiz-adv-x="1420" 
d="M62 0l219 1446h652q187 0 292 -62t140.5 -167.5t15.5 -236.5q-17 -111 -58.5 -189.5t-101 -134t-132.5 -96.5l168 -560h-396l-133 498h-204l-75 -498h-387zM569 788h222q49 0 92 27.5t72 70.5t36 90q12 75 -33.5 128.5t-110.5 53.5h-222zM721 1567l-232 293h264l119 -164
l147 164h278l-310 -293h-266z" />
    <glyph glyph-name="rcaron" unicode="&#x159;" horiz-adv-x="849" 
d="M28 0l145 1034h376l-40 -286q35 83 89.5 152.5t129.5 111.5t171 42h11h4l-52 -368q-3 1 -5 1t-7 1q-143 15 -218.5 -11.5t-106 -76.5t-38.5 -104l-70 -496h-389zM434 1155l-232 293h264l119 -164l147 164h278l-310 -293h-266z" />
    <glyph glyph-name="Sacute" unicode="&#x15a;" horiz-adv-x="1441" 
d="M654 -20q-113 0 -220.5 26.5t-191.5 82.5t-130.5 143t-37.5 208h402q3 -51 30 -87t75 -55.5t115 -19.5q61 0 117 12t94.5 40.5t46.5 79.5q7 44 -24.5 68t-84.5 37t-113 23l-217 38q-166 27 -252.5 134.5t-62.5 291.5q21 146 118.5 249.5t243 158t310.5 54.5
q177 0 303.5 -64.5t193.5 -168.5t62 -223h-393q3 56 -19.5 90.5t-68.5 50t-114 15.5q-75 0 -121 -17.5t-67.5 -44t-25.5 -52.5q-7 -49 20.5 -79t118.5 -47l217 -38q153 -27 234 -83.5t112 -127.5t32 -141t-7 -124q-18 -123 -115 -220.5t-248 -153.5t-332 -56zM748 1567
l247 291h389l-358 -291h-278z" />
    <glyph glyph-name="sacute" unicode="&#x15b;" horiz-adv-x="1125" 
d="M481 -20q-108 0 -209 37t-166.5 118t-69.5 213h330q6 -50 35.5 -74t63 -31t50.5 -7q65 0 107 15.5t46 46.5q5 29 -20.5 45.5t-93.5 26.5l-149 24q-145 27 -225.5 102t-62.5 214q13 96 78.5 174t177 124t262.5 46q212 0 323.5 -92t88.5 -250h-317q-4 47 -43 69.5t-92 22.5
q-54 0 -93.5 -16t-43.5 -46q-4 -27 29.5 -43.5t114.5 -30.5l130 -24q96 -24 152 -65t82 -88.5t31.5 -93t0.5 -77.5q-15 -111 -88 -186.5t-185 -114.5t-244 -39zM565 1155l247 291h389l-358 -291h-278z" />
    <glyph glyph-name="Scircumflex" unicode="&#x15c;" horiz-adv-x="1441" 
d="M654 -20q-113 0 -220.5 26.5t-191.5 82.5t-130.5 143t-37.5 208h402q3 -51 30 -87t75 -55.5t115 -19.5q61 0 117 12t94.5 40.5t46.5 79.5q7 44 -24.5 68t-84.5 37t-113 23l-217 38q-166 27 -252.5 134.5t-62.5 291.5q21 146 118.5 249.5t243 158t310.5 54.5
q177 0 303.5 -64.5t193.5 -168.5t62 -223h-393q3 56 -19.5 90.5t-68.5 50t-114 15.5q-75 0 -121 -17.5t-67.5 -44t-25.5 -52.5q-7 -49 20.5 -79t118.5 -47l217 -38q153 -27 234 -83.5t112 -127.5t32 -141t-7 -124q-18 -123 -115 -220.5t-248 -153.5t-332 -56zM482 1567
l276 291h264l268 -291h-278l-124 149l-142 -149h-264z" />
    <glyph glyph-name="scircumflex" unicode="&#x15d;" horiz-adv-x="1092" 
d="M481 -20q-108 0 -209 37t-166.5 118t-69.5 213h330q6 -50 35.5 -74t63 -31t50.5 -7q65 0 107 15.5t46 46.5q5 29 -20.5 45.5t-93.5 26.5l-149 24q-145 27 -225.5 102t-62.5 214q13 96 78.5 174t177 124t262.5 46q212 0 323.5 -92t88.5 -250h-317q-4 47 -43 69.5t-92 22.5
q-54 0 -93.5 -16t-43.5 -46q-4 -27 29.5 -43.5t114.5 -30.5l130 -24q96 -24 152 -65t82 -88.5t31.5 -93t0.5 -77.5q-15 -111 -88 -186.5t-185 -114.5t-244 -39zM247 1155l276 291h264l268 -291h-278l-124 149l-142 -149h-264z" />
    <glyph glyph-name="Scedilla" unicode="&#x15e;" horiz-adv-x="1441" 
d="M594 -438q-70 0 -136.5 12t-119.5 46l66 118q32 -19 74.5 -35.5t85.5 -16.5q41 0 68.5 14t31.5 38q5 36 -30 56t-136 20q-15 0 -20.5 4t4.5 20l100 172h156l-58 -114q81 0 126 -25.5t61 -63.5t11 -75q-8 -52 -50 -90t-104 -59t-130 -21zM654 -20q-113 0 -220.5 26.5
t-191.5 82.5t-130.5 143t-37.5 208h402q3 -51 30 -87t75 -55.5t115 -19.5q61 0 117 12t94.5 40.5t46.5 79.5q7 44 -24.5 68t-84.5 37t-113 23l-217 38q-166 27 -252.5 134.5t-62.5 291.5q21 146 118.5 249.5t243 158t310.5 54.5q177 0 303.5 -64.5t193.5 -168.5t62 -223
h-393q3 56 -19.5 90.5t-68.5 50t-114 15.5q-75 0 -121 -17.5t-67.5 -44t-25.5 -52.5q-7 -49 20.5 -79t118.5 -47l217 -38q153 -27 234 -83.5t112 -127.5t32 -141t-7 -124q-18 -123 -115 -220.5t-248 -153.5t-332 -56z" />
    <glyph glyph-name="scedilla" unicode="&#x15f;" horiz-adv-x="1092" 
d="M422 -438q-70 0 -136.5 12t-119.5 46l66 118q32 -19 74.5 -35.5t85.5 -16.5q41 0 68.5 14t31.5 38q5 36 -30 56t-136 20q-15 0 -20.5 4t4.5 20l100 172h156l-58 -114q81 0 126 -25.5t61 -63.5t11 -75q-8 -52 -50 -90t-104 -59t-130 -21zM481 -20q-108 0 -209 37
t-166.5 118t-69.5 213h330q6 -50 35.5 -74t63 -31t50.5 -7q65 0 107 15.5t46 46.5q5 29 -20.5 45.5t-93.5 26.5l-149 24q-145 27 -225.5 102t-62.5 214q13 96 78.5 174t177 124t262.5 46q212 0 323.5 -92t88.5 -250h-317q-4 47 -43 69.5t-92 22.5q-54 0 -93.5 -16t-43.5 -46
q-4 -27 29.5 -43.5t114.5 -30.5l130 -24q96 -24 152 -65t82 -88.5t31.5 -93t0.5 -77.5q-15 -111 -88 -186.5t-185 -114.5t-244 -39z" />
    <glyph glyph-name="Scaron" unicode="&#x160;" horiz-adv-x="1441" 
d="M654 -20q-113 0 -220.5 26.5t-191.5 82.5t-130.5 143t-37.5 208h402q3 -51 30 -87t75 -55.5t115 -19.5q61 0 117 12t94.5 40.5t46.5 79.5q7 44 -24.5 68t-84.5 37t-113 23l-217 38q-166 27 -252.5 134.5t-62.5 291.5q21 146 118.5 249.5t243 158t310.5 54.5
q177 0 303.5 -64.5t193.5 -168.5t62 -223h-393q3 56 -19.5 90.5t-68.5 50t-114 15.5q-75 0 -121 -17.5t-67.5 -44t-25.5 -52.5q-7 -49 20.5 -79t118.5 -47l217 -38q153 -27 234 -83.5t112 -127.5t32 -141t-7 -124q-18 -123 -115 -220.5t-248 -153.5t-332 -56zM748 1567
l-232 293h264l119 -164l147 164h278l-310 -293h-266z" />
    <glyph glyph-name="scaron" unicode="&#x161;" horiz-adv-x="1071" 
d="M481 -20q-108 0 -209 37t-166.5 118t-69.5 213h330q6 -50 35.5 -74t63 -31t50.5 -7q65 0 107 15.5t46 46.5q5 29 -20.5 45.5t-93.5 26.5l-149 24q-145 27 -225.5 102t-62.5 214q13 96 78.5 174t177 124t262.5 46q212 0 323.5 -92t88.5 -250h-317q-4 47 -43 69.5t-92 22.5
q-54 0 -93.5 -16t-43.5 -46q-4 -27 29.5 -43.5t114.5 -30.5l130 -24q96 -24 152 -65t82 -88.5t31.5 -93t0.5 -77.5q-15 -111 -88 -186.5t-185 -114.5t-244 -39zM578 1155l-232 293h264l119 -164l147 164h278l-310 -293h-266z" />
    <glyph glyph-name="uni0162" unicode="&#x162;" horiz-adv-x="1269" 
d="M508 -438q-70 0 -136.5 12t-119.5 46l66 118q32 -19 74.5 -35.5t85.5 -16.5q41 0 68.5 14t31.5 38q5 36 -30 56t-136 20q-15 0 -20.5 4t4.5 20l100 172h156l-58 -114q81 0 126 -25.5t61 -63.5t11 -75q-8 -52 -50 -90t-104 -59t-130 -21zM352 0l166 1104h-406l52 342h1206
l-52 -342h-412l-168 -1104h-386z" />
    <glyph glyph-name="uni0163" unicode="&#x163;" horiz-adv-x="880" 
d="M369 -420q-70 0 -136.5 12t-119.5 46l66 118q32 -19 74.5 -35.5t85.5 -16.5q41 0 68.5 14t31.5 38q5 36 -30 56t-136 20q-15 0 -20.5 4t4.5 20l100 172h156l-58 -114q81 0 126 -25.5t61 -63.5t11 -75q-8 -52 -50 -90t-104 -59t-130 -21zM519 -16q-162 0 -244 40.5
t-105.5 108.5t-11.5 151l74 486h-166l40 264h180l107 322h313l-48 -320h225l-40 -266h-225l-69 -468q-5 -34 11.5 -45t42.5 -11h160l-34 -230q-23 -10 -70 -21t-140 -11z" />
    <glyph glyph-name="Tcaron" unicode="&#x164;" horiz-adv-x="1269" 
d="M352 0l166 1104h-406l52 342h1206l-52 -342h-412l-168 -1104h-386zM662 1567l-232 293h264l119 -164l147 164h278l-310 -293h-266z" />
    <glyph glyph-name="tcaron" unicode="&#x165;" horiz-adv-x="950" 
d="M519 -16q-162 0 -244 40.5t-105.5 108.5t-11.5 151l74 486h-166l40 264h180l107 322h313l-48 -320h225l-40 -266h-225l-69 -468q-5 -34 11.5 -45t42.5 -11h160l-34 -230q-23 -10 -70 -21t-140 -11zM709 1106l118 218l-82 14l38 248h240l-40 -260l-124 -220h-150z" />
    <glyph glyph-name="Tbar" unicode="&#x166;" horiz-adv-x="1269" 
d="M198 548l40 274h854l-40 -274h-854zM352 0l166 1104h-406l52 342h1206l-52 -342h-412l-168 -1104h-386z" />
    <glyph glyph-name="tbar" unicode="&#x167;" horiz-adv-x="927" 
d="M50 450l31 210h723l-31 -210h-723zM529 -16q-162 0 -244 40.5t-105.5 108.5t-11.5 151l74 486h-166l40 264h180l107 322h313l-48 -320h225l-40 -266h-225l-69 -468q-5 -34 11.5 -45t42.5 -11h160l-34 -230q-23 -10 -70 -21t-140 -11z" />
    <glyph glyph-name="Utilde" unicode="&#x168;" horiz-adv-x="1492" 
d="M673 -20q-232 0 -356 78t-161.5 217t-9.5 323l128 848h393l-132 -864q-15 -100 7.5 -160.5t71 -88t109.5 -27.5q89 0 168.5 63t101.5 213l130 864h392l-128 -848q-28 -184 -108 -323t-227.5 -217t-378.5 -78zM593 1584l-28 178q47 44 100.5 75t131.5 31q61 0 115 -16.5
t102.5 -33t94.5 -16.5q57 0 110.5 27.5t89.5 54.5l10 -206q-40 -31 -104.5 -56.5t-135.5 -25.5q-58 0 -106 15t-95.5 30t-102.5 15q-51 0 -90 -15.5t-92 -56.5z" />
    <glyph glyph-name="utilde" unicode="&#x169;" horiz-adv-x="1218" 
d="M406 -20q-63 0 -128 21.5t-118 63.5t-81.5 102.5t-17.5 138.5l102 728h390l-95 -674q-6 -45 22.5 -75.5t87.5 -30.5t97 30.5t44 75.5l95 674h386l-145 -1034h-288l-16 212q-33 -103 -93.5 -152.5t-126 -64.5t-115.5 -15zM376 1172l-28 178q47 44 100.5 75t131.5 31
q61 0 115 -16.5t102.5 -33t94.5 -16.5q57 0 110.5 27.5t89.5 54.5l10 -206q-40 -31 -104.5 -56.5t-135.5 -25.5q-58 0 -106 15t-95.5 30t-102.5 15q-51 0 -90 -15.5t-92 -56.5z" />
    <glyph glyph-name="Umacron" unicode="&#x16a;" horiz-adv-x="1492" 
d="M673 -20q-232 0 -356 78t-161.5 217t-9.5 323l128 848h393l-132 -864q-15 -100 7.5 -160.5t71 -88t109.5 -27.5q89 0 168.5 63t101.5 213l130 864h392l-128 -848q-28 -184 -108 -323t-227.5 -217t-378.5 -78zM527 1590l36 238h796l-36 -238h-796z" />
    <glyph glyph-name="umacron" unicode="&#x16b;" horiz-adv-x="1218" 
d="M406 -20q-63 0 -128 21.5t-118 63.5t-81.5 102.5t-17.5 138.5l102 728h390l-95 -674q-6 -45 22.5 -75.5t87.5 -30.5t97 30.5t44 75.5l95 674h386l-145 -1034h-288l-16 212q-33 -103 -93.5 -152.5t-126 -64.5t-115.5 -15zM310 1178l36 238h796l-36 -238h-796z" />
    <glyph glyph-name="Ubreve" unicode="&#x16c;" horiz-adv-x="1492" 
d="M673 -20q-232 0 -356 78t-161.5 217t-9.5 323l128 848h393l-132 -864q-15 -100 7.5 -160.5t71 -88t109.5 -27.5q89 0 168.5 63t101.5 213l130 864h392l-128 -848q-28 -184 -108 -323t-227.5 -217t-378.5 -78zM912 1568q-86 0 -160 30.5t-124 94.5t-64 165h210
q14 -34 36 -60t53.5 -41t74.5 -15q66 0 115 32.5t85 83.5h210q-44 -98 -112.5 -162.5t-152 -96t-171.5 -31.5z" />
    <glyph glyph-name="ubreve" unicode="&#x16d;" horiz-adv-x="1218" 
d="M406 -20q-63 0 -128 21.5t-118 63.5t-81.5 102.5t-17.5 138.5l102 728h390l-95 -674q-6 -45 22.5 -75.5t87.5 -30.5t97 30.5t44 75.5l95 674h386l-145 -1034h-288l-16 212q-33 -103 -93.5 -152.5t-126 -64.5t-115.5 -15zM695 1156q-86 0 -160 30.5t-124 94.5t-64 165h210
q14 -34 36 -60t53.5 -41t74.5 -15q66 0 115 32.5t85 83.5h210q-44 -98 -112.5 -162.5t-152 -96t-171.5 -31.5z" />
    <glyph glyph-name="Uring" unicode="&#x16e;" horiz-adv-x="1492" 
d="M673 -20q-232 0 -356 78t-161.5 217t-9.5 323l128 848h393l-132 -864q-15 -100 7.5 -160.5t71 -88t109.5 -27.5q89 0 168.5 63t101.5 213l130 864h392l-128 -848q-28 -184 -108 -323t-227.5 -217t-378.5 -78zM908 1530q-96 0 -151.5 67.5t-40.5 164.5q9 61 47.5 111
t94.5 79.5t118 29.5q95 0 151 -65.5t41 -158.5q-9 -64 -47.5 -115.5t-94.5 -82t-118 -30.5zM926 1660q39 0 69.5 29.5t36.5 66.5q6 39 -16.5 65.5t-61.5 26.5t-71.5 -26.5t-38.5 -65.5q-6 -37 18.5 -66.5t63.5 -29.5z" />
    <glyph glyph-name="uring" unicode="&#x16f;" horiz-adv-x="1218" 
d="M406 -20q-63 0 -128 21.5t-118 63.5t-81.5 102.5t-17.5 138.5l102 728h390l-95 -674q-6 -45 22.5 -75.5t87.5 -30.5t97 30.5t44 75.5l95 674h386l-145 -1034h-288l-16 212q-33 -103 -93.5 -152.5t-126 -64.5t-115.5 -15zM691 1118q-96 0 -151.5 67.5t-40.5 164.5
q9 61 47.5 111t94.5 79.5t118 29.5q95 0 151 -65.5t41 -158.5q-9 -64 -47.5 -115.5t-94.5 -82t-118 -30.5zM709 1248q39 0 69.5 29.5t36.5 66.5q6 39 -16.5 65.5t-61.5 26.5t-71.5 -26.5t-38.5 -65.5q-6 -37 18.5 -66.5t63.5 -29.5z" />
    <glyph glyph-name="Uhungarumlaut" unicode="&#x170;" horiz-adv-x="1442" 
d="M673 -20q-232 0 -356 78t-161.5 217t-9.5 323l128 848h393l-132 -864q-15 -100 7.5 -160.5t71 -88t109.5 -27.5q89 0 168.5 63t101.5 213l130 864h392l-128 -848q-28 -184 -108 -323t-227.5 -217t-378.5 -78zM976 1567l215 291h340l-289 -291h-266zM556 1567l165 291h327
l-227 -291h-265z" />
    <glyph glyph-name="uhungarumlaut" unicode="&#x171;" horiz-adv-x="1141" 
d="M406 -20q-63 0 -128 21.5t-118 63.5t-81.5 102.5t-17.5 138.5l102 728h390l-95 -674q-6 -45 22.5 -75.5t87.5 -30.5t97 30.5t44 75.5l95 674h386l-145 -1034h-288l-16 212q-33 -103 -93.5 -152.5t-126 -64.5t-115.5 -15zM786 1155l215 291h340l-289 -291h-266zM366 1155
l165 291h327l-227 -291h-265z" />
    <glyph glyph-name="Uogonek" unicode="&#x172;" horiz-adv-x="1492" 
d="M577 -360q-106 0 -164.5 41.5t-45.5 128.5q8 50 49 96t159 86h266q-115 -36 -154.5 -65.5t-45.5 -62.5q-3 -28 8 -42t38 -14q44 0 78.5 14.5t73.5 35.5l-24 -164q-33 -19 -98.5 -36.5t-139.5 -17.5zM673 -20q-232 0 -356 78t-161.5 217t-9.5 323l128 848h393l-132 -864
q-15 -100 7.5 -160.5t71 -88t109.5 -27.5q89 0 168.5 63t101.5 213l130 864h392l-128 -848q-28 -184 -108 -323t-227.5 -217t-378.5 -78z" />
    <glyph glyph-name="uogonek" unicode="&#x173;" horiz-adv-x="1218" 
d="M406 -20q-63 0 -128 21.5t-118 63.5t-81.5 102.5t-17.5 138.5l102 728h390l-95 -674q-6 -45 22.5 -75.5t87.5 -30.5t97 30.5t44 75.5l95 674h386l-145 -1034h-288l-16 212q-33 -103 -93.5 -152.5t-126 -64.5t-115.5 -15zM773 -340q-106 0 -164.5 41.5t-45.5 128.5
q8 50 49 96t159 86h266q-115 -36 -154.5 -65.5t-45.5 -62.5q-3 -28 8 -42t38 -14q44 0 78.5 14.5t73.5 35.5l-24 -164q-33 -19 -98.5 -36.5t-139.5 -17.5z" />
    <glyph glyph-name="Wcircumflex" unicode="&#x174;" horiz-adv-x="1952" 
d="M375 0l-214 1446h374l104 -776l332 776h270l106 -776l332 776h374l-650 -1446h-288l-108 786l-348 -786h-284zM718 1567l276 291h264l268 -291h-278l-124 149l-142 -149h-264z" />
    <glyph glyph-name="wcircumflex" unicode="&#x175;" horiz-adv-x="1583" 
d="M272 0l-190 1034h336l84 -502v0l228 502h268l70 -504v0l237 504h343l-520 -1034h-275l-77 502l-240 -502h-264zM484 1155l276 291h264l268 -291h-278l-124 149l-142 -149h-264z" />
    <glyph glyph-name="Ycircumflex" unicode="&#x176;" horiz-adv-x="1436" 
d="M434 0l89 602l-377 844h417l207 -514l359 514h423l-641 -844l-92 -602h-385zM441 1567l276 291h264l268 -291h-278l-124 149l-142 -149h-264z" />
    <glyph glyph-name="ycircumflex" unicode="&#x177;" horiz-adv-x="1169" 
d="M179 -330q-118 0 -167 22l-49 22l36 246l98 -6q100 -8 147.5 11.5t62.5 44t18 30.5l8 20l-252 974h380l108 -562l288 562h378l-547 -974q-92 -163 -174.5 -247t-164 -113.5t-170.5 -29.5zM257 1155l276 291h264l268 -291h-278l-124 149l-142 -149h-264z" />
    <glyph glyph-name="Ydieresis" unicode="&#x178;" horiz-adv-x="1436" 
d="M434 0l89 602l-377 844h417l207 -514l359 514h423l-641 -844l-92 -602h-385zM931 1567l44 291h358l-44 -291h-358zM395 1567l44 291h358l-44 -291h-358z" />
    <glyph glyph-name="Zacute" unicode="&#x179;" horiz-adv-x="1408" 
d="M17 0l27 178l821 948h-615l51 320h1170l-26 -170l-836 -952h679l-49 -324h-1222zM783 1567l247 291h389l-358 -291h-278z" />
    <glyph glyph-name="zacute" unicode="&#x17a;" horiz-adv-x="1144" 
d="M-20 0l26 206l523 562h-414l37 266h892l-25 -206l-524 -562h443l-38 -266h-920zM594 1155l247 291h389l-358 -291h-278z" />
    <glyph glyph-name="Zdotaccent" unicode="&#x17b;" horiz-adv-x="1408" 
d="M17 0l27 178l821 948h-615l51 320h1170l-26 -170l-836 -952h679l-49 -324h-1222zM743 1567l44 291h358l-44 -291h-358z" />
    <glyph glyph-name="zdotaccent" unicode="&#x17c;" horiz-adv-x="1025" 
d="M-20 0l26 206l523 562h-414l37 266h892l-25 -206l-524 -562h443l-38 -266h-920zM436 1155l44 291h358l-44 -291h-358z" />
    <glyph glyph-name="Zcaron" unicode="&#x17d;" horiz-adv-x="1408" 
d="M17 0l27 178l821 948h-615l51 320h1170l-26 -170l-836 -952h679l-49 -324h-1222zM783 1567l-232 293h264l119 -164l147 164h278l-310 -293h-266z" />
    <glyph glyph-name="zcaron" unicode="&#x17e;" horiz-adv-x="1091" 
d="M-20 0l26 206l523 562h-414l37 266h892l-25 -206l-524 -562h443l-38 -266h-920zM608 1155l-232 293h264l119 -164l147 164h278l-310 -293h-266z" />
    <glyph glyph-name="uni018F" unicode="&#x18f;" horiz-adv-x="1566" 
d="M703 -20q-200 0 -345 85.5t-208.5 272.5t-20.5 490h929q19 135 -37 207.5t-169 72.5q-56 0 -104.5 -15.5t-85 -41.5t-58.5 -57t-27 -62h-434q13 90 74.5 184t163 173t236.5 128t294 49q219 0 365 -84t208 -245.5t29 -394.5q-37 -262 -153 -430.5t-286.5 -250
t-370.5 -81.5zM750 314q76 0 132 29.5t89.5 83.5t43.5 127l-449 2q-10 -74 7.5 -128.5t62.5 -84t114 -29.5z" />
    <glyph glyph-name="florin" unicode="&#x192;" horiz-adv-x="1165" 
d="M-100 -336l76 254h122q51 0 76.5 23.5t49.5 98.5l240 730h-168l86 264h168l44 138q44 128 149.5 201t246.5 73h276l-80 -252h-120q-34 0 -70 -29.5t-50 -70.5l-20 -60h198l-88 -264h-184l-272 -830q-42 -127 -148.5 -201.5t-249.5 -74.5h-282z" />
    <glyph glyph-name="Ohorn" unicode="&#x1a0;" horiz-adv-x="1732" 
d="M700 -20q-214 0 -357 91.5t-203 257.5t-26 391q35 226 147.5 393.5t283.5 260t380 92.5q153 0 271.5 -50.5t194.5 -144.5q58 -1 96 9t65.5 56.5t52.5 155.5h234q-22 -135 -61 -223t-107.5 -132t-182.5 -50q24 -79 29.5 -171t-10.5 -196q-34 -224 -145 -390.5t-281 -258
t-381 -91.5zM746 292q80 0 148 40.5t117.5 133t72.5 248.5q26 161 5 257.5t-76.5 139.5t-134.5 43q-119 0 -212.5 -99t-131.5 -341q-23 -156 -1 -248.5t78 -133t135 -40.5z" />
    <glyph glyph-name="ohorn" unicode="&#x1a1;" horiz-adv-x="1352" 
d="M498 -20q-158 0 -264.5 68t-152 187.5t-22.5 274.5q25 163 110.5 285.5t214 190.5t280.5 68q123 0 214 -42t147 -116q44 10 73 54.5t57 161.5h234q-30 -182 -91.5 -278.5t-194.5 -119.5q8 -46 8 -97.5t-8 -106.5q-24 -154 -106.5 -273.5t-210 -188t-288.5 -68.5zM545 262
q61 0 98.5 42.5t57.5 103.5t28 116q9 56 6.5 114.5t-27.5 98t-86 39.5q-63 0 -101 -39.5t-57 -98t-27 -114.5q-8 -55 -6.5 -116t26.5 -103.5t88 -42.5z" />
    <glyph glyph-name="Uhorn" unicode="&#x1af;" horiz-adv-x="1813" 
d="M673 -20q-232 0 -356 78t-161 217t-10 323l128 848h393l-132 -864q-15 -100 8 -160.5t71 -88t109 -27.5q89 0 168.5 63t101.5 213l130 864h392l-26 -175q46 1 77 15.5t55 61.5t47 144h234q-25 -152 -71.5 -244t-133.5 -130.5t-236 -29.5l-74 -490q-28 -184 -108 -323
t-227.5 -217t-378.5 -78z" />
    <glyph glyph-name="uhorn" unicode="&#x1b0;" horiz-adv-x="1520" 
d="M406 -20q-63 0 -128 21.5t-118 63.5t-81.5 102.5t-17.5 138.5l102 728h390l-95 -674q-6 -45 22.5 -75.5t87.5 -30.5t97 30.5t44 75.5l95 674h386l-20 -143q46 1 77 16t54.5 61.5t46.5 143.5h234q-25 -151 -71 -243t-133 -130.5t-234 -30.5l-99 -708h-288l-16 212
q-33 -103 -93.5 -152.5t-126 -64.5t-115.5 -15z" />
    <glyph glyph-name="uni01D4" unicode="&#x1d4;" horiz-adv-x="1218" 
d="M406 -20q-63 0 -128 21.5t-118 63.5t-81.5 102.5t-17.5 138.5l102 728h390l-95 -674q-6 -45 22.5 -75.5t87.5 -30.5t97 30.5t44 75.5l95 674h386l-145 -1034h-288l-16 212q-33 -103 -93.5 -152.5t-126 -64.5t-115.5 -15zM555 1155l-232 293h264l119 -164l147 164h278
l-310 -293h-266z" />
    <glyph glyph-name="uni01EA" unicode="&#x1ea;" horiz-adv-x="1564" 
d="M665 -340q-106 0 -164.5 41.5t-45.5 128.5q8 50 49 96t159 86h266q-115 -36 -154.5 -65.5t-45.5 -62.5q-3 -28 8 -42t38 -14q44 0 78.5 14.5t73.5 35.5l-24 -164q-33 -19 -98.5 -36.5t-139.5 -17.5zM700 -20q-214 0 -357 91.5t-203 257.5t-26 391q35 226 147.5 393.5
t283.5 260t380 92.5t351 -92.5t203.5 -260t27.5 -393.5q-34 -224 -145 -390.5t-281 -258t-381 -91.5zM746 292q80 0 148 40.5t117.5 133t72.5 248.5q26 161 5 257.5t-76.5 139.5t-134.5 43q-119 0 -212.5 -99t-131.5 -341q-23 -156 -1 -248.5t78 -133t135 -40.5z" />
    <glyph glyph-name="uni01EB" unicode="&#x1eb;" horiz-adv-x="1164" 
d="M438 -340q-106 0 -164.5 41.5t-45.5 128.5q8 50 49 96t159 86h266q-115 -36 -154.5 -65.5t-45.5 -62.5q-3 -28 8 -42t38 -14q44 0 78.5 14.5t73.5 35.5l-24 -164q-33 -19 -98.5 -36.5t-139.5 -17.5zM498 -20q-158 0 -264.5 68t-152 187.5t-22.5 274.5q25 163 110.5 285.5
t214 190.5t280.5 68q162 0 268 -70.5t150.5 -193.5t20.5 -280q-24 -154 -106.5 -273.5t-210 -188t-288.5 -68.5zM545 262q61 0 98.5 42.5t57.5 103.5t28 116q9 56 6.5 114.5t-27.5 98t-86 39.5q-63 0 -101 -39.5t-57 -98t-27 -114.5q-8 -55 -6.5 -116t26.5 -103.5t88 -42.5z
" />
    <glyph glyph-name="Aringacute" unicode="&#x1fa;" horiz-adv-x="1474" 
d="M1122 1913l-82 -146q48 -24 73.5 -72t15.5 -110q-13 -90 -84 -145t-160 -55q-88 0 -141.5 56.5t-39.5 147.5q10 68 56 117t110 69l53 138h199zM1007 1583q6 39 -17 65.5t-63 26.5q-36 0 -68.5 -26.5t-38.5 -65.5q-6 -37 18 -66.5t62 -29.5q39 0 70 29.5t37 66.5zM-43 0
l730 1446h394l290 -1446h-382l-52 280h-454l-140 -280h-386zM615 612h284l-70 462z" />
    <glyph glyph-name="aringacute" unicode="&#x1fb;" horiz-adv-x="1158" 
d="M917 1501l-82 -146q48 -24 73.5 -72t15.5 -110q-13 -90 -84 -145t-160 -55q-88 0 -141.5 56.5t-39.5 147.5q10 68 56 117t110 69l53 138h199zM802 1171q6 39 -17 65.5t-63 26.5q-36 0 -68.5 -26.5t-38.5 -65.5q-6 -37 18 -66.5t62 -29.5q39 0 70 29.5t37 66.5zM344 -20
q-98 0 -173 38t-112 111.5t-22 180.5q26 168 173.5 261t427.5 93h80l6 44q8 50 -17 73t-81 21q-41 -1 -92 -19t-83 -71h-313q25 122 103.5 197.5t193 110t247.5 34.5q178 0 273 -41t126 -113.5t17 -167.5l-112 -732h-320l-9 164q-63 -105 -136 -144.5t-177 -39.5zM516 226
q29 0 54.5 10t46 27.5t34.5 39.5t19 47l20 130h-62q-31 0 -80.5 -11.5t-91 -39.5t-49.5 -79q-8 -58 25.5 -91t83.5 -33z" />
    <glyph glyph-name="AEacute" unicode="&#x1fc;" horiz-adv-x="2189" 
d="M-73 0l964 1446h1334l-50 -318h-676l-38 -244h567l-48 -314h-565l-38 -250h694l-48 -320h-1136l42 280h-438l-178 -280h-386zM683 612h295l91 590zM1397 1567l247 291h389l-358 -291h-278z" />
    <glyph glyph-name="aeacute" unicode="&#x1fd;" horiz-adv-x="1817" 
d="M348 -20q-97 0 -173 38t-114.5 111.5t-23.5 180.5q23 168 170.5 261t429.5 93h80l6 44q7 50 -18 73t-84 21q-40 -1 -90.5 -19t-82.5 -71h-315q23 122 101 197.5t192.5 110t247.5 34.5q129 0 214 -21.5t134 -60.5q65 39 141.5 60.5t161.5 21.5q169 0 270.5 -70
t139.5 -191.5t15 -274.5l-15 -90h-647q-11 -62 2.5 -101t45.5 -57t74 -18q53 0 98 20t78 80h342q-33 -115 -120 -198.5t-201 -128.5t-229 -45q-139 0 -242 50t-160 140q-37 -61 -92.5 -103.5t-137.5 -64.5t-198 -22zM519 226q38 0 70.5 17.5t55 45.5t28.5 61l18 130h-63
q-30 0 -80 -11.5t-91.5 -39.5t-48.5 -79q-8 -58 26.5 -91t84.5 -33zM1117 646h295q6 39 -5.5 72.5t-41.5 53.5t-80 20q-39 0 -75 -20t-61 -53.5t-32 -72.5zM860 1155l247 291h389l-358 -291h-278z" />
    <glyph glyph-name="Oslashacute" unicode="&#x1fe;" horiz-adv-x="1600" 
d="M106 -28l-130 162l186 158q-37 87 -48 194.5t8 233.5q34 226 146 393.5t283 260t381 92.5q137 0 244 -39t182 -113l188 158l126 -160l-198 -172q38 -85 48 -191t-8 -229q-34 -224 -144.5 -390.5t-280.5 -258t-381 -91.5q-135 0 -241 37.5t-183 104.5zM754 284
q84 0 144 51.5t100 166.5q20 56 35.5 127t28.5 161l-476 -410q41 -96 168 -96zM572 640l480 412q-18 60 -59.5 87t-104.5 27q-93 0 -156.5 -64.5t-105.5 -207.5q-17 -52 -30 -115.5t-24 -138.5zM806 1567l247 291h389l-358 -291h-278z" />
    <glyph glyph-name="oslashacute" unicode="&#x1ff;" horiz-adv-x="1192" 
d="M118 -18l-116 124l1016 944l114 -124zM516 -20q-158 0 -264.5 68t-152 187.5t-22.5 274.5q25 163 110.5 285.5t214 190.5t280.5 68q162 0 268 -70.5t150.5 -193.5t20.5 -280q-24 -154 -106.5 -273.5t-210 -188t-288.5 -68.5zM563 262q61 0 98.5 42.5t57.5 103.5t28 116
q9 56 6.5 114.5t-27.5 98t-86 39.5q-63 0 -101 -39.5t-57 -98t-27 -114.5q-8 -55 -6.5 -116t26.5 -103.5t88 -42.5zM446 1155l247 291h389l-358 -291h-278z" />
    <glyph glyph-name="uni0200" unicode="&#x200;" horiz-adv-x="1474" 
d="M-43 0l730 1446h394l290 -1446h-382l-52 280h-454l-140 -280h-386zM615 612h284l-70 462zM541 1567l-289 291h340l215 -291h-266zM962 1567l-227 291h327l165 -291h-265z" />
    <glyph glyph-name="uni0201" unicode="&#x201;" horiz-adv-x="1318" 
d="M497 -20q-98 0 -173 38t-112 111.5t-22 180.5q26 168 173.5 261t427.5 93h80l6 44q8 50 -17 73t-81 21q-41 -1 -92 -19t-83 -71h-313q25 122 103.5 197.5t193 110t247.5 34.5q178 0 273 -41t126 -113.5t17 -167.5l-112 -732h-320l-9 164q-63 -105 -136 -144.5t-177 -39.5
zM669 226q29 0 54.5 10t46 27.5t34.5 39.5t19 47l20 130h-62q-31 0 -80.5 -11.5t-91 -39.5t-49.5 -79q-8 -58 25.5 -91t83.5 -33zM486 1155l-289 291h340l215 -291h-266zM907 1155l-227 291h327l165 -291h-265z" />
    <glyph glyph-name="uni0202" unicode="&#x202;" horiz-adv-x="1474" 
d="M-43 0l730 1446h394l290 -1446h-382l-52 280h-454l-140 -280h-386zM615 612h284l-70 462zM533 1567q42 101 110 165t150.5 94.5t168.5 30.5q88 0 162.5 -31.5t125 -96t67.5 -162.5h-210q-22 51 -62 83.5t-106 32.5q-43 0 -78.5 -15t-65 -41t-52.5 -60h-210z" />
    <glyph glyph-name="uni0203" unicode="&#x203;" horiz-adv-x="1165" 
d="M344 -20q-98 0 -173 38t-112 111.5t-22 180.5q26 168 173.5 261t427.5 93h80l6 44q8 50 -17 73t-81 21q-41 -1 -92 -19t-83 -71h-313q25 122 103.5 197.5t193 110t247.5 34.5q178 0 273 -41t126 -113.5t17 -167.5l-112 -732h-320l-9 164q-63 -105 -136 -144.5t-177 -39.5
zM516 226q29 0 54.5 10t46 27.5t34.5 39.5t19 47l20 130h-62q-31 0 -80.5 -11.5t-91 -39.5t-49.5 -79q-8 -58 25.5 -91t83.5 -33zM308 1155q42 101 110 165t150.5 94.5t168.5 30.5q88 0 162.5 -31.5t125 -96t67.5 -162.5h-210q-22 51 -62 83.5t-106 32.5q-43 0 -78.5 -15
t-65 -41t-52.5 -60h-210z" />
    <glyph glyph-name="uni0204" unicode="&#x204;" horiz-adv-x="1302" 
d="M62 0l221 1446h1060l-50 -322h-670l-36 -240h559l-47 -314h-562l-38 -246h676l-50 -324h-1063zM447 1567l-289 291h340l215 -291h-266zM868 1567l-227 291h327l165 -291h-265z" />
    <glyph glyph-name="uni0205" unicode="&#x205;" horiz-adv-x="1161" 
d="M522 -20q-160 0 -271.5 65.5t-161 183.5t-25.5 275q22 148 103 273t209.5 201t292.5 76q169 0 270.5 -70t139.5 -191.5t15 -274.5l-15 -90h-647q-11 -62 2.5 -101t45.5 -57t74 -18q53 0 98 20t78 80h342q-33 -115 -120 -198.5t-201 -128.5t-229 -45zM461 646h295
q6 39 -5.5 72.5t-41.5 53.5t-80 20q-39 0 -75.5 -20t-61 -53.5t-31.5 -72.5zM323 1155l-289 291h340l215 -291h-266zM744 1155l-227 291h327l165 -291h-265z" />
    <glyph glyph-name="uni0206" unicode="&#x206;" horiz-adv-x="1302" 
d="M62 0l221 1446h1060l-50 -322h-670l-36 -240h559l-47 -314h-562l-38 -246h676l-50 -324h-1063zM439 1567q42 101 110 165t150.5 94.5t168.5 30.5q88 0 162.5 -31.5t125 -96t67.5 -162.5h-210q-22 51 -62 83.5t-106 32.5q-43 0 -78.5 -15t-65 -41t-52.5 -60h-210z" />
    <glyph glyph-name="uni0207" unicode="&#x207;" horiz-adv-x="1161" 
d="M522 -20q-160 0 -271.5 65.5t-161 183.5t-25.5 275q22 148 103 273t209.5 201t292.5 76q169 0 270.5 -70t139.5 -191.5t15 -274.5l-15 -90h-647q-11 -62 2.5 -101t45.5 -57t74 -18q53 0 98 20t78 80h342q-33 -115 -120 -198.5t-201 -128.5t-229 -45zM461 646h295
q6 39 -5.5 72.5t-41.5 53.5t-80 20q-39 0 -75.5 -20t-61 -53.5t-31.5 -72.5zM315 1155q42 101 110 165t150.5 94.5t168.5 30.5q88 0 162.5 -31.5t125 -96t67.5 -162.5h-210q-22 51 -62 83.5t-106 32.5q-43 0 -78.5 -15t-65 -41t-52.5 -60h-210z" />
    <glyph glyph-name="uni0208" unicode="&#x208;" horiz-adv-x="673" 
d="M62 0l219 1446h388l-218 -1446h-389zM133 1567l-289 291h340l215 -291h-266zM554 1567l-227 291h327l165 -291h-265z" />
    <glyph glyph-name="uni0209" unicode="&#x209;" horiz-adv-x="600" 
d="M27 0l158 1034h388l-158 -1034h-388zM41 1155l-289 291h340l215 -291h-266zM462 1155l-227 291h327l165 -291h-265z" />
    <glyph glyph-name="uni020A" unicode="&#x20a;" horiz-adv-x="673" 
d="M62 0l219 1446h388l-218 -1446h-389zM125 1567q42 101 110 165t150.5 94.5t168.5 30.5q88 0 162.5 -31.5t125 -96t67.5 -162.5h-210q-22 51 -62 83.5t-106 32.5q-43 0 -78.5 -15t-65 -41t-52.5 -60h-210z" />
    <glyph glyph-name="uni020B" unicode="&#x20b;" horiz-adv-x="600" 
d="M27 0l158 1034h388l-158 -1034h-388zM33 1155q42 101 110 165t150.5 94.5t168.5 30.5q88 0 162.5 -31.5t125 -96t67.5 -162.5h-210q-22 51 -62 83.5t-106 32.5q-43 0 -78.5 -15t-65 -41t-52.5 -60h-210z" />
    <glyph glyph-name="uni020C" unicode="&#x20c;" horiz-adv-x="1564" 
d="M700 -20q-214 0 -357 91.5t-203 257.5t-26 391q35 226 147.5 393.5t283.5 260t380 92.5t351 -92.5t203.5 -260t27.5 -393.5q-34 -224 -145 -390.5t-281 -258t-381 -91.5zM746 292q80 0 148 40.5t117.5 133t72.5 248.5q26 161 5 257.5t-76.5 139.5t-134.5 43
q-119 0 -212.5 -99t-131.5 -341q-23 -156 -1 -248.5t78 -133t135 -40.5zM558 1567l-289 291h340l215 -291h-266zM979 1567l-227 291h327l165 -291h-265z" />
    <glyph glyph-name="uni020D" unicode="&#x20d;" horiz-adv-x="1164" 
d="M498 -20q-158 0 -264.5 68t-152 187.5t-22.5 274.5q25 163 110.5 285.5t214 190.5t280.5 68q162 0 268 -70.5t150.5 -193.5t20.5 -280q-24 -154 -106.5 -273.5t-210 -188t-288.5 -68.5zM545 262q61 0 98.5 42.5t57.5 103.5t28 116q9 56 6.5 114.5t-27.5 98t-86 39.5
q-63 0 -101 -39.5t-57 -98t-27 -114.5q-8 -55 -6.5 -116t26.5 -103.5t88 -42.5zM316 1155l-289 291h340l215 -291h-266zM737 1155l-227 291h327l165 -291h-265z" />
    <glyph glyph-name="uni020E" unicode="&#x20e;" horiz-adv-x="1564" 
d="M700 -20q-214 0 -357 91.5t-203 257.5t-26 391q35 226 147.5 393.5t283.5 260t380 92.5t351 -92.5t203.5 -260t27.5 -393.5q-34 -224 -145 -390.5t-281 -258t-381 -91.5zM746 292q80 0 148 40.5t117.5 133t72.5 248.5q26 161 5 257.5t-76.5 139.5t-134.5 43
q-119 0 -212.5 -99t-131.5 -341q-23 -156 -1 -248.5t78 -133t135 -40.5zM550 1567q42 101 110 165t150.5 94.5t168.5 30.5q88 0 162.5 -31.5t125 -96t67.5 -162.5h-210q-22 51 -62 83.5t-106 32.5q-43 0 -78.5 -15t-65 -41t-52.5 -60h-210z" />
    <glyph glyph-name="uni020F" unicode="&#x20f;" horiz-adv-x="1164" 
d="M498 -20q-158 0 -264.5 68t-152 187.5t-22.5 274.5q25 163 110.5 285.5t214 190.5t280.5 68q162 0 268 -70.5t150.5 -193.5t20.5 -280q-24 -154 -106.5 -273.5t-210 -188t-288.5 -68.5zM545 262q61 0 98.5 42.5t57.5 103.5t28 116q9 56 6.5 114.5t-27.5 98t-86 39.5
q-63 0 -101 -39.5t-57 -98t-27 -114.5q-8 -55 -6.5 -116t26.5 -103.5t88 -42.5zM308 1155q42 101 110 165t150.5 94.5t168.5 30.5q88 0 162.5 -31.5t125 -96t67.5 -162.5h-210q-22 51 -62 83.5t-106 32.5q-43 0 -78.5 -15t-65 -41t-52.5 -60h-210z" />
    <glyph glyph-name="uni0210" unicode="&#x210;" horiz-adv-x="1420" 
d="M62 0l219 1446h652q187 0 292 -62t140.5 -167.5t15.5 -236.5q-17 -111 -58.5 -189.5t-101 -134t-132.5 -96.5l168 -560h-396l-133 498h-204l-75 -498h-387zM569 788h222q49 0 92 27.5t72 70.5t36 90q12 75 -33.5 128.5t-110.5 53.5h-222zM499 1567l-289 291h340l215 -291
h-266zM920 1567l-227 291h327l165 -291h-265z" />
    <glyph glyph-name="uni0211" unicode="&#x211;" horiz-adv-x="849" 
d="M28 0l145 1034h376l-40 -286q35 83 89.5 152.5t129.5 111.5t171 42h11h4l-52 -368q-3 1 -5 1t-7 1q-143 15 -218.5 -11.5t-106 -76.5t-38.5 -104l-70 -496h-389zM212 1155l-289 291h340l215 -291h-266zM633 1155l-227 291h327l165 -291h-265z" />
    <glyph glyph-name="uni0212" unicode="&#x212;" horiz-adv-x="1420" 
d="M62 0l219 1446h652q187 0 292 -62t140.5 -167.5t15.5 -236.5q-17 -111 -58.5 -189.5t-101 -134t-132.5 -96.5l168 -560h-396l-133 498h-204l-75 -498h-387zM569 788h222q49 0 92 27.5t72 70.5t36 90q12 75 -33.5 128.5t-110.5 53.5h-222zM322 1567q42 101 110 165
t150.5 94.5t168.5 30.5q88 0 162.5 -31.5t125 -96t67.5 -162.5h-210q-22 51 -62 83.5t-106 32.5q-43 0 -78.5 -15t-65 -41t-52.5 -60h-210z" />
    <glyph glyph-name="uni0213" unicode="&#x213;" horiz-adv-x="849" 
d="M28 0l145 1034h376l-40 -286q35 83 89.5 152.5t129.5 111.5t171 42h11h4l-52 -368q-3 1 -5 1t-7 1q-143 15 -218.5 -11.5t-106 -76.5t-38.5 -104l-70 -496h-389zM204 1155q42 101 110 165t150.5 94.5t168.5 30.5q88 0 162.5 -31.5t125 -96t67.5 -162.5h-210
q-22 51 -62 83.5t-106 32.5q-43 0 -78.5 -15t-65 -41t-52.5 -60h-210z" />
    <glyph glyph-name="uni0214" unicode="&#x214;" horiz-adv-x="1492" 
d="M673 -20q-232 0 -356 78t-161.5 217t-9.5 323l128 848h393l-132 -864q-15 -100 7.5 -160.5t71 -88t109.5 -27.5q89 0 168.5 63t101.5 213l130 864h392l-128 -848q-28 -184 -108 -323t-227.5 -217t-378.5 -78zM550 1567l-289 291h340l215 -291h-266zM971 1567l-227 291
h327l165 -291h-265z" />
    <glyph glyph-name="uni0215" unicode="&#x215;" horiz-adv-x="1218" 
d="M406 -20q-63 0 -128 21.5t-118 63.5t-81.5 102.5t-17.5 138.5l102 728h390l-95 -674q-6 -45 22.5 -75.5t87.5 -30.5t97 30.5t44 75.5l95 674h386l-145 -1034h-288l-16 212q-33 -103 -93.5 -152.5t-126 -64.5t-115.5 -15zM333 1155l-289 291h340l215 -291h-266zM754 1155
l-227 291h327l165 -291h-265z" />
    <glyph glyph-name="uni0216" unicode="&#x216;" horiz-adv-x="1492" 
d="M673 -20q-232 0 -356 78t-161.5 217t-9.5 323l128 848h393l-132 -864q-15 -100 7.5 -160.5t71 -88t109.5 -27.5q89 0 168.5 63t101.5 213l130 864h392l-128 -848q-28 -184 -108 -323t-227.5 -217t-378.5 -78zM542 1567q42 101 110 165t150.5 94.5t168.5 30.5
q88 0 162.5 -31.5t125 -96t67.5 -162.5h-210q-22 51 -62 83.5t-106 32.5q-43 0 -78.5 -15t-65 -41t-52.5 -60h-210z" />
    <glyph glyph-name="uni0217" unicode="&#x217;" horiz-adv-x="1218" 
d="M406 -20q-63 0 -128 21.5t-118 63.5t-81.5 102.5t-17.5 138.5l102 728h390l-95 -674q-6 -45 22.5 -75.5t87.5 -30.5t97 30.5t44 75.5l95 674h386l-145 -1034h-288l-16 212q-33 -103 -93.5 -152.5t-126 -64.5t-115.5 -15zM325 1155q42 101 110 165t150.5 94.5t168.5 30.5
q88 0 162.5 -31.5t125 -96t67.5 -162.5h-210q-22 51 -62 83.5t-106 32.5q-43 0 -78.5 -15t-65 -41t-52.5 -60h-210z" />
    <glyph glyph-name="uni0218" unicode="&#x218;" horiz-adv-x="1441" 
d="M654 -20q-113 0 -220.5 26.5t-191.5 82.5t-130.5 143t-37.5 208h402q3 -51 30 -87t75 -55.5t115 -19.5q61 0 117 12t94.5 40.5t46.5 79.5q7 44 -24.5 68t-84.5 37t-113 23l-217 38q-166 27 -252.5 134.5t-62.5 291.5q21 146 118.5 249.5t243 158t310.5 54.5
q177 0 303.5 -64.5t193.5 -168.5t62 -223h-393q3 56 -19.5 90.5t-68.5 50t-114 15.5q-75 0 -121 -17.5t-67.5 -44t-25.5 -52.5q-7 -49 20.5 -79t118.5 -47l217 -38q153 -27 234 -83.5t112 -127.5t32 -141t-7 -124q-18 -123 -115 -220.5t-248 -153.5t-332 -56zM419 -495
l124 172l-94 14l31 218h304l-26 -180l-211 -224h-128z" />
    <glyph glyph-name="uni0219" unicode="&#x219;" horiz-adv-x="1092" 
d="M481 -20q-108 0 -209 37t-166.5 118t-69.5 213h330q6 -50 35.5 -74t63 -31t50.5 -7q65 0 107 15.5t46 46.5q5 29 -20.5 45.5t-93.5 26.5l-149 24q-145 27 -225.5 102t-62.5 214q13 96 78.5 174t177 124t262.5 46q212 0 323.5 -92t88.5 -250h-317q-4 47 -43 69.5t-92 22.5
q-54 0 -93.5 -16t-43.5 -46q-4 -27 29.5 -43.5t114.5 -30.5l130 -24q96 -24 152 -65t82 -88.5t31.5 -93t0.5 -77.5q-15 -111 -88 -186.5t-185 -114.5t-244 -39zM247 -495l124 172l-94 14l31 218h304l-26 -180l-211 -224h-128z" />
    <glyph glyph-name="uni021A" unicode="&#x21a;" horiz-adv-x="1269" 
d="M352 0l166 1104h-406l52 342h1206l-52 -342h-412l-168 -1104h-386zM333 -495l124 172l-94 14l31 218h304l-26 -180l-211 -224h-128z" />
    <glyph glyph-name="uni021B" unicode="&#x21b;" horiz-adv-x="880" 
d="M519 -16q-162 0 -244 40.5t-105.5 108.5t-11.5 151l74 486h-166l40 264h180l107 322h313l-48 -320h225l-40 -266h-225l-69 -468q-5 -34 11.5 -45t42.5 -11h160l-34 -230q-23 -10 -70 -21t-140 -11zM194 -477l124 172l-94 14l31 218h304l-26 -180l-211 -224h-128z" />
    <glyph glyph-name="uni0237" unicode="&#x237;" horiz-adv-x="633" 
d="M-9 -332q-76 0 -101 17l-25 17l37 260l61 10q57 12 80 32.5t27 51.5l149 978h387l-147 -978q-30 -192 -145.5 -290t-322.5 -98z" />
    <glyph glyph-name="uni0259" unicode="&#x259;" horiz-adv-x="1161" 
d="M492 -20q-168 0 -270 70.5t-140 191.5t-15 274l15 90h647q12 62 -2 101t-46 57t-74 18q-53 0 -98 -20t-78 -80h-342q33 115 120 198.5t201.5 128.5t228.5 45q161 0 272 -65.5t160.5 -183.5t25.5 -275q-22 -148 -103 -273t-209 -201t-293 -76zM532 242q40 0 76 20.5
t61 53.5t31 72h-295q-6 -39 5.5 -72t42 -53.5t79.5 -20.5z" />
    <glyph glyph-name="uni02BB" unicode="&#x2bb;" horiz-adv-x="580" 
d="M145 834l46 298q10 66 45 129t89.5 111t122.5 70.5t143 7.5l-16 -100l-28 -4q-48 -7 -98.5 -42t-59.5 -94l-4 -22l162 -18l-50 -336h-352z" />
    <glyph glyph-name="uni02BC" unicode="&#x2bc;" horiz-adv-x="669" 
d="M145 840l31 100l28 4q49 8 104.5 43t73.5 93l7 22l-158 18l101 336h349l-91 -298q-19 -66 -64 -129t-106 -111t-132 -70.5t-143 -7.5z" />
    <glyph glyph-name="circumflex" unicode="&#x2c6;" horiz-adv-x="856" 
d="M114 1155l276 291h264l268 -291h-278l-124 149l-142 -149h-264z" />
    <glyph glyph-name="caron" unicode="&#x2c7;" horiz-adv-x="878" 
d="M390 1155l-232 293h264l119 -164l147 164h278l-310 -293h-266z" />
    <glyph glyph-name="breve" unicode="&#x2d8;" horiz-adv-x="864" 
d="M519 1156q-86 0 -160 30.5t-124 94.5t-64 165h210q14 -34 36 -60t53.5 -41t74.5 -15q66 0 115 32.5t85 83.5h210q-44 -98 -112.5 -162.5t-152 -96t-171.5 -31.5z" />
    <glyph glyph-name="dotaccent" unicode="&#x2d9;" horiz-adv-x="381" 
d="M100 1155l44 291h358l-44 -291h-358z" />
    <glyph glyph-name="ring" unicode="&#x2da;" horiz-adv-x="555" 
d="M348 1096q-96 0 -151.5 67.5t-40.5 164.5q9 61 47.5 111t94.5 79.5t118 29.5q95 0 151 -65.5t41 -158.5q-9 -64 -47.5 -115.5t-94.5 -82t-118 -30.5zM366 1226q39 0 69.5 29.5t36.5 66.5q6 39 -16.5 65.5t-61.5 26.5t-71.5 -26.5t-38.5 -65.5q-6 -37 18.5 -66.5
t63.5 -29.5z" />
    <glyph glyph-name="ogonek" unicode="&#x2db;" horiz-adv-x="567" 
d="M155 -340q-106 0 -164.5 41.5t-45.5 128.5q8 50 49 96t159 86h266q-115 -36 -154.5 -65.5t-45.5 -62.5q-3 -28 8 -42t38 -14q44 0 78.5 14.5t73.5 35.5l-24 -164q-33 -19 -98.5 -36.5t-139.5 -17.5z" />
    <glyph glyph-name="tilde" unicode="&#x2dc;" horiz-adv-x="956" 
d="M235 1172l-28 178q47 44 100.5 75t131.5 31q61 0 115 -16.5t102.5 -33t94.5 -16.5q57 0 110.5 27.5t89.5 54.5l10 -206q-40 -31 -104.5 -56.5t-135.5 -25.5q-58 0 -106 15t-95.5 30t-102.5 15q-51 0 -90 -15.5t-92 -56.5z" />
    <glyph glyph-name="hungarumlaut" unicode="&#x2dd;" horiz-adv-x="954" 
d="M520 1155l215 291h340l-289 -291h-266zM100 1155l165 291h327l-227 -291h-265z" />
    <glyph glyph-name="gravecomb" unicode="&#x300;" 
d="M500 1155l-358 291h389l247 -291h-278z" />
    <glyph glyph-name="acutecomb" unicode="&#x301;" 
d="M100 1155l247 291h389l-358 -291h-278z" />
    <glyph glyph-name="uni0302" unicode="&#x302;" 
d="M114 1155l276 291h264l268 -291h-278l-124 149l-142 -149h-264z" />
    <glyph glyph-name="tildecomb" unicode="&#x303;" 
d="M235 1172l-28 178q47 44 100.5 75t131.5 31q61 0 115 -16.5t102.5 -33t94.5 -16.5q57 0 110.5 27.5t89.5 54.5l10 -206q-40 -31 -104.5 -56.5t-135.5 -25.5q-58 0 -106 15t-95.5 30t-102.5 15q-51 0 -90 -15.5t-92 -56.5z" />
    <glyph glyph-name="uni0304" unicode="&#x304;" 
d="M144 1178l36 238h796l-36 -238h-796z" />
    <glyph glyph-name="uni0306" unicode="&#x306;" 
d="M519 1156q-86 0 -160 30.5t-124 94.5t-64 165h210q14 -34 36 -60t53.5 -41t74.5 -15q66 0 115 32.5t85 83.5h210q-44 -98 -112.5 -162.5t-152 -96t-171.5 -31.5z" />
    <glyph glyph-name="uni0307" unicode="&#x307;" 
d="M100 1155l44 291h358l-44 -291h-358z" />
    <glyph glyph-name="uni0308" unicode="&#x308;" 
d="M636 1155l44 291h358l-44 -291h-358zM100 1155l44 291h358l-44 -291h-358z" />
    <glyph glyph-name="hookabovecomb" unicode="&#x309;" 
d="M749 1134l-62 130q39 23 54 53.5t0 64.5q-12 27 -47.5 31t-70.5 -17l-62 126q107 63 201 45.5t131 -95.5q45 -93 11.5 -182.5t-155.5 -155.5z" />
    <glyph glyph-name="uni030A" unicode="&#x30a;" 
d="M348 1096q-96 0 -151.5 67.5t-40.5 164.5q9 61 47.5 111t94.5 79.5t118 29.5q95 0 151 -65.5t41 -158.5q-9 -64 -47.5 -115.5t-94.5 -82t-118 -30.5zM366 1226q39 0 69.5 29.5t36.5 66.5q6 39 -16.5 65.5t-61.5 26.5t-71.5 -26.5t-38.5 -65.5q-6 -37 18.5 -66.5
t63.5 -29.5z" />
    <glyph glyph-name="uni030B" unicode="&#x30b;" 
d="M520 1155l215 291h340l-289 -291h-266zM100 1155l165 291h327l-227 -291h-265z" />
    <glyph glyph-name="uni030C" unicode="&#x30c;" 
d="M390 1155l-232 293h264l119 -164l147 164h278l-310 -293h-266z" />
    <glyph glyph-name="uni030F" unicode="&#x30f;" 
d="M430 1155l-289 291h340l215 -291h-266zM851 1155l-227 291h327l165 -291h-265z" />
    <glyph glyph-name="uni0311" unicode="&#x311;" 
d="M120 1155q42 101 110 165t150.5 94.5t168.5 30.5q88 0 162.5 -31.5t125 -96t67.5 -162.5h-210q-22 51 -62 83.5t-106 32.5q-43 0 -78.5 -15t-65 -41t-52.5 -60h-210z" />
    <glyph glyph-name="uni0312" unicode="&#x312;" 
d="M555 1155l30 216l156 168h132l-160 -184h122l-28 -200h-252z" />
    <glyph glyph-name="uni031B" unicode="&#x31b;" 
d="M51 880l26 178q53 -1 91 0.5t65.5 19.5t49 64.5t42.5 135.5h234q-27 -163 -79 -257t-153 -127.5t-276 -13.5z" />
    <glyph glyph-name="dotbelowcomb" unicode="&#x323;" 
d="M-124 -433l44 291h358l-44 -291h-358z" />
    <glyph glyph-name="uni0326" unicode="&#x326;" 
d="M-132 -495l124 172l-94 14l31 218h304l-26 -180l-211 -224h-128z" />
    <glyph glyph-name="uni0327" unicode="&#x327;" 
d="M166 -438q-70 0 -136.5 12t-119.5 46l66 118q32 -19 74.5 -35.5t85.5 -16.5q41 0 68.5 14t31.5 38q5 36 -30 56t-136 20q-15 0 -20.5 4t4.5 20l100 172h156l-58 -114q81 0 126 -25.5t61 -63.5t11 -75q-8 -52 -50 -90t-104 -59t-130 -21z" />
    <glyph glyph-name="uni0328" unicode="&#x328;" 
d="M155 -340q-106 0 -164.5 41.5t-45.5 128.5q8 50 49 96t159 86h266q-115 -36 -154.5 -65.5t-45.5 -62.5q-3 -28 8 -42t38 -14q44 0 78.5 14.5t73.5 35.5l-24 -164q-33 -19 -98.5 -36.5t-139.5 -17.5z" />
    <glyph glyph-name="pi" unicode="&#x3c0;" horiz-adv-x="1379" 
d="M19 0q33 84 66.5 185t63.5 205t52 197.5t32 162.5q3 20 -14 20h-142l36 264h1278l-36 -264h-156l-108 -770h-372l108 770h-216q-10 -74 -34 -176t-56 -211.5t-67 -210t-69 -172.5h-366z" />
    <glyph glyph-name="uni1E0C" unicode="&#x1e0c;" horiz-adv-x="1488" 
d="M62 0l211 1446h68.5h123.5q150 0 293 -7.5t266.5 -36t217.5 -91.5t146.5 -173.5t52.5 -281.5q0 -68 -13.5 -157t-47 -185t-94.5 -187.5t-155.5 -165t-228.5 -117.5t-316 -44h-524zM497 306h129q87 0 162.5 44.5t132.5 121t89 175t32 207.5q0 95 -32.5 158.5t-93 95.5
t-145.5 32h-148zM285 -433l44 291h358l-44 -291h-358z" />
    <glyph glyph-name="uni1E0D" unicode="&#x1e0d;" horiz-adv-x="1238" 
d="M428 -20q-214 0 -308 148.5t-59 395.5q34 245 160 387.5t316 142.5q39 0 78.5 -7t75.5 -22.5t65.5 -42t47.5 -66.5l80 570h390l-209 -1486h-275l-16 212q-25 -54 -58.5 -97t-76.5 -73t-95.5 -46t-115.5 -16zM558 252q68 0 118.5 59.5t72.5 212.5q13 92 1.5 148.5
t-41.5 82t-76 25.5q-66 0 -121 -56t-75 -200q-22 -153 16.5 -212.5t104.5 -59.5zM311 -433l44 291h358l-44 -291h-358z" />
    <glyph glyph-name="uni1E24" unicode="&#x1e24;" horiz-adv-x="1547" 
d="M62 0l204 1446h389l-77 -548h499l77 548h389l-204 -1446h-389l82 580h-499l-82 -580h-389zM452 -433l44 291h358l-44 -291h-358z" />
    <glyph glyph-name="uni1E25" unicode="&#x1e25;" horiz-adv-x="1216" 
d="M27 0l226 1486h389l-88 -580q41 45 104.5 86.5t184.5 41.5q96 0 171.5 -42.5t114 -119.5t22.5 -180l-106 -692h-388l98 646q8 44 -27 69t-79 25q-29 0 -58.5 -12.5t-51 -34.5t-25.5 -51l-99 -642h-388zM297 -433l44 291h358l-44 -291h-358z" />
    <glyph glyph-name="uni1E44" unicode="&#x1e44;" horiz-adv-x="1625" 
d="M62 0l221 1446h390l438 -806l121 806h389l-221 -1446h-349l-470 862l-130 -862h-389zM789 1567l44 291h358l-44 -291h-358z" />
    <glyph glyph-name="uni1E45" unicode="&#x1e45;" horiz-adv-x="1218" 
d="M27 0l159 1034h381l-18 -124q37 33 74.5 62t89.5 47.5t133 18.5q90 0 165.5 -44.5t116.5 -121.5t25 -174l-106 -698h-388l98 646q8 44 -27 69t-77 25q-28 0 -59 -11.5t-53.5 -32.5t-26.5 -50l-99 -646h-388zM531 1155l44 291h358l-44 -291h-358z" />
    <glyph glyph-name="uni1E5A" unicode="&#x1e5a;" horiz-adv-x="1420" 
d="M62 0l219 1446h652q187 0 292 -62t140.5 -167.5t15.5 -236.5q-17 -111 -58.5 -189.5t-101 -134t-132.5 -96.5l168 -560h-396l-133 498h-204l-75 -498h-387zM569 788h222q49 0 92 27.5t72 70.5t36 90q12 75 -33.5 128.5t-110.5 53.5h-222zM401 -433l44 291h358l-44 -291
h-358z" />
    <glyph glyph-name="uni1E5B" unicode="&#x1e5b;" horiz-adv-x="849" 
d="M28 0l145 1034h376l-40 -286q35 83 89.5 152.5t129.5 111.5t171 42h11h4l-52 -368q-3 1 -5 1t-7 1q-143 15 -218.5 -11.5t-106 -76.5t-38.5 -104l-70 -496h-389zM-25 -433l44 291h358l-44 -291h-358z" />
    <glyph glyph-name="uni1E62" unicode="&#x1e62;" horiz-adv-x="1441" 
d="M654 -20q-113 0 -220.5 26.5t-191.5 82.5t-130.5 143t-37.5 208h402q3 -51 30 -87t75 -55.5t115 -19.5q61 0 117 12t94.5 40.5t46.5 79.5q7 44 -24.5 68t-84.5 37t-113 23l-217 38q-166 27 -252.5 134.5t-62.5 291.5q21 146 118.5 249.5t243 158t310.5 54.5
q177 0 303.5 -64.5t193.5 -168.5t62 -223h-393q3 56 -19.5 90.5t-68.5 50t-114 15.5q-75 0 -121 -17.5t-67.5 -44t-25.5 -52.5q-7 -49 20.5 -79t118.5 -47l217 -38q153 -27 234 -83.5t112 -127.5t32 -141t-7 -124q-18 -123 -115 -220.5t-248 -153.5t-332 -56zM408 -433
l44 291h358l-44 -291h-358z" />
    <glyph glyph-name="uni1E63" unicode="&#x1e63;" horiz-adv-x="1092" 
d="M481 -20q-108 0 -209 37t-166.5 118t-69.5 213h330q6 -50 35.5 -74t63 -31t50.5 -7q65 0 107 15.5t46 46.5q5 29 -20.5 45.5t-93.5 26.5l-149 24q-145 27 -225.5 102t-62.5 214q13 96 78.5 174t177 124t262.5 46q212 0 323.5 -92t88.5 -250h-317q-4 47 -43 69.5t-92 22.5
q-54 0 -93.5 -16t-43.5 -46q-4 -27 29.5 -43.5t114.5 -30.5l130 -24q96 -24 152 -65t82 -88.5t31.5 -93t0.5 -77.5q-15 -111 -88 -186.5t-185 -114.5t-244 -39zM236 -433l44 291h358l-44 -291h-358z" />
    <glyph glyph-name="uni1E6C" unicode="&#x1e6c;" horiz-adv-x="1269" 
d="M352 0l166 1104h-406l52 342h1206l-52 -342h-412l-168 -1104h-386zM322 -433l44 291h358l-44 -291h-358z" />
    <glyph glyph-name="uni1E6D" unicode="&#x1e6d;" horiz-adv-x="880" 
d="M519 -16q-162 0 -244 40.5t-105.5 108.5t-11.5 151l74 486h-166l40 264h180l107 322h313l-48 -320h225l-40 -266h-225l-69 -468q-5 -34 11.5 -45t42.5 -11h160l-34 -230q-23 -10 -70 -21t-140 -11zM183 -415l44 291h358l-44 -291h-358z" />
    <glyph glyph-name="Wgrave" unicode="&#x1e80;" horiz-adv-x="1952" 
d="M375 0l-214 1446h374l104 -776l332 776h270l106 -776l332 776h374l-650 -1446h-288l-108 786l-348 -786h-284zM969 1567l-358 291h389l247 -291h-278z" />
    <glyph glyph-name="wgrave" unicode="&#x1e81;" horiz-adv-x="1583" 
d="M272 0l-190 1034h336l84 -502v0l228 502h268l70 -504v0l237 504h343l-520 -1034h-275l-77 502l-240 -502h-264zM735 1155l-358 291h389l247 -291h-278z" />
    <glyph glyph-name="Wacute" unicode="&#x1e82;" horiz-adv-x="1952" 
d="M375 0l-214 1446h374l104 -776l332 776h270l106 -776l332 776h374l-650 -1446h-288l-108 786l-348 -786h-284zM984 1567l247 291h389l-358 -291h-278z" />
    <glyph glyph-name="wacute" unicode="&#x1e83;" horiz-adv-x="1583" 
d="M272 0l-190 1034h336l84 -502v0l228 502h268l70 -504v0l237 504h343l-520 -1034h-275l-77 502l-240 -502h-264zM750 1155l247 291h389l-358 -291h-278z" />
    <glyph glyph-name="Wdieresis" unicode="&#x1e84;" horiz-adv-x="1952" 
d="M375 0l-214 1446h374l104 -776l332 776h270l106 -776l332 776h374l-650 -1446h-288l-108 786l-348 -786h-284zM1208 1567l44 291h358l-44 -291h-358zM672 1567l44 291h358l-44 -291h-358z" />
    <glyph glyph-name="wdieresis" unicode="&#x1e85;" horiz-adv-x="1583" 
d="M272 0l-190 1034h336l84 -502v0l228 502h268l70 -504v0l237 504h343l-520 -1034h-275l-77 502l-240 -502h-264zM974 1155l44 291h358l-44 -291h-358zM438 1155l44 291h358l-44 -291h-358z" />
    <glyph glyph-name="uni1E92" unicode="&#x1e92;" horiz-adv-x="1408" 
d="M17 0l27 178l821 948h-615l51 320h1170l-26 -170l-836 -952h679l-49 -324h-1222zM397 -433l44 291h358l-44 -291h-358z" />
    <glyph glyph-name="uni1E93" unicode="&#x1e93;" horiz-adv-x="1025" 
d="M-20 0l26 206l523 562h-414l37 266h892l-25 -206l-524 -562h443l-38 -266h-920zM172 -433l44 291h358l-44 -291h-358z" />
    <glyph glyph-name="uni1EA0" unicode="&#x1ea0;" horiz-adv-x="1474" 
d="M-43 0l730 1446h394l290 -1446h-382l-52 280h-454l-140 -280h-386zM615 612h284l-70 462zM423 -433l44 291h358l-44 -291h-358z" />
    <glyph glyph-name="uni1EA1" unicode="&#x1ea1;" horiz-adv-x="1165" 
d="M344 -20q-98 0 -173 38t-112 111.5t-22 180.5q26 168 173.5 261t427.5 93h80l6 44q8 50 -17 73t-81 21q-41 -1 -92 -19t-83 -71h-313q25 122 103.5 197.5t193 110t247.5 34.5q178 0 273 -41t126 -113.5t17 -167.5l-112 -732h-320l-9 164q-63 -105 -136 -144.5t-177 -39.5
zM516 226q29 0 54.5 10t46 27.5t34.5 39.5t19 47l20 130h-62q-31 0 -80.5 -11.5t-91 -39.5t-49.5 -79q-8 -58 25.5 -91t83.5 -33zM245 -433l44 291h358l-44 -291h-358z" />
    <glyph glyph-name="uni1EA2" unicode="&#x1ea2;" horiz-adv-x="1474" 
d="M-43 0l730 1446h394l290 -1446h-382l-52 280h-454l-140 -280h-386zM615 612h284l-70 462zM981 1546l-62 130q39 23 54 53.5t0 64.5q-12 27 -47.5 31t-70.5 -17l-62 126q107 63 201 45.5t131 -95.5q45 -93 11.5 -182.5t-155.5 -155.5z" />
    <glyph glyph-name="uni1EA3" unicode="&#x1ea3;" horiz-adv-x="1165" 
d="M344 -20q-98 0 -173 38t-112 111.5t-22 180.5q26 168 173.5 261t427.5 93h80l6 44q8 50 -17 73t-81 21q-41 -1 -92 -19t-83 -71h-313q25 122 103.5 197.5t193 110t247.5 34.5q178 0 273 -41t126 -113.5t17 -167.5l-112 -732h-320l-9 164q-63 -105 -136 -144.5t-177 -39.5
zM516 226q29 0 54.5 10t46 27.5t34.5 39.5t19 47l20 130h-62q-31 0 -80.5 -11.5t-91 -39.5t-49.5 -79q-8 -58 25.5 -91t83.5 -33zM755 1134l-62 130q39 23 54 53.5t0 64.5q-12 27 -47.5 31t-70.5 -17l-62 126q107 63 201 45.5t131 -95.5q45 -93 11.5 -182.5t-155.5 -155.5z
" />
    <glyph glyph-name="uni1EA4" unicode="&#x1ea4;" horiz-adv-x="1474" 
d="M-43 0l730 1446h394l290 -1446h-382l-52 280h-454l-140 -280h-386zM615 612h284l-70 462zM493 1567l276 291h264l268 -291h-278l-124 149l-142 -149h-264zM1187 1857l137 258h280l-228 -258h-189z" />
    <glyph glyph-name="uni1EA5" unicode="&#x1ea5;" horiz-adv-x="1158" 
d="M344 -20q-98 0 -173 38t-112 111.5t-22 180.5q26 168 173.5 261t427.5 93h80l6 44q8 50 -17 73t-81 21q-41 -1 -92 -19t-83 -71h-313q25 122 103.5 197.5t193 110t247.5 34.5q178 0 273 -41t126 -113.5t17 -167.5l-112 -732h-320l-9 164q-63 -105 -136 -144.5t-177 -39.5
zM516 226q29 0 54.5 10t46 27.5t34.5 39.5t19 47l20 130h-62q-31 0 -80.5 -11.5t-91 -39.5t-49.5 -79q-8 -58 25.5 -91t83.5 -33zM288 1155l276 291h264l268 -291h-278l-124 149l-142 -149h-264zM982 1445l137 258h280l-228 -258h-189z" />
    <glyph glyph-name="uni1EA6" unicode="&#x1ea6;" horiz-adv-x="1474" 
d="M-43 0l730 1446h394l290 -1446h-382l-52 280h-454l-140 -280h-386zM615 612h284l-70 462zM493 1567l276 291h264l268 -291h-278l-124 149l-142 -149h-264zM1264 1851l-163 258h267l78 -258h-182z" />
    <glyph glyph-name="uni1EA7" unicode="&#x1ea7;" horiz-adv-x="1130" 
d="M344 -20q-98 0 -173 38t-112 111.5t-22 180.5q26 168 173.5 261t427.5 93h80l6 44q8 50 -17 73t-81 21q-41 -1 -92 -19t-83 -71h-313q25 122 103.5 197.5t193 110t247.5 34.5q178 0 273 -41t126 -113.5t17 -167.5l-112 -732h-320l-9 164q-63 -105 -136 -144.5t-177 -39.5
zM516 226q29 0 54.5 10t46 27.5t34.5 39.5t19 47l20 130h-62q-31 0 -80.5 -11.5t-91 -39.5t-49.5 -79q-8 -58 25.5 -91t83.5 -33zM268 1155l276 291h264l268 -291h-278l-124 149l-142 -149h-264zM1039 1439l-163 258h267l78 -258h-182z" />
    <glyph glyph-name="uni1EA8" unicode="&#x1ea8;" horiz-adv-x="1474" 
d="M-43 0l730 1446h394l290 -1446h-382l-52 280h-454l-140 -280h-386zM615 612h284l-70 462zM493 1567l276 291h264l268 -291h-278l-124 149l-142 -149h-264zM1238 1766l-62 130q39 23 54 53.5t0 64.5q-12 27 -47.5 31t-70.5 -17l-62 126q107 63 201 45.5t131 -95.5
q45 -93 11.5 -182.5t-155.5 -155.5z" />
    <glyph glyph-name="uni1EA9" unicode="&#x1ea9;" horiz-adv-x="1158" 
d="M344 -20q-98 0 -173 38t-112 111.5t-22 180.5q26 168 173.5 261t427.5 93h80l6 44q8 50 -17 73t-81 21q-41 -1 -92 -19t-83 -71h-313q25 122 103.5 197.5t193 110t247.5 34.5q178 0 273 -41t126 -113.5t17 -167.5l-112 -732h-320l-9 164q-63 -105 -136 -144.5t-177 -39.5
zM516 226q29 0 54.5 10t46 27.5t34.5 39.5t19 47l20 130h-62q-31 0 -80.5 -11.5t-91 -39.5t-49.5 -79q-8 -58 25.5 -91t83.5 -33zM288 1155l276 291h264l268 -291h-278l-124 149l-142 -149h-264zM1033 1354l-62 130q39 23 54 53.5t0 64.5q-12 27 -47.5 31t-70.5 -17l-62 126
q107 63 201 45.5t131 -95.5q45 -93 11.5 -182.5t-155.5 -155.5z" />
    <glyph glyph-name="uni1EAA" unicode="&#x1eaa;" horiz-adv-x="1474" 
d="M-43 0l730 1446h394l290 -1446h-382l-52 280h-454l-140 -280h-386zM615 612h284l-70 462zM527 1567l276 291h264l268 -291h-278l-124 149l-142 -149h-264zM598 1942l-28 178q47 44 100.5 75t131.5 31q61 0 115 -16.5t102.5 -33t94.5 -16.5q57 0 110.5 27.5t89.5 54.5
l10 -206q-40 -31 -104.5 -56.5t-135.5 -25.5q-58 0 -106 15t-95.5 30t-102.5 15q-51 0 -90 -15.5t-92 -56.5z" />
    <glyph glyph-name="uni1EAB" unicode="&#x1eab;" horiz-adv-x="1165" 
d="M344 -20q-98 0 -173 38t-112 111.5t-22 180.5q26 168 173.5 261t427.5 93h80l6 44q8 50 -17 73t-81 21q-41 -1 -92 -19t-83 -71h-313q25 122 103.5 197.5t193 110t247.5 34.5q178 0 273 -41t126 -113.5t17 -167.5l-112 -732h-320l-9 164q-63 -105 -136 -144.5t-177 -39.5
zM516 226q29 0 54.5 10t46 27.5t34.5 39.5t19 47l20 130h-62q-31 0 -80.5 -11.5t-91 -39.5t-49.5 -79q-8 -58 25.5 -91t83.5 -33zM301 1155l276 291h264l268 -291h-278l-124 149l-142 -149h-264zM372 1530l-28 178q47 44 100.5 75t131.5 31q61 0 115 -16.5t102.5 -33
t94.5 -16.5q57 0 110.5 27.5t89.5 54.5l10 -206q-40 -31 -104.5 -56.5t-135.5 -25.5q-58 0 -106 15t-95.5 30t-102.5 15q-51 0 -90 -15.5t-92 -56.5z" />
    <glyph glyph-name="uni1EAC" unicode="&#x1eac;" horiz-adv-x="1474" 
d="M-43 0l730 1446h394l290 -1446h-382l-52 280h-454l-140 -280h-386zM615 612h284l-70 462zM423 -433l44 291h358l-44 -291h-358zM497 1567l276 291h264l268 -291h-278l-124 149l-142 -149h-264z" />
    <glyph glyph-name="uni1EAD" unicode="&#x1ead;" horiz-adv-x="1165" 
d="M344 -20q-98 0 -173 38t-112 111.5t-22 180.5q26 168 173.5 261t427.5 93h80l6 44q8 50 -17 73t-81 21q-41 -1 -92 -19t-83 -71h-313q25 122 103.5 197.5t193 110t247.5 34.5q178 0 273 -41t126 -113.5t17 -167.5l-112 -732h-320l-9 164q-63 -105 -136 -144.5t-177 -39.5
zM516 226q29 0 54.5 10t46 27.5t34.5 39.5t19 47l20 130h-62q-31 0 -80.5 -11.5t-91 -39.5t-49.5 -79q-8 -58 25.5 -91t83.5 -33zM245 -433l44 291h358l-44 -291h-358zM273 1155l276 291h264l268 -291h-278l-124 149l-142 -149h-264z" />
    <glyph glyph-name="uni1EAE" unicode="&#x1eae;" horiz-adv-x="1474" 
d="M-43 0l730 1446h394l290 -1446h-382l-52 280h-454l-140 -280h-386zM615 612h284l-70 462zM970 1568q-86 0 -160 30.5t-124 94.5t-64 165h210q14 -34 36 -60t53.5 -41t74.5 -15q66 0 115 32.5t85 83.5h210q-44 -98 -112.5 -162.5t-152 -96t-171.5 -31.5zM923 1975l137 258
h280l-228 -258h-189z" />
    <glyph glyph-name="uni1EAF" unicode="&#x1eaf;" horiz-adv-x="1165" 
d="M344 -20q-98 0 -173 38t-112 111.5t-22 180.5q26 168 173.5 261t427.5 93h80l6 44q8 50 -17 73t-81 21q-41 -1 -92 -19t-83 -71h-313q25 122 103.5 197.5t193 110t247.5 34.5q178 0 273 -41t126 -113.5t17 -167.5l-112 -732h-320l-9 164q-63 -105 -136 -144.5t-177 -39.5
zM516 226q29 0 54.5 10t46 27.5t34.5 39.5t19 47l20 130h-62q-31 0 -80.5 -11.5t-91 -39.5t-49.5 -79q-8 -58 25.5 -91t83.5 -33zM746 1156q-86 0 -160 30.5t-124 94.5t-64 165h210q14 -34 36 -60t53.5 -41t74.5 -15q66 0 115 32.5t85 83.5h210q-44 -98 -112.5 -162.5
t-152 -96t-171.5 -31.5zM699 1563l137 258h280l-228 -258h-189z" />
    <glyph glyph-name="uni1EB0" unicode="&#x1eb0;" horiz-adv-x="1474" 
d="M-43 0l730 1446h394l290 -1446h-382l-52 280h-454l-140 -280h-386zM615 612h284l-70 462zM970 1568q-86 0 -160 30.5t-124 94.5t-64 165h210q14 -34 36 -60t53.5 -41t74.5 -15q66 0 115 32.5t85 83.5h210q-44 -98 -112.5 -162.5t-152 -96t-171.5 -31.5zM914 1973
l-163 258h267l78 -258h-182z" />
    <glyph glyph-name="uni1EB1" unicode="&#x1eb1;" horiz-adv-x="1165" 
d="M344 -20q-98 0 -173 38t-112 111.5t-22 180.5q26 168 173.5 261t427.5 93h80l6 44q8 50 -17 73t-81 21q-41 -1 -92 -19t-83 -71h-313q25 122 103.5 197.5t193 110t247.5 34.5q178 0 273 -41t126 -113.5t17 -167.5l-112 -732h-320l-9 164q-63 -105 -136 -144.5t-177 -39.5
zM516 226q29 0 54.5 10t46 27.5t34.5 39.5t19 47l20 130h-62q-31 0 -80.5 -11.5t-91 -39.5t-49.5 -79q-8 -58 25.5 -91t83.5 -33zM746 1156q-86 0 -160 30.5t-124 94.5t-64 165h210q14 -34 36 -60t53.5 -41t74.5 -15q66 0 115 32.5t85 83.5h210q-44 -98 -112.5 -162.5
t-152 -96t-171.5 -31.5zM690 1561l-163 258h267l78 -258h-182z" />
    <glyph glyph-name="uni1EB2" unicode="&#x1eb2;" horiz-adv-x="1474" 
d="M-43 0l730 1446h394l290 -1446h-382l-52 280h-454l-140 -280h-386zM615 612h284l-70 462zM930 1568q-86 0 -160 30.5t-124 94.5t-64 165h210q14 -34 36 -60t53.5 -41t74.5 -15q66 0 115 32.5t85 83.5h210q-44 -98 -112.5 -162.5t-152 -96t-171.5 -31.5zM1008 1814
l-62 130q39 23 54 53.5t0 64.5q-12 27 -47.5 31t-70.5 -17l-62 126q83 49 162 49q123 0 170 -99q45 -93 11.5 -182.5t-155.5 -155.5z" />
    <glyph glyph-name="uni1EB3" unicode="&#x1eb3;" horiz-adv-x="1165" 
d="M344 -20q-98 0 -173 38t-112 111.5t-22 180.5q26 168 173.5 261t427.5 93h80l6 44q8 50 -17 73t-81 21q-41 -1 -92 -19t-83 -71h-313q25 122 103.5 197.5t193 110t247.5 34.5q178 0 273 -41t126 -113.5t17 -167.5l-112 -732h-320l-9 164q-63 -105 -136 -144.5t-177 -39.5
zM516 226q29 0 54.5 10t46 27.5t34.5 39.5t19 47l20 130h-62q-31 0 -80.5 -11.5t-91 -39.5t-49.5 -79q-8 -58 25.5 -91t83.5 -33zM746 1156q-86 0 -160 30.5t-124 94.5t-64 165h210q14 -34 36 -60t53.5 -41t74.5 -15q66 0 115 32.5t85 83.5h210q-44 -98 -112.5 -162.5
t-152 -96t-171.5 -31.5zM824 1402l-62 130q39 23 54 53.5t0 64.5q-12 27 -47.5 31t-70.5 -17l-62 126q83 49 162 49q123 0 170 -99q45 -93 11.5 -182.5t-155.5 -155.5z" />
    <glyph glyph-name="uni1EB4" unicode="&#x1eb4;" horiz-adv-x="1474" 
d="M-43 0l730 1446h394l290 -1446h-382l-52 280h-454l-140 -280h-386zM615 612h284l-70 462zM970 1568q-86 0 -160 30.5t-124 94.5t-64 165h210q14 -34 36 -60t53.5 -41t74.5 -15q66 0 115 32.5t85 83.5h210q-44 -98 -112.5 -162.5t-152 -96t-171.5 -31.5zM636 1942l-28 178
q47 44 100.5 75t131.5 31q61 0 115 -16.5t102.5 -33t94.5 -16.5q57 0 110.5 27.5t89.5 54.5l10 -206q-40 -31 -104.5 -56.5t-135.5 -25.5q-58 0 -106 15t-95.5 30t-102.5 15q-51 0 -90 -15.5t-92 -56.5z" />
    <glyph glyph-name="uni1EB5" unicode="&#x1eb5;" horiz-adv-x="1165" 
d="M344 -20q-98 0 -173 38t-112 111.5t-22 180.5q26 168 173.5 261t427.5 93h80l6 44q8 50 -17 73t-81 21q-41 -1 -92 -19t-83 -71h-313q25 122 103.5 197.5t193 110t247.5 34.5q178 0 273 -41t126 -113.5t17 -167.5l-112 -732h-320l-9 164q-63 -105 -136 -144.5t-177 -39.5
zM516 226q29 0 54.5 10t46 27.5t34.5 39.5t19 47l20 130h-62q-31 0 -80.5 -11.5t-91 -39.5t-49.5 -79q-8 -58 25.5 -91t83.5 -33zM744 1156q-86 0 -160 30.5t-124 94.5t-64 165h210q14 -34 36 -60t53.5 -41t74.5 -15q66 0 115 32.5t85 83.5h210q-44 -98 -112.5 -162.5
t-152 -96t-171.5 -31.5zM410 1530l-28 178q47 44 100.5 75t131.5 31q61 0 115 -16.5t102.5 -33t94.5 -16.5q57 0 110.5 27.5t89.5 54.5l10 -206q-40 -31 -104.5 -56.5t-135.5 -25.5q-58 0 -106 15t-95.5 30t-102.5 15q-51 0 -90 -15.5t-92 -56.5z" />
    <glyph glyph-name="uni1EB6" unicode="&#x1eb6;" horiz-adv-x="1474" 
d="M-43 0l730 1446h394l290 -1446h-382l-52 280h-454l-140 -280h-386zM615 612h284l-70 462zM423 -433l44 291h358l-44 -291h-358zM903 1568q-86 0 -160 30.5t-124 94.5t-64 165h210q14 -34 36 -60t53.5 -41t74.5 -15q66 0 115 32.5t85 83.5h210q-44 -98 -112.5 -162.5
t-152 -96t-171.5 -31.5z" />
    <glyph glyph-name="uni1EB7" unicode="&#x1eb7;" horiz-adv-x="1158" 
d="M344 -20q-98 0 -173 38t-112 111.5t-22 180.5q26 168 173.5 261t427.5 93h80l6 44q8 50 -17 73t-81 21q-41 -1 -92 -19t-83 -71h-313q25 122 103.5 197.5t193 110t247.5 34.5q178 0 273 -41t126 -113.5t17 -167.5l-112 -732h-320l-9 164q-63 -105 -136 -144.5t-177 -39.5
zM516 226q29 0 54.5 10t46 27.5t34.5 39.5t19 47l20 130h-62q-31 0 -80.5 -11.5t-91 -39.5t-49.5 -79q-8 -58 25.5 -91t83.5 -33zM245 -433l44 291h358l-44 -291h-358zM678 1156q-86 0 -160 30.5t-124 94.5t-64 165h210q14 -34 36 -60t53.5 -41t74.5 -15q66 0 115 32.5
t85 83.5h210q-44 -98 -112.5 -162.5t-152 -96t-171.5 -31.5z" />
    <glyph glyph-name="uni1EB8" unicode="&#x1eb8;" horiz-adv-x="1302" 
d="M62 0l221 1446h1060l-50 -322h-670l-36 -240h559l-47 -314h-562l-38 -246h676l-50 -324h-1063zM351 -433l44 291h358l-44 -291h-358z" />
    <glyph glyph-name="uni1EB9" unicode="&#x1eb9;" horiz-adv-x="1161" 
d="M522 -20q-160 0 -271.5 65.5t-161 183.5t-25.5 275q22 148 103 273t209.5 201t292.5 76q169 0 270.5 -70t139.5 -191.5t15 -274.5l-15 -90h-647q-11 -62 2.5 -101t45.5 -57t74 -18q53 0 98 20t78 80h342q-33 -115 -120 -198.5t-201 -128.5t-229 -45zM461 646h295
q6 39 -5.5 72.5t-41.5 53.5t-80 20q-39 0 -75.5 -20t-61 -53.5t-31.5 -72.5zM276 -433l44 291h358l-44 -291h-358z" />
    <glyph glyph-name="uni1EBA" unicode="&#x1eba;" horiz-adv-x="1302" 
d="M62 0l221 1446h1060l-50 -322h-670l-36 -240h559l-47 -314h-562l-38 -246h676l-50 -324h-1063zM887 1546l-62 130q39 23 54 53.5t0 64.5q-12 27 -47.5 31t-70.5 -17l-62 126q107 63 201 45.5t131 -95.5q45 -93 11.5 -182.5t-155.5 -155.5z" />
    <glyph glyph-name="uni1EBB" unicode="&#x1ebb;" horiz-adv-x="1161" 
d="M522 -20q-160 0 -271.5 65.5t-161 183.5t-25.5 275q22 148 103 273t209.5 201t292.5 76q169 0 270.5 -70t139.5 -191.5t15 -274.5l-15 -90h-647q-11 -62 2.5 -101t45.5 -57t74 -18q53 0 98 20t78 80h342q-33 -115 -120 -198.5t-201 -128.5t-229 -45zM461 646h295
q6 39 -5.5 72.5t-41.5 53.5t-80 20q-39 0 -75.5 -20t-61 -53.5t-31.5 -72.5zM763 1134l-62 130q39 23 54 53.5t0 64.5q-12 27 -47.5 31t-70.5 -17l-62 126q107 63 201 45.5t131 -95.5q45 -93 11.5 -182.5t-155.5 -155.5z" />
    <glyph glyph-name="uni1EBC" unicode="&#x1ebc;" horiz-adv-x="1302" 
d="M62 0l221 1446h1060l-50 -322h-670l-36 -240h559l-47 -314h-562l-38 -246h676l-50 -324h-1063zM490 1584l-28 178q47 44 100.5 75t131.5 31q61 0 115 -16.5t102.5 -33t94.5 -16.5q57 0 110.5 27.5t89.5 54.5l10 -206q-40 -31 -104.5 -56.5t-135.5 -25.5q-58 0 -106 15
t-95.5 30t-102.5 15q-51 0 -90 -15.5t-92 -56.5z" />
    <glyph glyph-name="uni1EBD" unicode="&#x1ebd;" horiz-adv-x="1161" 
d="M522 -20q-160 0 -271.5 65.5t-161 183.5t-25.5 275q22 148 103 273t209.5 201t292.5 76q169 0 270.5 -70t139.5 -191.5t15 -274.5l-15 -90h-647q-11 -62 2.5 -101t45.5 -57t74 -18q53 0 98 20t78 80h342q-33 -115 -120 -198.5t-201 -128.5t-229 -45zM461 646h295
q6 39 -5.5 72.5t-41.5 53.5t-80 20q-39 0 -75.5 -20t-61 -53.5t-31.5 -72.5zM366 1172l-28 178q47 44 100.5 75t131.5 31q61 0 115 -16.5t102.5 -33t94.5 -16.5q57 0 110.5 27.5t89.5 54.5l10 -206q-40 -31 -104.5 -56.5t-135.5 -25.5q-58 0 -106 15t-95.5 30t-102.5 15
q-51 0 -90 -15.5t-92 -56.5z" />
    <glyph glyph-name="uni1EBE" unicode="&#x1ebe;" horiz-adv-x="1302" 
d="M62 0l221 1446h1060l-50 -322h-670l-36 -240h559l-47 -314h-562l-38 -246h676l-50 -324h-1063zM399 1567l276 291h264l268 -291h-278l-124 149l-142 -149h-264zM1093 1857l137 258h280l-228 -258h-189z" />
    <glyph glyph-name="uni1EBF" unicode="&#x1ebf;" horiz-adv-x="1161" 
d="M522 -20q-160 0 -271.5 65.5t-161 183.5t-25.5 275q22 148 103 273t209.5 201t292.5 76q169 0 270.5 -70t139.5 -191.5t15 -274.5l-15 -90h-647q-11 -62 2.5 -101t45.5 -57t74 -18q53 0 98 20t78 80h342q-33 -115 -120 -198.5t-201 -128.5t-229 -45zM461 646h295
q6 39 -5.5 72.5t-41.5 53.5t-80 20q-39 0 -75.5 -20t-61 -53.5t-31.5 -72.5zM275 1155l276 291h264l268 -291h-278l-124 149l-142 -149h-264zM969 1445l137 258h280l-228 -258h-189z" />
    <glyph glyph-name="uni1EC0" unicode="&#x1ec0;" horiz-adv-x="1302" 
d="M62 0l221 1446h1060l-50 -322h-670l-36 -240h559l-47 -314h-562l-38 -246h676l-50 -324h-1063zM399 1567l276 291h264l268 -291h-278l-124 149l-142 -149h-264zM1170 1851l-163 258h267l78 -258h-182z" />
    <glyph glyph-name="uni1EC1" unicode="&#x1ec1;" horiz-adv-x="1117" 
d="M522 -20q-160 0 -271.5 65.5t-161 183.5t-25.5 275q22 148 103 273t209.5 201t292.5 76q169 0 270.5 -70t139.5 -191.5t15 -274.5l-15 -90h-647q-11 -62 2.5 -101t45.5 -57t74 -18q53 0 98 20t78 80h342q-33 -115 -120 -198.5t-201 -128.5t-229 -45zM461 646h295
q6 39 -5.5 72.5t-41.5 53.5t-80 20q-39 0 -75.5 -20t-61 -53.5t-31.5 -72.5zM249 1155l276 291h264l268 -291h-278l-124 149l-142 -149h-264zM1020 1439l-163 258h267l78 -258h-182z" />
    <glyph glyph-name="uni1EC2" unicode="&#x1ec2;" horiz-adv-x="1302" 
d="M62 0l221 1446h1060l-50 -322h-670l-36 -240h559l-47 -314h-562l-38 -246h676l-50 -324h-1063zM399 1567l276 291h264l268 -291h-278l-124 149l-142 -149h-264zM1144 1766l-62 130q39 23 54 53.5t0 64.5q-12 27 -47.5 31t-70.5 -17l-62 126q107 63 201 45.5t131 -95.5
q45 -93 11.5 -182.5t-155.5 -155.5z" />
    <glyph glyph-name="uni1EC3" unicode="&#x1ec3;" horiz-adv-x="1161" 
d="M522 -20q-160 0 -271.5 65.5t-161 183.5t-25.5 275q22 148 103 273t209.5 201t292.5 76q169 0 270.5 -70t139.5 -191.5t15 -274.5l-15 -90h-647q-11 -62 2.5 -101t45.5 -57t74 -18q53 0 98 20t78 80h342q-33 -115 -120 -198.5t-201 -128.5t-229 -45zM461 646h295
q6 39 -5.5 72.5t-41.5 53.5t-80 20q-39 0 -75.5 -20t-61 -53.5t-31.5 -72.5zM275 1155l276 291h264l268 -291h-278l-124 149l-142 -149h-264zM1020 1354l-62 130q39 23 54 53.5t0 64.5q-12 27 -47.5 31t-70.5 -17l-62 126q107 63 201 45.5t131 -95.5q45 -93 11.5 -182.5
t-155.5 -155.5z" />
    <glyph glyph-name="uni1EC4" unicode="&#x1ec4;" horiz-adv-x="1302" 
d="M62 0l221 1446h1060l-50 -322h-670l-36 -240h559l-47 -314h-562l-38 -246h676l-50 -324h-1063zM433 1567l276 291h264l268 -291h-278l-124 149l-142 -149h-264zM504 1942l-28 178q47 44 100.5 75t131.5 31q61 0 115 -16.5t102.5 -33t94.5 -16.5q57 0 110.5 27.5
t89.5 54.5l10 -206q-40 -31 -104.5 -56.5t-135.5 -25.5q-58 0 -106 15t-95.5 30t-102.5 15q-51 0 -90 -15.5t-92 -56.5z" />
    <glyph glyph-name="uni1EC5" unicode="&#x1ec5;" horiz-adv-x="1161" 
d="M522 -20q-160 0 -271.5 65.5t-161 183.5t-25.5 275q22 148 103 273t209.5 201t292.5 76q169 0 270.5 -70t139.5 -191.5t15 -274.5l-15 -90h-647q-11 -62 2.5 -101t45.5 -57t74 -18q53 0 98 20t78 80h342q-33 -115 -120 -198.5t-201 -128.5t-229 -45zM461 646h295
q6 39 -5.5 72.5t-41.5 53.5t-80 20q-39 0 -75.5 -20t-61 -53.5t-31.5 -72.5zM309 1155l276 291h264l268 -291h-278l-124 149l-142 -149h-264zM380 1530l-28 178q47 44 100.5 75t131.5 31q61 0 115 -16.5t102.5 -33t94.5 -16.5q57 0 110.5 27.5t89.5 54.5l10 -206
q-40 -31 -104.5 -56.5t-135.5 -25.5q-58 0 -106 15t-95.5 30t-102.5 15q-51 0 -90 -15.5t-92 -56.5z" />
    <glyph glyph-name="uni1EC6" unicode="&#x1ec6;" horiz-adv-x="1302" 
d="M62 0l221 1446h1060l-50 -322h-670l-36 -240h559l-47 -314h-562l-38 -246h676l-50 -324h-1063zM351 -433l44 291h358l-44 -291h-358zM403 1567l276 291h264l268 -291h-278l-124 149l-142 -149h-264z" />
    <glyph glyph-name="uni1EC7" unicode="&#x1ec7;" horiz-adv-x="1161" 
d="M522 -20q-160 0 -271.5 65.5t-161 183.5t-25.5 275q22 148 103 273t209.5 201t292.5 76q169 0 270.5 -70t139.5 -191.5t15 -274.5l-15 -90h-647q-11 -62 2.5 -101t45.5 -57t74 -18q53 0 98 20t78 80h342q-33 -115 -120 -198.5t-201 -128.5t-229 -45zM461 646h295
q6 39 -5.5 72.5t-41.5 53.5t-80 20q-39 0 -75.5 -20t-61 -53.5t-31.5 -72.5zM276 -433l44 291h358l-44 -291h-358zM279 1155l276 291h264l268 -291h-278l-124 149l-142 -149h-264z" />
    <glyph glyph-name="uni1EC8" unicode="&#x1ec8;" horiz-adv-x="673" 
d="M62 0l219 1446h388l-218 -1446h-389zM573 1546l-62 130q39 23 54 53.5t0 64.5q-12 27 -47.5 31t-70.5 -17l-62 126q107 63 201 45.5t131 -95.5q45 -93 11.5 -182.5t-155.5 -155.5z" />
    <glyph glyph-name="uni1EC9" unicode="&#x1ec9;" horiz-adv-x="586" 
d="M27 0l158 1034h388l-158 -1034h-388zM487 1134l-62 130q39 23 54 53.5t0 64.5q-12 27 -47.5 31t-70.5 -17l-62 126q107 63 201 45.5t131 -95.5q45 -93 11.5 -182.5t-155.5 -155.5z" />
    <glyph glyph-name="uni1ECA" unicode="&#x1eca;" horiz-adv-x="673" 
d="M62 0l219 1446h388l-218 -1446h-389zM35 -433l44 291h358l-44 -291h-358z" />
    <glyph glyph-name="uni1ECB" unicode="&#x1ecb;" horiz-adv-x="571" 
d="M27 0l146 1034h370l-146 -1034h-370zM185 1118l46 328h370l-46 -328h-370zM-30 -433l44 291h358l-44 -291h-358z" />
    <glyph glyph-name="uni1ECC" unicode="&#x1ecc;" horiz-adv-x="1564" 
d="M700 -20q-214 0 -357 91.5t-203 257.5t-26 391q35 226 147.5 393.5t283.5 260t380 92.5t351 -92.5t203.5 -260t27.5 -393.5q-34 -224 -145 -390.5t-281 -258t-381 -91.5zM746 292q80 0 148 40.5t117.5 133t72.5 248.5q26 161 5 257.5t-76.5 139.5t-134.5 43
q-119 0 -212.5 -99t-131.5 -341q-23 -156 -1 -248.5t78 -133t135 -40.5zM462 -433l44 291h358l-44 -291h-358z" />
    <glyph glyph-name="uni1ECD" unicode="&#x1ecd;" horiz-adv-x="1164" 
d="M498 -20q-158 0 -264.5 68t-152 187.5t-22.5 274.5q25 163 110.5 285.5t214 190.5t280.5 68q162 0 268 -70.5t150.5 -193.5t20.5 -280q-24 -154 -106.5 -273.5t-210 -188t-288.5 -68.5zM545 262q61 0 98.5 42.5t57.5 103.5t28 116q9 56 6.5 114.5t-27.5 98t-86 39.5
q-63 0 -101 -39.5t-57 -98t-27 -114.5q-8 -55 -6.5 -116t26.5 -103.5t88 -42.5zM256 -433l44 291h358l-44 -291h-358z" />
    <glyph glyph-name="uni1ECE" unicode="&#x1ece;" horiz-adv-x="1564" 
d="M700 -20q-214 0 -357 91.5t-203 257.5t-26 391q35 226 147.5 393.5t283.5 260t380 92.5t351 -92.5t203.5 -260t27.5 -393.5q-34 -224 -145 -390.5t-281 -258t-381 -91.5zM746 292q80 0 148 40.5t117.5 133t72.5 248.5q26 161 5 257.5t-76.5 139.5t-134.5 43
q-119 0 -212.5 -99t-131.5 -341q-23 -156 -1 -248.5t78 -133t135 -40.5zM998 1546l-62 130q39 23 54 53.5t0 64.5q-12 27 -47.5 31t-70.5 -17l-62 126q107 63 201 45.5t131 -95.5q45 -93 11.5 -182.5t-155.5 -155.5z" />
    <glyph glyph-name="uni1ECF" unicode="&#x1ecf;" horiz-adv-x="1164" 
d="M498 -20q-158 0 -264.5 68t-152 187.5t-22.5 274.5q25 163 110.5 285.5t214 190.5t280.5 68q162 0 268 -70.5t150.5 -193.5t20.5 -280q-24 -154 -106.5 -273.5t-210 -188t-288.5 -68.5zM545 262q61 0 98.5 42.5t57.5 103.5t28 116q9 56 6.5 114.5t-27.5 98t-86 39.5
q-63 0 -101 -39.5t-57 -98t-27 -114.5q-8 -55 -6.5 -116t26.5 -103.5t88 -42.5zM756 1134l-62 130q39 23 54 53.5t0 64.5q-12 27 -47.5 31t-70.5 -17l-62 126q107 63 201 45.5t131 -95.5q45 -93 11.5 -182.5t-155.5 -155.5z" />
    <glyph glyph-name="uni1ED0" unicode="&#x1ed0;" horiz-adv-x="1564" 
d="M700 -20q-214 0 -357 91.5t-203 257.5t-26 391q35 226 147.5 393.5t283.5 260t380 92.5t351 -92.5t203.5 -260t27.5 -393.5q-34 -224 -145 -390.5t-281 -258t-381 -91.5zM746 292q80 0 148 40.5t117.5 133t72.5 248.5q26 161 5 257.5t-76.5 139.5t-134.5 43
q-119 0 -212.5 -99t-131.5 -341q-23 -156 -1 -248.5t78 -133t135 -40.5zM510 1567l276 291h264l268 -291h-278l-124 149l-142 -149h-264zM1204 1857l137 258h280l-228 -258h-189z" />
    <glyph glyph-name="uni1ED1" unicode="&#x1ed1;" horiz-adv-x="1071" 
d="M498 -20q-158 0 -264.5 68t-152 187.5t-22.5 274.5q25 163 110.5 285.5t214 190.5t280.5 68q162 0 268 -70.5t150.5 -193.5t20.5 -280q-24 -154 -106.5 -273.5t-210 -188t-288.5 -68.5zM545 262q61 0 98.5 42.5t57.5 103.5t28 116q9 56 6.5 114.5t-27.5 98t-86 39.5
q-63 0 -101 -39.5t-57 -98t-27 -114.5q-8 -55 -6.5 -116t26.5 -103.5t88 -42.5zM248 1155l276 291h264l268 -291h-278l-124 149l-142 -149h-264zM942 1445l137 258h280l-228 -258h-189z" />
    <glyph glyph-name="uni1ED2" unicode="&#x1ed2;" horiz-adv-x="1564" 
d="M700 -20q-214 0 -357 91.5t-203 257.5t-26 391q35 226 147.5 393.5t283.5 260t380 92.5t351 -92.5t203.5 -260t27.5 -393.5q-34 -224 -145 -390.5t-281 -258t-381 -91.5zM746 292q80 0 148 40.5t117.5 133t72.5 248.5q26 161 5 257.5t-76.5 139.5t-134.5 43
q-119 0 -212.5 -99t-131.5 -341q-23 -156 -1 -248.5t78 -133t135 -40.5zM510 1567l276 291h264l268 -291h-278l-124 149l-142 -149h-264zM1281 1851l-163 258h267l78 -258h-182z" />
    <glyph glyph-name="uni1ED3" unicode="&#x1ed3;" horiz-adv-x="1164" 
d="M498 -20q-158 0 -264.5 68t-152 187.5t-22.5 274.5q25 163 110.5 285.5t214 190.5t280.5 68q162 0 268 -70.5t150.5 -193.5t20.5 -280q-24 -154 -106.5 -273.5t-210 -188t-288.5 -68.5zM545 262q61 0 98.5 42.5t57.5 103.5t28 116q9 56 6.5 114.5t-27.5 98t-86 39.5
q-63 0 -101 -39.5t-57 -98t-27 -114.5q-8 -55 -6.5 -116t26.5 -103.5t88 -42.5zM268 1155l276 291h264l268 -291h-278l-124 149l-142 -149h-264zM1039 1439l-163 258h267l78 -258h-182z" />
    <glyph glyph-name="uni1ED4" unicode="&#x1ed4;" horiz-adv-x="1564" 
d="M700 -20q-214 0 -357 91.5t-203 257.5t-26 391q35 226 147.5 393.5t283.5 260t380 92.5t351 -92.5t203.5 -260t27.5 -393.5q-34 -224 -145 -390.5t-281 -258t-381 -91.5zM746 292q80 0 148 40.5t117.5 133t72.5 248.5q26 161 5 257.5t-76.5 139.5t-134.5 43
q-119 0 -212.5 -99t-131.5 -341q-23 -156 -1 -248.5t78 -133t135 -40.5zM510 1567l276 291h264l268 -291h-278l-124 149l-142 -149h-264zM1255 1766l-62 130q39 23 54 53.5t0 64.5q-12 27 -47.5 31t-70.5 -17l-62 126q107 63 201 45.5t131 -95.5q45 -93 11.5 -182.5
t-155.5 -155.5z" />
    <glyph glyph-name="uni1ED5" unicode="&#x1ed5;" horiz-adv-x="1164" 
d="M498 -20q-158 0 -264.5 68t-152 187.5t-22.5 274.5q25 163 110.5 285.5t214 190.5t280.5 68q162 0 268 -70.5t150.5 -193.5t20.5 -280q-24 -154 -106.5 -273.5t-210 -188t-288.5 -68.5zM545 262q61 0 98.5 42.5t57.5 103.5t28 116q9 56 6.5 114.5t-27.5 98t-86 39.5
q-63 0 -101 -39.5t-57 -98t-27 -114.5q-8 -55 -6.5 -116t26.5 -103.5t88 -42.5zM268 1155l276 291h264l268 -291h-278l-124 149l-142 -149h-264zM1013 1354l-62 130q39 23 54 53.5t0 64.5q-12 27 -47.5 31t-70.5 -17l-62 126q107 63 201 45.5t131 -95.5q45 -93 11.5 -182.5
t-155.5 -155.5z" />
    <glyph glyph-name="uni1ED6" unicode="&#x1ed6;" horiz-adv-x="1564" 
d="M700 -20q-214 0 -357 91.5t-203 257.5t-26 391q35 226 147.5 393.5t283.5 260t380 92.5t351 -92.5t203.5 -260t27.5 -393.5q-34 -224 -145 -390.5t-281 -258t-381 -91.5zM746 292q80 0 148 40.5t117.5 133t72.5 248.5q26 161 5 257.5t-76.5 139.5t-134.5 43
q-119 0 -212.5 -99t-131.5 -341q-23 -156 -1 -248.5t78 -133t135 -40.5zM544 1567l276 291h264l268 -291h-278l-124 149l-142 -149h-264zM615 1942l-28 178q47 44 100.5 75t131.5 31q61 0 115 -16.5t102.5 -33t94.5 -16.5q57 0 110.5 27.5t89.5 54.5l10 -206
q-40 -31 -104.5 -56.5t-135.5 -25.5q-58 0 -106 15t-95.5 30t-102.5 15q-51 0 -90 -15.5t-92 -56.5z" />
    <glyph glyph-name="uni1ED7" unicode="&#x1ed7;" horiz-adv-x="1164" 
d="M498 -20q-158 0 -264.5 68t-152 187.5t-22.5 274.5q25 163 110.5 285.5t214 190.5t280.5 68q162 0 268 -70.5t150.5 -193.5t20.5 -280q-24 -154 -106.5 -273.5t-210 -188t-288.5 -68.5zM545 262q61 0 98.5 42.5t57.5 103.5t28 116q9 56 6.5 114.5t-27.5 98t-86 39.5
q-63 0 -101 -39.5t-57 -98t-27 -114.5q-8 -55 -6.5 -116t26.5 -103.5t88 -42.5zM302 1155l276 291h264l268 -291h-278l-124 149l-142 -149h-264zM373 1530l-28 178q47 44 100.5 75t131.5 31q61 0 115 -16.5t102.5 -33t94.5 -16.5q57 0 110.5 27.5t89.5 54.5l10 -206
q-40 -31 -104.5 -56.5t-135.5 -25.5q-58 0 -106 15t-95.5 30t-102.5 15q-51 0 -90 -15.5t-92 -56.5z" />
    <glyph glyph-name="uni1ED8" unicode="&#x1ed8;" horiz-adv-x="1564" 
d="M700 -20q-214 0 -357 91.5t-203 257.5t-26 391q35 226 147.5 393.5t283.5 260t380 92.5t351 -92.5t203.5 -260t27.5 -393.5q-34 -224 -145 -390.5t-281 -258t-381 -91.5zM746 292q80 0 148 40.5t117.5 133t72.5 248.5q26 161 5 257.5t-76.5 139.5t-134.5 43
q-119 0 -212.5 -99t-131.5 -341q-23 -156 -1 -248.5t78 -133t135 -40.5zM462 -433l44 291h358l-44 -291h-358zM514 1567l276 291h264l268 -291h-278l-124 149l-142 -149h-264z" />
    <glyph glyph-name="uni1ED9" unicode="&#x1ed9;" horiz-adv-x="1164" 
d="M498 -20q-158 0 -264.5 68t-152 187.5t-22.5 274.5q25 163 110.5 285.5t214 190.5t280.5 68q162 0 268 -70.5t150.5 -193.5t20.5 -280q-24 -154 -106.5 -273.5t-210 -188t-288.5 -68.5zM545 262q61 0 98.5 42.5t57.5 103.5t28 116q9 56 6.5 114.5t-27.5 98t-86 39.5
q-63 0 -101 -39.5t-57 -98t-27 -114.5q-8 -55 -6.5 -116t26.5 -103.5t88 -42.5zM256 -433l44 291h358l-44 -291h-358zM272 1155l276 291h264l268 -291h-278l-124 149l-142 -149h-264z" />
    <glyph glyph-name="uni1EDA" unicode="&#x1eda;" horiz-adv-x="1732" 
d="M700 -20q-214 0 -357 91.5t-203 257.5t-26 391q35 226 147.5 393.5t283.5 260t380 92.5q153 0 271.5 -50.5t194.5 -144.5q58 -1 96 9t65.5 56.5t52.5 155.5h234q-22 -135 -61 -223t-107.5 -132t-182.5 -50q24 -79 29.5 -171t-10.5 -196q-34 -224 -145 -390.5t-281 -258
t-381 -91.5zM746 292q80 0 148 40.5t117.5 133t72.5 248.5q26 161 5 257.5t-76.5 139.5t-134.5 43q-119 0 -212.5 -99t-131.5 -341q-23 -156 -1 -248.5t78 -133t135 -40.5zM780 1567l247 291h389l-358 -291h-278z" />
    <glyph glyph-name="uni1EDB" unicode="&#x1edb;" horiz-adv-x="1352" 
d="M520 1155l247 291h389l-358 -291h-278zM498 -20q-158 0 -264.5 68t-152 187.5t-22.5 274.5q25 163 110.5 285.5t214 190.5t280.5 68q123 0 214 -42t147 -116q44 10 73 54.5t57 161.5h234q-30 -182 -91.5 -278.5t-194.5 -119.5q8 -46 8 -97.5t-8 -106.5
q-24 -154 -106.5 -273.5t-210 -188t-288.5 -68.5zM545 262q61 0 98.5 42.5t57.5 103.5t28 116q9 56 6.5 114.5t-27.5 98t-86 39.5q-63 0 -101 -39.5t-57 -98t-27 -114.5q-8 -55 -6.5 -116t26.5 -103.5t88 -42.5z" />
    <glyph glyph-name="uni1EDC" unicode="&#x1edc;" horiz-adv-x="1732" 
d="M700 -20q-214 0 -357 91.5t-203 257.5t-26 391q35 226 147.5 393.5t283.5 260t380 92.5q153 0 271.5 -50.5t194.5 -144.5q58 -1 96 9t65.5 56.5t52.5 155.5h234q-22 -135 -61 -223t-107.5 -132t-182.5 -50q24 -79 29.5 -171t-10.5 -196q-34 -224 -145 -390.5t-281 -258
t-381 -91.5zM746 292q80 0 148 40.5t117.5 133t72.5 248.5q26 161 5 257.5t-76.5 139.5t-134.5 43q-119 0 -212.5 -99t-131.5 -341q-23 -156 -1 -248.5t78 -133t135 -40.5zM765 1567l-358 291h389l247 -291h-278z" />
    <glyph glyph-name="uni1EDD" unicode="&#x1edd;" horiz-adv-x="1397" 
d="M549 1155l-358 291h389l247 -291h-278zM543 -20q-158 0 -264.5 68t-152 187.5t-22.5 274.5q25 163 110.5 285.5t214 190.5t280.5 68q123 0 214 -42t147 -116q44 10 73 54.5t57 161.5h234q-30 -182 -91.5 -278.5t-194.5 -119.5q8 -46 8 -97.5t-8 -106.5
q-24 -154 -106.5 -273.5t-210 -188t-288.5 -68.5zM590 262q61 0 98.5 42.5t57.5 103.5t28 116q9 56 6.5 114.5t-27.5 98t-86 39.5q-63 0 -101 -39.5t-57 -98t-27 -114.5q-8 -55 -6.5 -116t26.5 -103.5t88 -42.5z" />
    <glyph glyph-name="uni1EDE" unicode="&#x1ede;" horiz-adv-x="1732" 
d="M700 -20q-214 0 -357 91.5t-203 257.5t-26 391q35 226 147.5 393.5t283.5 260t380 92.5q153 0 271.5 -50.5t194.5 -144.5q58 -1 96 9t65.5 56.5t52.5 155.5h234q-22 -135 -61 -223t-107.5 -132t-182.5 -50q24 -79 29.5 -171t-10.5 -196q-34 -224 -145 -390.5t-281 -258
t-381 -91.5zM746 292q80 0 148 40.5t117.5 133t72.5 248.5q26 161 5 257.5t-76.5 139.5t-134.5 43q-119 0 -212.5 -99t-131.5 -341q-23 -156 -1 -248.5t78 -133t135 -40.5zM998 1546l-62 130q39 23 54 53.5t0 64.5q-12 27 -47.5 31t-70.5 -17l-62 126q107 63 201 45.5
t131 -95.5q45 -93 11.5 -182.5t-155.5 -155.5z" />
    <glyph glyph-name="uni1EDF" unicode="&#x1edf;" horiz-adv-x="1352" 
d="M737 1134l-62 130q39 23 54 53.5t0 64.5q-12 27 -47.5 31t-70.5 -17l-62 126q107 63 201 45.5t131 -95.5q45 -93 11.5 -182.5t-155.5 -155.5zM498 -20q-158 0 -264.5 68t-152 187.5t-22.5 274.5q25 163 110.5 285.5t214 190.5t280.5 68q123 0 214 -42t147 -116
q44 10 73 54.5t57 161.5h234q-30 -182 -91.5 -278.5t-194.5 -119.5q8 -46 8 -97.5t-8 -106.5q-24 -154 -106.5 -273.5t-210 -188t-288.5 -68.5zM545 262q61 0 98.5 42.5t57.5 103.5t28 116q9 56 6.5 114.5t-27.5 98t-86 39.5q-63 0 -101 -39.5t-57 -98t-27 -114.5
q-8 -55 -6.5 -116t26.5 -103.5t88 -42.5z" />
    <glyph glyph-name="uni1EE0" unicode="&#x1ee0;" horiz-adv-x="1732" 
d="M700 -20q-214 0 -357 91.5t-203 257.5t-26 391q35 226 147.5 393.5t283.5 260t380 92.5q153 0 271.5 -50.5t194.5 -144.5q58 -1 96 9t65.5 56.5t52.5 155.5h234q-22 -135 -61 -223t-107.5 -132t-182.5 -50q24 -79 29.5 -171t-10.5 -196q-34 -224 -145 -390.5t-281 -258
t-381 -91.5zM746 292q80 0 148 40.5t117.5 133t72.5 248.5q26 161 5 257.5t-76.5 139.5t-134.5 43q-119 0 -212.5 -99t-131.5 -341q-23 -156 -1 -248.5t78 -133t135 -40.5zM601 1584l-28 178q47 44 100.5 75t131.5 31q61 0 115 -16.5t102.5 -33t94.5 -16.5q57 0 110.5 27.5
t89.5 54.5l10 -206q-40 -31 -104.5 -56.5t-135.5 -25.5q-58 0 -106 15t-95.5 30t-102.5 15q-51 0 -90 -15.5t-92 -56.5z" />
    <glyph glyph-name="uni1EE1" unicode="&#x1ee1;" horiz-adv-x="1352" 
d="M341 1172l-28 178q47 44 100.5 75t131.5 31q61 0 115 -16.5t102.5 -33t94.5 -16.5q57 0 110.5 27.5t89.5 54.5l10 -206q-40 -31 -104.5 -56.5t-135.5 -25.5q-58 0 -106 15t-95.5 30t-102.5 15q-51 0 -90 -15.5t-92 -56.5zM498 -20q-158 0 -264.5 68t-152 187.5
t-22.5 274.5q25 163 110.5 285.5t214 190.5t280.5 68q123 0 214 -42t147 -116q44 10 73 54.5t57 161.5h234q-30 -182 -91.5 -278.5t-194.5 -119.5q8 -46 8 -97.5t-8 -106.5q-24 -154 -106.5 -273.5t-210 -188t-288.5 -68.5zM545 262q61 0 98.5 42.5t57.5 103.5t28 116
q9 56 6.5 114.5t-27.5 98t-86 39.5q-63 0 -101 -39.5t-57 -98t-27 -114.5q-8 -55 -6.5 -116t26.5 -103.5t88 -42.5z" />
    <glyph glyph-name="uni1EE2" unicode="&#x1ee2;" horiz-adv-x="1732" 
d="M700 -20q-214 0 -357 91.5t-203 257.5t-26 391q35 226 147.5 393.5t283.5 260t380 92.5q153 0 271.5 -50.5t194.5 -144.5q58 -1 96 9t65.5 56.5t52.5 155.5h234q-22 -135 -61 -223t-107.5 -132t-182.5 -50q24 -79 29.5 -171t-10.5 -196q-34 -224 -145 -390.5t-281 -258
t-381 -91.5zM746 292q80 0 148 40.5t117.5 133t72.5 248.5q26 161 5 257.5t-76.5 139.5t-134.5 43q-119 0 -212.5 -99t-131.5 -341q-23 -156 -1 -248.5t78 -133t135 -40.5zM462 -433l44 291h358l-44 -291h-358z" />
    <glyph glyph-name="uni1EE3" unicode="&#x1ee3;" horiz-adv-x="1352" 
d="M222 -433l44 291h358l-44 -291h-358zM498 -20q-158 0 -264.5 68t-152 187.5t-22.5 274.5q25 163 110.5 285.5t214 190.5t280.5 68q123 0 214 -42t147 -116q44 10 73 54.5t57 161.5h234q-30 -182 -91.5 -278.5t-194.5 -119.5q8 -46 8 -97.5t-8 -106.5
q-24 -154 -106.5 -273.5t-210 -188t-288.5 -68.5zM545 262q61 0 98.5 42.5t57.5 103.5t28 116q9 56 6.5 114.5t-27.5 98t-86 39.5q-63 0 -101 -39.5t-57 -98t-27 -114.5q-8 -55 -6.5 -116t26.5 -103.5t88 -42.5z" />
    <glyph glyph-name="uni1EE4" unicode="&#x1ee4;" horiz-adv-x="1492" 
d="M673 -20q-232 0 -356 78t-161.5 217t-9.5 323l128 848h393l-132 -864q-15 -100 7.5 -160.5t71 -88t109.5 -27.5q89 0 168.5 63t101.5 213l130 864h392l-128 -848q-28 -184 -108 -323t-227.5 -217t-378.5 -78zM433 -433l44 291h358l-44 -291h-358z" />
    <glyph glyph-name="uni1EE5" unicode="&#x1ee5;" horiz-adv-x="1218" 
d="M406 -20q-63 0 -128 21.5t-118 63.5t-81.5 102.5t-17.5 138.5l102 728h390l-95 -674q-6 -45 22.5 -75.5t87.5 -30.5t97 30.5t44 75.5l95 674h386l-145 -1034h-288l-16 212q-33 -103 -93.5 -152.5t-126 -64.5t-115.5 -15zM280 -433l44 291h358l-44 -291h-358z" />
    <glyph glyph-name="uni1EE6" unicode="&#x1ee6;" horiz-adv-x="1492" 
d="M673 -20q-232 0 -356 78t-161.5 217t-9.5 323l128 848h393l-132 -864q-15 -100 7.5 -160.5t71 -88t109.5 -27.5q89 0 168.5 63t101.5 213l130 864h392l-128 -848q-28 -184 -108 -323t-227.5 -217t-378.5 -78zM990 1546l-62 130q39 23 54 53.5t0 64.5q-12 27 -47.5 31
t-70.5 -17l-62 126q107 63 201 45.5t131 -95.5q45 -93 11.5 -182.5t-155.5 -155.5z" />
    <glyph glyph-name="uni1EE7" unicode="&#x1ee7;" horiz-adv-x="1218" 
d="M406 -20q-63 0 -128 21.5t-118 63.5t-81.5 102.5t-17.5 138.5l102 728h390l-95 -674q-6 -45 22.5 -75.5t87.5 -30.5t97 30.5t44 75.5l95 674h386l-145 -1034h-288l-16 212q-33 -103 -93.5 -152.5t-126 -64.5t-115.5 -15zM773 1134l-62 130q39 23 54 53.5t0 64.5
q-12 27 -47.5 31t-70.5 -17l-62 126q107 63 201 45.5t131 -95.5q45 -93 11.5 -182.5t-155.5 -155.5z" />
    <glyph glyph-name="uni1EE8" unicode="&#x1ee8;" horiz-adv-x="1806" 
d="M1387 1094l26 178q53 -1 91 0.5t65.5 19.5t49 64.5t42.5 135.5h234q-27 -163 -79 -257t-153 -127.5t-276 -13.5zM673 -20q-232 0 -356 78t-161.5 217t-9.5 323l128 848h393l-132 -864q-15 -100 7.5 -160.5t71 -88t109.5 -27.5q89 0 168.5 63t101.5 213l130 864h392
l-128 -848q-28 -184 -108 -323t-227.5 -217t-378.5 -78zM766 1567l247 291h389l-358 -291h-278z" />
    <glyph glyph-name="uni1EE9" unicode="&#x1ee9;" horiz-adv-x="1520" 
d="M1074 714l26 178q53 -1 91 0.5t65.5 19.5t49 64.5t42.5 135.5h234q-27 -163 -79 -257t-153 -127.5t-276 -13.5zM406 -20q-63 0 -128 21.5t-118 63.5t-81.5 102.5t-17.5 138.5l102 728h390l-95 -674q-6 -45 22.5 -75.5t87.5 -30.5t97 30.5t44 75.5l95 674h386l-145 -1034
h-288l-16 212q-33 -103 -93.5 -152.5t-126 -64.5t-115.5 -15zM555 1155l247 291h389l-358 -291h-278z" />
    <glyph glyph-name="uni1EEA" unicode="&#x1eea;" horiz-adv-x="1806" 
d="M1387 1094l26 178q53 -1 91 0.5t65.5 19.5t49 64.5t42.5 135.5h234q-27 -163 -79 -257t-153 -127.5t-276 -13.5zM673 -20q-232 0 -356 78t-161.5 217t-9.5 323l128 848h393l-132 -864q-15 -100 7.5 -160.5t71 -88t109.5 -27.5q89 0 168.5 63t101.5 213l130 864h392
l-128 -848q-28 -184 -108 -323t-227.5 -217t-378.5 -78zM750 1567l-358 291h389l247 -291h-278z" />
    <glyph glyph-name="uni1EEB" unicode="&#x1eeb;" horiz-adv-x="1549" 
d="M579 1155l-358 291h389l247 -291h-278zM435 -20q-63 0 -128 21.5t-118 63.5t-81.5 102.5t-17.5 138.5l102 728h390l-95 -674q-6 -45 22.5 -75.5t87.5 -30.5t97 30.5t44 75.5l95 674h386l-20 -143q46 1 77 16t54.5 61.5t46.5 143.5h234q-25 -151 -71 -243t-133 -130.5
t-234 -30.5l-99 -708h-288l-16 212q-33 -103 -93.5 -152.5t-126 -64.5t-115.5 -15z" />
    <glyph glyph-name="uni1EEC" unicode="&#x1eec;" horiz-adv-x="1806" 
d="M1387 1094l26 178q53 -1 91 0.5t65.5 19.5t49 64.5t42.5 135.5h234q-27 -163 -79 -257t-153 -127.5t-276 -13.5zM673 -20q-232 0 -356 78t-161.5 217t-9.5 323l128 848h393l-132 -864q-15 -100 7.5 -160.5t71 -88t109.5 -27.5q89 0 168.5 63t101.5 213l130 864h392
l-128 -848q-28 -184 -108 -323t-227.5 -217t-378.5 -78zM981 1546l-62 130q39 23 54 53.5t0 64.5q-12 27 -47.5 31t-70.5 -17l-62 126q107 63 201 45.5t131 -95.5q45 -93 11.5 -182.5t-155.5 -155.5z" />
    <glyph glyph-name="uni1EED" unicode="&#x1eed;" horiz-adv-x="1520" 
d="M785 1134l-62 130q39 23 54 53.5t0 64.5q-12 27 -47.5 31t-70.5 -17l-62 126q107 63 201 45.5t131 -95.5q45 -93 11.5 -182.5t-155.5 -155.5zM406 -20q-63 0 -128 21.5t-118 63.5t-81.5 102.5t-17.5 138.5l102 728h390l-95 -674q-6 -45 22.5 -75.5t87.5 -30.5t97 30.5
t44 75.5l95 674h386l-20 -143q46 1 77 16t54.5 61.5t46.5 143.5h234q-25 -151 -71 -243t-133 -130.5t-234 -30.5l-99 -708h-288l-16 212q-33 -103 -93.5 -152.5t-126 -64.5t-115.5 -15z" />
    <glyph glyph-name="uni1EEE" unicode="&#x1eee;" horiz-adv-x="1794" 
d="M1387 1094l26 178q53 -1 91 0.5t65.5 19.5t49 64.5t42.5 135.5h234q-27 -163 -79 -257t-153 -127.5t-276 -13.5zM673 -20q-232 0 -356 78t-161.5 217t-9.5 323l128 848h393l-132 -864q-15 -100 7.5 -160.5t71 -88t109.5 -27.5q89 0 168.5 63t101.5 213l130 864h392
l-128 -848q-28 -184 -108 -323t-227.5 -217t-378.5 -78zM587 1584l-28 178q47 44 100.5 75t131.5 31q61 0 115 -16.5t102.5 -33t94.5 -16.5q57 0 110.5 27.5t89.5 54.5l10 -206q-40 -31 -104.5 -56.5t-135.5 -25.5q-58 0 -106 15t-95.5 30t-102.5 15q-51 0 -90 -15.5
t-92 -56.5z" />
    <glyph glyph-name="uni1EEF" unicode="&#x1eef;" horiz-adv-x="1520" 
d="M386 1172l-28 178q47 44 100.5 75t131.5 31q61 0 115 -16.5t102.5 -33t94.5 -16.5q57 0 110.5 27.5t89.5 54.5l10 -206q-40 -31 -104.5 -56.5t-135.5 -25.5q-58 0 -106 15t-95.5 30t-102.5 15q-51 0 -90 -15.5t-92 -56.5zM406 -20q-63 0 -128 21.5t-118 63.5t-81.5 102.5
t-17.5 138.5l102 728h390l-95 -674q-6 -45 22.5 -75.5t87.5 -30.5t97 30.5t44 75.5l95 674h386l-20 -143q46 1 77 16t54.5 61.5t46.5 143.5h234q-25 -151 -71 -243t-133 -130.5t-234 -30.5l-99 -708h-288l-16 212q-33 -103 -93.5 -152.5t-126 -64.5t-115.5 -15z" />
    <glyph glyph-name="uni1EF0" unicode="&#x1ef0;" horiz-adv-x="1806" 
d="M1387 1094l26 178q53 -1 91 0.5t65.5 19.5t49 64.5t42.5 135.5h234q-27 -163 -79 -257t-153 -127.5t-276 -13.5zM673 -20q-232 0 -356 78t-161.5 217t-9.5 323l128 848h393l-132 -864q-15 -100 7.5 -160.5t71 -88t109.5 -27.5q89 0 168.5 63t101.5 213l130 864h392
l-128 -848q-28 -184 -108 -323t-227.5 -217t-378.5 -78zM410 -433l44 291h358l-44 -291h-358z" />
    <glyph glyph-name="uni1EF1" unicode="&#x1ef1;" horiz-adv-x="1520" 
d="M277 -433l44 291h358l-44 -291h-358zM406 -20q-63 0 -128 21.5t-118 63.5t-81.5 102.5t-17.5 138.5l102 728h390l-95 -674q-6 -45 22.5 -75.5t87.5 -30.5t97 30.5t44 75.5l95 674h386l-20 -143q46 1 77 16t54.5 61.5t46.5 143.5h234q-25 -151 -71 -243t-133 -130.5
t-234 -30.5l-99 -708h-288l-16 212q-33 -103 -93.5 -152.5t-126 -64.5t-115.5 -15z" />
    <glyph glyph-name="Ygrave" unicode="&#x1ef2;" horiz-adv-x="1436" 
d="M434 0l89 602l-377 844h417l207 -514l359 514h423l-641 -844l-92 -602h-385zM692 1567l-358 291h389l247 -291h-278z" />
    <glyph glyph-name="ygrave" unicode="&#x1ef3;" horiz-adv-x="1169" 
d="M179 -330q-118 0 -167 22l-49 22l36 246l98 -6q100 -8 147.5 11.5t62.5 44t18 30.5l8 20l-252 974h380l108 -562l288 562h378l-547 -974q-92 -163 -174.5 -247t-164 -113.5t-170.5 -29.5zM508 1155l-358 291h389l247 -291h-278z" />
    <glyph glyph-name="uni1EF4" unicode="&#x1ef4;" horiz-adv-x="1436" 
d="M434 0l89 602l-377 844h417l207 -514l359 514h423l-641 -844l-92 -602h-385zM385 -433l44 291h358l-44 -291h-358z" />
    <glyph glyph-name="uni1EF5" unicode="&#x1ef5;" horiz-adv-x="1169" 
d="M179 -330q-118 0 -167 22l-49 22l36 246l98 -6q100 -8 147.5 11.5t62.5 44t18 30.5l8 20l-252 974h380l108 -562l288 562h378l-547 -974q-92 -163 -174.5 -247t-164 -113.5t-170.5 -29.5zM615 -368l44 291h358l-44 -291h-358z" />
    <glyph glyph-name="uni1EF6" unicode="&#x1ef6;" horiz-adv-x="1436" 
d="M434 0l89 602l-377 844h417l207 -514l359 514h423l-641 -844l-92 -602h-385zM925 1546l-62 130q39 23 54 53.5t0 64.5q-12 27 -47.5 31t-70.5 -17l-62 126q107 63 201 45.5t131 -95.5q45 -93 11.5 -182.5t-155.5 -155.5z" />
    <glyph glyph-name="uni1EF7" unicode="&#x1ef7;" horiz-adv-x="1169" 
d="M179 -330q-118 0 -167 22l-49 22l36 246l98 -6q100 -8 147.5 11.5t62.5 44t18 30.5l8 20l-252 974h380l108 -562l288 562h378l-547 -974q-92 -163 -174.5 -247t-164 -113.5t-170.5 -29.5zM741 1134l-62 130q39 23 54 53.5t0 64.5q-12 27 -47.5 31t-70.5 -17l-62 126
q107 63 201 45.5t131 -95.5q45 -93 11.5 -182.5t-155.5 -155.5z" />
    <glyph glyph-name="uni1EF8" unicode="&#x1ef8;" horiz-adv-x="1436" 
d="M434 0l89 602l-377 844h417l207 -514l359 514h423l-641 -844l-92 -602h-385zM528 1584l-28 178q47 44 100.5 75t131.5 31q61 0 115 -16.5t102.5 -33t94.5 -16.5q57 0 110.5 27.5t89.5 54.5l10 -206q-40 -31 -104.5 -56.5t-135.5 -25.5q-58 0 -106 15t-95.5 30t-102.5 15
q-51 0 -90 -15.5t-92 -56.5z" />
    <glyph glyph-name="uni1EF9" unicode="&#x1ef9;" horiz-adv-x="1169" 
d="M179 -330q-118 0 -167 22l-49 22l36 246l98 -6q100 -8 147.5 11.5t62.5 44t18 30.5l8 20l-252 974h380l108 -562l288 562h378l-547 -974q-92 -163 -174.5 -247t-164 -113.5t-170.5 -29.5zM344 1172l-28 178q47 44 100.5 75t131.5 31q61 0 115 -16.5t102.5 -33t94.5 -16.5
q57 0 110.5 27.5t89.5 54.5l10 -206q-40 -31 -104.5 -56.5t-135.5 -25.5q-58 0 -106 15t-95.5 30t-102.5 15q-51 0 -90 -15.5t-92 -56.5z" />
    <glyph glyph-name="endash" unicode="&#x2013;" horiz-adv-x="1248" 
d="M94 356l42 274h1011l-42 -274h-1011z" />
    <glyph glyph-name="emdash" unicode="&#x2014;" horiz-adv-x="2355" 
d="M328 356l39 274h1653l-39 -274h-1653z" />
    <glyph glyph-name="quoteleft" unicode="&#x2018;" horiz-adv-x="572" 
d="M88 790l46 301l280 349h128l-164 -297l114 -14l-52 -339h-352z" />
    <glyph glyph-name="quoteright" unicode="&#x2019;" horiz-adv-x="583" 
d="M140 802l164 294l-114 14l52 336h352l-46 -298l-280 -346h-128z" />
    <glyph glyph-name="quotesinglbase" unicode="&#x201a;" horiz-adv-x="655" 
d="M-15 -302l174 294l-122 14l52 338h382l-46 -300l-302 -346h-138z" />
    <glyph glyph-name="quotedblleft" unicode="&#x201c;" horiz-adv-x="1067" 
d="M588 826l46 301l280 349h128l-164 -297l114 -14l-52 -339h-352zM93 826l46 301l280 349h128l-164 -297l114 -14l-52 -339h-352z" />
    <glyph glyph-name="quotedblright" unicode="&#x201d;" horiz-adv-x="1079" 
d="M636 802l164 294l-114 14l52 336h352l-46 -298l-280 -346h-128zM140 802l164 294l-114 14l52 336h352l-46 -298l-280 -346h-128z" />
    <glyph glyph-name="quotedblbase" unicode="&#x201e;" horiz-adv-x="1167" 
d="M497 -302l174 294l-122 14l52 338h382l-46 -300l-302 -346h-138zM-15 -302l174 294l-122 14l52 338h382l-46 -300l-302 -346h-138z" />
    <glyph glyph-name="dagger" unicode="&#x2020;" horiz-adv-x="1154" 
d="M257 -322l232 1072l-374 -56l50 328l346 -50l10 474h364l-134 -474l364 50l-50 -328l-360 56l-90 -1072h-358z" />
    <glyph glyph-name="daggerdbl" unicode="&#x2021;" horiz-adv-x="1159" 
d="M260 -322l130 436l-364 -52l50 328l352 -54l58 372l-370 -54l48 326l348 -50l16 516h362l-138 -516l362 50l-48 -326l-356 54l-56 -372l372 54l-50 -328l-350 52l-2 -436h-364z" />
    <glyph glyph-name="bullet" unicode="&#x2022;" horiz-adv-x="779" 
d="M405 434q-83 0 -151.5 41t-109 109.5t-40.5 151.5q0 82 40.5 150t109 109t151.5 41t151.5 -41t109.5 -109t41 -150q0 -83 -41 -151.5t-109.5 -109.5t-151.5 -41z" />
    <glyph glyph-name="ellipsis" unicode="&#x2026;" horiz-adv-x="2021" 
d="M1417 0l60 392h406l-60 -392h-406zM17 0l60 392h406l-60 -392h-406zM717 0l60 392h406l-60 -392h-406z" />
    <glyph glyph-name="perthousand" unicode="&#x2030;" horiz-adv-x="2584" 
d="M417 -8l-210 4l1193 1466h208zM457 652q-92 0 -161 47.5t-107 125.5t-38 171q0 52 25 131t76.5 157t131 131t187.5 53q89 0 156.5 -48.5t105.5 -129t38 -175.5q0 -74 -29.5 -155t-84.5 -151t-131 -113.5t-169 -43.5zM481 842q45 0 71.5 37t40.5 91t18.5 107t4.5 84
q0 59 -17 89t-56 30q-43 0 -70 -38t-41.5 -93.5t-20 -109.5t-5.5 -85q0 -55 17.5 -83.5t57.5 -28.5zM1271 -20q-91 0 -159.5 47t-106.5 125t-38 171q0 75 30.5 157.5t86.5 154.5t132.5 117.5t168.5 45.5q90 0 158 -49t106 -129t38 -174q0 -75 -29.5 -156t-84.5 -151.5
t-131.5 -114.5t-170.5 -44zM1295 172q45 0 71.5 36.5t40.5 90.5t18.5 106.5t4.5 83.5q0 59 -17 89t-56 30q-42 0 -68.5 -38.5t-41 -94t-19.5 -109t-5 -83.5q0 -55 16.5 -83t55.5 -28zM2055 -20q-92 0 -160.5 47t-106 125t-37.5 171q0 74 30 156.5t86 155t132.5 118
t169.5 45.5q90 0 157.5 -49t105 -129t37.5 -174q0 -74 -29.5 -155.5t-84.5 -152t-131 -114.5t-169 -44zM2079 172q45 0 71.5 37.5t39.5 91.5t17.5 107.5t4.5 84.5q0 57 -16.5 86t-54.5 29q-43 0 -69.5 -37.5t-40.5 -92.5t-19.5 -108t-5.5 -84q0 -56 16.5 -85t56.5 -29z" />
    <glyph glyph-name="guilsinglleft" unicode="&#x2039;" horiz-adv-x="676" 
d="M272 118l-154 384l272 400h200l-188 -400l70 -384h-200z" />
    <glyph glyph-name="guilsinglright" unicode="&#x203a;" horiz-adv-x="676" 
d="M84 118l186 384l-66 400h200l150 -400l-272 -384h-198z" />
    <glyph glyph-name="fraction" unicode="&#x2044;" horiz-adv-x="491" 
d="M-215 -8l-210 4l1193 1466h208z" />
    <glyph glyph-name="uni2070" unicode="&#x2070;" horiz-adv-x="842" 
d="M428 752q-179 0 -260 123t-49 344q31 222 148 345.5t293 123.5t257 -123.5t49 -345.5q-31 -221 -145.5 -344t-292.5 -123zM454 947q68 0 103 61t55 210q22 153 4 218t-84 65t-103 -65.5t-58 -217.5q-21 -149 -2.5 -210t85.5 -61z" />
    <glyph glyph-name="uni2074" unicode="&#x2074;" horiz-adv-x="848" 
d="M448 760l28 174h-408l29 191l485 545h236l-81 -536h130l-30 -200h-131l-27 -174h-231zM320 1134h188l38 252z" />
    <glyph glyph-name="uni2075" unicode="&#x2075;" horiz-adv-x="882" 
d="M464 746q-142 0 -243.5 56t-140.5 140l200 124q33 -52 71 -89.5t112 -37.5q68 0 113 32t51 77q7 43 -26 77.5t-104 34.5q-29 0 -56.5 -7.5t-71.5 -25.5q-13 -5 -18.5 -5t-18.5 7l-152 89l105 452h622l-38 -197h-424l-34 -151q57 15 96.5 23.5t86.5 8.5q99 0 168.5 -35.5
t102 -101.5t18.5 -160q-20 -146 -132.5 -228.5t-286.5 -82.5z" />
    <glyph glyph-name="uni2076" unicode="&#x2076;" horiz-adv-x="865" 
d="M455 756q-190 0 -278 125t-60 323q32 230 160.5 359t314.5 129q94 0 169 -34t115 -97.5t27 -153.5h-221q-8 50 -35.5 73t-76.5 23q-77 0 -123.5 -63.5t-42.5 -143.5q40 23 89.5 32t98.5 9q142 0 219 -75t60 -195q-12 -87 -70.5 -157.5t-148 -112t-197.5 -41.5zM470 937
q48 0 91.5 34t50.5 85q8 59 -29 82t-81 23q-28 0 -57.5 -12t-49.5 -27.5t-22 -26.5q-11 -79 17 -118.5t80 -39.5z" />
    <glyph glyph-name="uni2077" unicode="&#x2077;" horiz-adv-x="772" 
d="M201 760q10 65 55 180.5t131 255.5t220 277h-463l29 197h713l-31 -197q-55 -53 -118.5 -138.5t-122 -186.5t-100 -202.5t-52.5 -185.5h-261z" />
    <glyph glyph-name="uni2078" unicode="&#x2078;" horiz-adv-x="883" 
d="M449 755q-172 0 -268 73t-79 198q7 52 38.5 97t73.5 76t82 39q-47 27 -77.5 74.5t-21.5 114.5q18 128 126.5 195.5t256.5 67.5t237.5 -67.5t71.5 -195.5q-9 -67 -53 -114.5t-98 -74.5q38 -8 71 -39t51.5 -76t11.5 -97q-17 -125 -133.5 -198t-289.5 -73zM474 934
q61 0 97.5 27.5t42.5 73.5q7 46 -22 74.5t-89 28.5t-97 -28.5t-44 -74.5q-6 -46 23 -73.5t89 -27.5zM530 1329q43 0 77.5 27.5t40.5 74.5q7 47 -19.5 74.5t-70.5 27.5q-43 0 -77.5 -27.5t-40.5 -74.5q-7 -47 20 -74.5t70 -27.5z" />
    <glyph glyph-name="uni2079" unicode="&#x2079;" horiz-adv-x="803" 
d="M414 756q-94 0 -169.5 36.5t-116 102t-29.5 151.5h231q2 -45 27 -73t73 -28q77 0 137 48.5t65 172.5q-34 -31 -84 -47.5t-117 -16.5q-142 0 -224.5 77.5t-64.5 205.5q13 88 69.5 157.5t145 109.5t196.5 40q189 0 277.5 -122.5t59.5 -321.5q-36 -257 -163.5 -374.5
t-312.5 -117.5zM505 1291q29 0 58.5 12t50 27.5t21.5 26.5q11 80 -16.5 118t-80.5 38q-48 0 -86.5 -32t-45.5 -85q-7 -52 24.5 -78.5t74.5 -26.5z" />
    <glyph glyph-name="colonmonetary" unicode="&#x20a1;" horiz-adv-x="1485" 
d="M689 -20q-184 0 -314 78t-199.5 216t-69.5 319q0 162 51 317.5t152.5 281t253 200t352.5 74.5q168 0 290 -62.5t188 -181t66 -286.5h-403q-1 67 -24 116t-67.5 75.5t-111.5 26.5q-94 0 -157 -55t-100.5 -143.5t-53.5 -189t-16 -192.5q0 -151 54.5 -216.5t143.5 -65.5
q66 0 119.5 34t92 90.5t59.5 123.5h404q-32 -112 -83 -213t-132 -179.5t-201.5 -123t-293.5 -44.5zM424 -122l320 1682h154l-320 -1682h-154zM668 -122l320 1682h154l-320 -1682h-154z" />
    <glyph glyph-name="franc" unicode="&#x20a3;" horiz-adv-x="1282" 
d="M31 0l220 1446h1102l-50 -318h-662l-40 -260h428l-46 -310h-428l-84 -558h-440zM-103 212l30 198h876l-30 -198h-876z" />
    <glyph glyph-name="lira" unicode="&#x20a4;" horiz-adv-x="1356" 
d="M-23 0l48 318h62q57 0 100.5 21t65.5 67q6 12 9.5 26t6.5 30t-16 16h-202l30 196h194l4 96h-184l30 198h156l8 96q10 134 91 223.5t202.5 134t252.5 44.5q96 0 192 -33.5t170.5 -106.5t105.5 -192l-350 -96q-10 50 -30.5 89t-71.5 39q-45 0 -75 -31.5t-39 -88.5
q-1 -12 -1.5 -25.5t-2.5 -28.5q0 -24 20 -24h225l-29 -198h-216l-6 -96h208l-30 -196h-220q-17 -32 -40 -60.5t-51.5 -53t-62.5 -44.5h206q81 0 132 36t88 120l314 -64q-75 -199 -220.5 -305.5t-331.5 -106.5h-742z" />
    <glyph glyph-name="uni20A6" unicode="&#x20a6;" horiz-adv-x="1953" 
d="M76 0l439 1446h387l313 -806l243 806h386l-439 -1446h-347l-336 862l-260 -862h-386zM6 420l26 176h1906l-26 -176h-1906zM76 888l28 176h1906l-28 -176h-1906z" />
    <glyph glyph-name="uni20A9" unicode="&#x20a9;" horiz-adv-x="2398" 
d="M460 0l6 1446h372l-14 -776l447 776h269l-13 -776l448 776h371l-865 -1446h-286l12 786l-465 -786h-282zM64 829l30 196h2324l-28 -196h-2326zM114 1122l31 196h2326l-31 -196h-2326z" />
    <glyph glyph-name="dong" unicode="&#x20ab;" horiz-adv-x="1123" 
d="M350 250q-95 0 -160.5 49t-91.5 146.5t-4 242.5q21 136 83.5 236t148 155t174.5 55q54 0 99 -17t85 -65q12 -9 21.5 -7.5t12.5 19.5l58 382h320l-180 -1180h-316l16 96q-41 -37 -81 -62t-85 -37.5t-100 -12.5zM52 0l26 174h824l-26 -174h-824zM510 442q32 0 59.5 13.5
t45.5 38t23 56.5l48 324q-19 30 -41.5 46t-60.5 16q-55 0 -100 -52.5t-66 -193.5q-14 -92 -7.5 -146.5t32 -78t67.5 -23.5zM548 1192l24 156h628l-24 -156h-628z" />
    <glyph glyph-name="Euro" unicode="&#x20ac;" horiz-adv-x="1399" 
d="M720 -20q-182 0 -309.5 99t-183.5 271t-23 392q34 220 140.5 382.5t263 252t340.5 89.5q164 0 285.5 -66.5t184.5 -179.5l-292 -188q-33 50 -73.5 92t-113.5 42q-98 0 -175.5 -95.5t-113.5 -334.5q-25 -161 -6 -256.5t67 -137.5t109 -42q49 0 101 23t96.5 58t72.5 71
l172 -214q-96 -108 -239.5 -183t-302.5 -75zM12 458l30 198h894l-30 -198h-894zM64 790l28 196h896l-30 -196h-894z" />
    <glyph glyph-name="uni20B9" unicode="&#x20b9;" horiz-adv-x="1392" 
d="M613 0l-116 598h-426l42 272h452q105 0 156 47t66 141q15 105 -31.5 151.5t-142.5 46.5h-442l28 190h512q278 0 417.5 -106.5t110.5 -295.5q-13 -89 -56.5 -163t-109.5 -128.5t-146 -84.5q-18 -6 -10 -36l174 -632h-478zM129 976l26 176h1264l-28 -176h-1262zM173 1270
l26 176h1264l-26 -176h-1264z" />
    <glyph glyph-name="uni20BA" unicode="&#x20ba;" horiz-adv-x="1459" 
d="M217 0l218 1446h442l-170 -1126h44q95 5 186.5 82t161.5 210l324 -70q-54 -103 -130 -200t-182 -174.5t-249 -122.5t-331 -45h-314zM111 368l-38 186l972 338l38 -186zM119 678l-40 186l976 338l40 -184z" />
    <glyph glyph-name="uni2113" unicode="&#x2113;" horiz-adv-x="1260" 
d="M610 -20q-202 0 -303.5 80t-121.5 231l-102 -73l-56 204l184 128l58 401q38 264 184 389.5t358 125.5q146 0 223.5 -52t102 -138t10.5 -188q-15 -106 -63 -192.5t-121.5 -161.5t-166 -146.5t-195.5 -147.5q-18 -100 1 -139t114 -39q79 0 160 46.5t168 129.5l109 -146
q-18 -36 -58.5 -88t-106 -103.5t-159.5 -86t-219 -34.5zM635 762q58 50 105 97t82 94t56.5 95.5t28.5 99.5q7 46 -6 73t-57 27q-56 0 -104 -60.5t-71 -224.5z" />
    <glyph glyph-name="uni2116" unicode="&#x2116;" horiz-adv-x="2373" 
d="M62 0l221 1446h390l438 -806l121 806h389l-221 -1446h-349l-470 862l-130 -862h-389zM2036 796q-137 0 -211 93.5t-54 238.5q15 101 67 177t129 118.5t166 42.5q140 0 213.5 -95.5t52.5 -242.5q-13 -97 -64.5 -172t-128.5 -117.5t-170 -42.5zM2059 952q46 0 73.5 43
t40.5 137q14 96 -1.5 139t-60.5 43t-72 -43t-41 -139q-13 -94 2.5 -137t58.5 -43z" />
    <glyph glyph-name="uni2117" unicode="&#x2117;" horiz-adv-x="1678" 
d="M745 -20q-153 0 -278 57.5t-211 159.5t-123 237t-14 290q23 153 101 287.5t195 236.5t259.5 160t294.5 58q153 0 278.5 -58t212 -160t123.5 -236.5t14 -287.5q-24 -155 -102.5 -290t-195.5 -237t-259.5 -159.5t-294.5 -57.5zM775 178q119 0 220.5 38t181 109.5
t131.5 172.5t71 226q19 124 -2.5 224.5t-79 173t-147.5 111.5t-209 39q-120 0 -222 -39t-181 -111.5t-130.5 -173t-70.5 -224.5q-26 -167 19 -289.5t152 -189.5t267 -67zM501 340l116 768h374q84 0 150.5 -28t100 -87t19.5 -151q-19 -124 -107.5 -190t-216.5 -66h-164
l-38 -246h-234zM797 750h132q38 0 62.5 25.5t31.5 70.5q8 50 -14.5 72t-57.5 22h-124z" />
    <glyph glyph-name="uni2120" unicode="&#x2120;" horiz-adv-x="2087" 
d="M940 0l137 904h359l62 -551l230 551h357l-136 -904h-242l98 655l-273 -655h-175l-76 655l-99 -655h-242zM409 -12q-95 0 -180.5 29.5t-137.5 93t-45 164.5h252q2 -48 38 -74.5t99 -26.5q57 0 105.5 17t55.5 65q6 42 -38.5 56.5t-99.5 23.5l-136 24q-104 17 -158 84
t-39 182q13 92 74 156.5t152 98.5t194 34q110 0 189.5 -40.5t121 -105.5t38.5 -139h-245q2 35 -12.5 56.5t-43 31.5t-70.5 10q-48 0 -76.5 -11.5t-42 -27.5t-15.5 -33q-5 -31 12 -49.5t75 -28.5l135 -24q96 -17 146.5 -52.5t70 -79.5t20 -88t-4.5 -78q-11 -77 -72 -137.5
t-155 -95.5t-207 -35z" />
    <glyph glyph-name="trademark" unicode="&#x2122;" horiz-adv-x="1979" 
d="M832 0l137 904h359l62 -551l230 551h357l-136 -904h-242l98 655l-273 -655h-175l-76 655l-99 -655h-242zM220 0l104 690h-254l33 214h753l-32 -214h-258l-105 -690h-241z" />
    <glyph glyph-name="uni2126" unicode="&#x2126;" horiz-adv-x="1530" 
d="M1 0l50 328h240q-34 32 -64.5 71.5t-55.5 87t-41 102.5t-20.5 117t5.5 130q19 123 84 242t169.5 215t244 153.5t306.5 57.5q173 0 292.5 -61.5t190 -160.5t95.5 -216t8 -228q-12 -76 -39 -144.5t-69.5 -130.5t-100 -120.5t-131.5 -114.5h250l-50 -328h-636l44 280
q44 29 88 74.5t83.5 108t70 144t46.5 183.5q17 110 8.5 187.5t-36 125.5t-69.5 70.5t-93 22.5q-48 0 -98 -21t-96 -68.5t-81 -127.5t-53 -199q-18 -121 -3 -219t52.5 -169.5t88.5 -111.5l-42 -280h-638z" />
    <glyph glyph-name="uni2153" unicode="&#x2153;" horiz-adv-x="1935" 
d="M186 552l98 643h-150l19 128q113 0 177 38.5t83 100.5h156l-139 -910h-244zM378 -8l-210 4l1193 1466h208zM1400 -20q-185 0 -266.5 82.5t-60.5 230.5h231q4 -71 39.5 -95.5t83.5 -24.5q70 0 111 27t47 68q5 37 -25 62.5t-88 28.5l-91 5l27 189l80 6q40 3 68 14t45 31
t21 48q5 43 -32 61.5t-87 18.5q-38 0 -69 -10.5t-53 -36.5t-34 -75h-230q15 107 74 174.5t149 99.5t196 32q108 0 191 -25.5t125.5 -81t29.5 -146.5q-10 -67 -52.5 -115.5t-134.5 -77.5q41 -11 78 -37t58.5 -68.5t12.5 -106.5q-13 -95 -78.5 -156.5t-162 -91.5t-203.5 -30z
" />
    <glyph glyph-name="uni2154" unicode="&#x2154;" horiz-adv-x="2268" 
d="M59 558l15 108l9 56q11 80 52.5 135t101 93.5t123.5 66.5t121 52.5t95.5 52.5t43.5 66q5 41 -19.5 68t-74.5 27t-96.5 -30.5t-70.5 -105.5h-231q20 141 127.5 237t303.5 96q168 0 252 -80t65 -209q-11 -79 -51.5 -132.5t-97 -88.5t-118 -59.5t-116 -45t-91 -45
t-41.5 -61.5v0h449l-29 -201h-722zM711 -8l-210 4l1193 1466h208zM1733 -20q-185 0 -266.5 82.5t-60.5 230.5h231q4 -71 39.5 -95.5t83.5 -24.5q70 0 111 27t47 68q5 37 -25 62.5t-88 28.5l-91 5l27 189l80 6q40 3 68 14t45 31t21 48q5 43 -32 61.5t-87 18.5
q-38 0 -69 -10.5t-53 -36.5t-34 -75h-230q15 107 74 174.5t149 99.5t196 32q108 0 191 -25.5t125.5 -81t29.5 -146.5q-10 -67 -52.5 -115.5t-134.5 -77.5q41 -11 78 -37t58.5 -68.5t12.5 -106.5q-13 -95 -78.5 -156.5t-162 -91.5t-203.5 -30z" />
    <glyph glyph-name="oneeighth" unicode="&#x215b;" horiz-adv-x="1929" 
d="M186 552l98 643h-150l19 128q113 0 177 38.5t83 100.5h156l-139 -910h-244zM378 -8l-210 4l1193 1466h208zM1413 -21q-172 0 -268 73t-79 198q7 52 38 97t73.5 76t82.5 39q-47 27 -77.5 74.5t-21.5 114.5q18 128 126.5 195.5t256.5 67.5t237.5 -67.5t71.5 -195.5
q-9 -67 -53 -114.5t-98 -74.5q38 -8 71 -39t51.5 -76t11.5 -97q-17 -125 -133.5 -198t-289.5 -73zM1438 158q61 0 97.5 27.5t42.5 73.5q7 46 -22 74.5t-89 28.5t-97 -28.5t-44 -74.5q-6 -46 23 -73.5t89 -27.5zM1494 553q43 0 77.5 27.5t40.5 74.5q7 47 -19.5 74.5
t-70.5 27.5q-43 0 -77.5 -27.5t-40.5 -74.5q-7 -47 20 -74.5t70 -27.5z" />
    <glyph glyph-name="threeeighths" unicode="&#x215c;" horiz-adv-x="2187" 
d="M435 544q-185 0 -266.5 82.5t-60.5 230.5h231q4 -71 39.5 -95.5t83.5 -24.5q70 0 111 27t47 68q5 37 -25 62.5t-88 28.5l-91 5l27 189l80 6q40 3 68 14t45 31t21 48q5 43 -32 61.5t-87 18.5q-38 0 -69 -10.5t-53 -36.5t-34 -75h-230q15 107 74 174.5t149 99.5t196 32
q108 0 191 -25.5t125.5 -81t29.5 -146.5q-10 -67 -52.5 -115.5t-134.5 -77.5q41 -12 78 -37.5t58.5 -68t12.5 -106.5q-13 -95 -78.5 -156.5t-162 -91.5t-203.5 -30zM636 -8l-210 4l1193 1466h208zM1671 -21q-172 0 -268 73t-79 198q7 52 38 97t73.5 76t82.5 39
q-47 27 -77.5 74.5t-21.5 114.5q18 128 126.5 195.5t256.5 67.5t237.5 -67.5t71.5 -195.5q-9 -67 -53 -114.5t-98 -74.5q38 -8 71 -39t51.5 -76t11.5 -97q-17 -125 -133.5 -198t-289.5 -73zM1696 158q61 0 97.5 27.5t42.5 73.5q7 46 -22 74.5t-89 28.5t-97 -28.5t-44 -74.5
q-6 -46 23 -73.5t89 -27.5zM1752 553q43 0 77.5 27.5t40.5 74.5q7 47 -19.5 74.5t-70.5 27.5q-43 0 -77.5 -27.5t-40.5 -74.5q-7 -47 20 -74.5t70 -27.5z" />
    <glyph glyph-name="fiveeighths" unicode="&#x215d;" horiz-adv-x="2177" 
d="M464 538q-142 0 -243.5 56t-140.5 140l200 124q33 -52 71 -89.5t112 -37.5q68 0 113 32t51 77q7 43 -26 77.5t-104 34.5q-29 0 -56.5 -7.5t-71.5 -25.5q-13 -5 -18.5 -5t-18.5 7l-152 89l105 452h622l-38 -197h-424l-34 -151q57 15 96.5 23.5t86.5 8.5q99 0 168.5 -35.5
t102 -101.5t18.5 -160q-20 -146 -132.5 -228.5t-286.5 -82.5zM626 -8l-210 4l1193 1466h208zM1661 -21q-172 0 -268 73t-79 198q7 52 38 97t73.5 76t82.5 39q-47 27 -77.5 74.5t-21.5 114.5q18 128 126.5 195.5t256.5 67.5t237.5 -67.5t71.5 -195.5q-9 -67 -53 -114.5
t-98 -74.5q38 -8 71 -39t51.5 -76t11.5 -97q-17 -125 -133.5 -198t-289.5 -73zM1686 158q61 0 97.5 27.5t42.5 73.5q7 46 -22 74.5t-89 28.5t-97 -28.5t-44 -74.5q-6 -46 23 -73.5t89 -27.5zM1742 553q43 0 77.5 27.5t40.5 74.5q7 47 -19.5 74.5t-70.5 27.5
q-43 0 -77.5 -27.5t-40.5 -74.5q-7 -47 20 -74.5t70 -27.5z" />
    <glyph glyph-name="seveneighths" unicode="&#x215e;" horiz-adv-x="2018" 
d="M201 550q10 65 55 180.5t131 255.5t220 277h-463l29 197h713l-31 -197q-55 -53 -118.5 -138.5t-122 -186.5t-100 -202.5t-52.5 -185.5h-261zM467 -8l-210 4l1193 1466h208zM1502 -21q-172 0 -268 73t-79 198q7 52 38 97t73.5 76t82.5 39q-47 27 -77.5 74.5t-21.5 114.5
q18 128 126.5 195.5t256.5 67.5t237.5 -67.5t71.5 -195.5q-9 -67 -53 -114.5t-98 -74.5q38 -8 71 -39t51.5 -76t11.5 -97q-17 -125 -133.5 -198t-289.5 -73zM1527 158q61 0 97.5 27.5t42.5 73.5q7 46 -22 74.5t-89 28.5t-97 -28.5t-44 -74.5q-6 -46 23 -73.5t89 -27.5z
M1583 553q43 0 77.5 27.5t40.5 74.5q7 47 -19.5 74.5t-70.5 27.5q-43 0 -77.5 -27.5t-40.5 -74.5q-7 -47 20 -74.5t70 -27.5z" />
    <glyph glyph-name="partialdiff" unicode="&#x2202;" horiz-adv-x="1233" 
d="M496 -20q-164 0 -267.5 64t-145 173.5t-20.5 246.5q20 135 91.5 246t184 176.5t255.5 65.5q99 0 148.5 -28.5t85.5 -61.5q21 -19 28 -9.5t10 25.5q5 38 -5 91t-42.5 103.5t-94.5 84t-160 33.5q-96 0 -161.5 -28.5t-112.5 -55.5l-68 224q30 22 93 54t152.5 57t198.5 25
q181 0 310.5 -81.5t186 -249.5t17.5 -427q-33 -216 -120 -380t-228 -256t-336 -92zM532 246h2q58 0 105 36t81.5 99.5t55.5 146.5q8 29 8 41.5t-8 28.5q-15 39 -51 72.5t-93 33.5q-52 0 -96.5 -34t-75.5 -92t-42 -130q-10 -69 2.5 -113.5t41.5 -66.5t70 -22z" />
    <glyph glyph-name="emptyset" unicode="&#x2205;" horiz-adv-x="1230" 
d="M132 210l-98 124l1092 892l96 -122zM562 246q-131 0 -229.5 65t-146.5 174.5t-28 242.5q15 99 65.5 186t126.5 153t168 103.5t190 37.5q132 0 231 -65t147 -174t28 -241q-20 -133 -101.5 -242.5t-200 -174.5t-250.5 -65zM588 410q87 0 165 43t131.5 115t67.5 160
q13 86 -19 158t-97 115t-152 43t-165 -43t-131 -115t-66 -158q-14 -88 17.5 -160t96.5 -115t152 -43z" />
    <glyph glyph-name="uni2206" unicode="&#x2206;" horiz-adv-x="1654" 
d="M-43 0l1036 1446l558 -1446h-1594zM563 318h496l-168 454z" />
    <glyph glyph-name="product" unicode="&#x220f;" horiz-adv-x="1467" 
d="M116 0l172 1132h-162l48 314h1364l-48 -314h-164l-172 -1132h-394l172 1132h-250l-170 -1132h-396z" />
    <glyph glyph-name="summation" unicode="&#x2211;" horiz-adv-x="1220" 
d="M-13 0l34 228l474 486l-308 476l38 256h1022l-46 -306h-498l278 -380l-444 -436h576l-50 -324h-1076z" />
    <glyph glyph-name="minus" unicode="&#x2212;" horiz-adv-x="1235" 
d="M120 590l42 276h1012l-42 -276h-1012z" />
    <glyph glyph-name="uni2215" unicode="&#x2215;" horiz-adv-x="1247" 
d="M222 -8l-215 4l1080 1466h213z" />
    <glyph glyph-name="uni2219" unicode="&#x2219;" horiz-adv-x="770" 
d="M372 550q-73 0 -118.5 53.5t-33.5 128.5q11 75 72 128.5t136 53.5q74 0 119 -53.5t33 -128.5q-10 -75 -71.5 -128.5t-136.5 -53.5z" />
    <glyph glyph-name="radical" unicode="&#x221a;" horiz-adv-x="1468" 
d="M416 -322l-160 764l-172 -60l-44 208l468 158l148 -724l644 1628h318l-816 -1974h-386z" />
    <glyph glyph-name="infinity" unicode="&#x221e;" horiz-adv-x="1686" 
d="M395 154q-96 0 -170.5 47t-111.5 133t-20 202q18 115 81.5 201.5t157.5 134.5t205 48q84 0 139 -26t95.5 -70t81.5 -98q14 -19 23.5 -18.5t28.5 18.5q44 43 98 88t122.5 75.5t155.5 30.5q101 0 174.5 -45.5t108 -128.5t17.5 -196l-2 -4q-19 -124 -83.5 -211.5
t-156.5 -134t-192 -46.5q-83 0 -138.5 28.5t-96.5 76.5t-81 105q-10 14 -17.5 15.5t-22.5 -15.5q-17 -15 -52 -49t-85.5 -71t-115.5 -63.5t-143 -26.5zM453 380h4q38 0 76.5 19t71.5 47t56 54q18 21 18.5 32t-10.5 36q-33 62 -73 97t-97 35q-64 0 -111.5 -44.5t-58.5 -113.5
q-10 -72 25.5 -117t98.5 -45zM1185 380q44 0 78 24t55 61t27 75q9 63 -21.5 111.5t-96.5 48.5h-2q-58 0 -111 -41t-97 -85q-19 -19 -18 -35.5t8 -30.5q32 -56 65.5 -83.5t63 -36t49.5 -8.5z" />
    <glyph glyph-name="integral" unicode="&#x222b;" horiz-adv-x="1005" 
d="M126 -344q-75 0 -128 15t-82 33l122 312q18 -10 47 -21t71 -11q50 0 79 41t47 161q17 111 31.5 239t27.5 255t24.5 237t22.5 185q44 285 163.5 427.5t344.5 142.5q78 0 133.5 -16t80.5 -34l-118 -312q-21 11 -50.5 22.5t-73.5 11.5q-51 0 -79.5 -41.5t-46.5 -154.5
q-17 -117 -31.5 -244t-27 -250t-24 -229.5t-23.5 -182.5q-30 -197 -93.5 -327t-166 -194.5t-250.5 -64.5z" />
    <glyph glyph-name="approxequal" unicode="&#x2248;" horiz-adv-x="1284" 
d="M245 670l-82 184q102 95 193.5 156.5t194.5 61.5q65 0 110.5 -21t82 -48t73 -48t82.5 -21q68 0 133.5 49t114.5 119l84 -180q-81 -115 -178.5 -169.5t-181.5 -54.5q-61 0 -107.5 21t-85.5 49t-78.5 49t-88.5 21q-76 0 -139.5 -52.5t-126.5 -115.5zM179 228l-84 184
q104 95 194.5 156.5t195.5 61.5q64 0 109.5 -21t82.5 -48t73 -48t81 -21q69 0 134 49t114 119l84 -180q-79 -115 -176.5 -169.5t-183.5 -54.5q-61 0 -106.5 21t-84.5 49t-79 49t-90 21q-76 0 -140 -53t-124 -115z" />
    <glyph glyph-name="notequal" unicode="&#x2260;" horiz-adv-x="1242" 
d="M242 22l620 1310h188l-612 -1310h-196zM153 778l42 276h1012l-42 -276h-1012zM81 308l42 276h1012l-42 -276h-1012z" />
    <glyph glyph-name="lessequal" unicode="&#x2264;" horiz-adv-x="1236" 
d="M1080 354l-928 384l48 310l1044 382l-50 -322l-610 -218l544 -212zM40 16l42 274h1012l-42 -274h-1012z" />
    <glyph glyph-name="greaterequal" unicode="&#x2265;" horiz-adv-x="1241" 
d="M114 354l48 324l610 212l-544 218l48 322l930 -382l-46 -310zM40 16l42 274h1012l-42 -274h-1012z" />
    <glyph glyph-name="lozenge" unicode="&#x25ca;" horiz-adv-x="1227" 
d="M435 0l-266 724l492 722h238l268 -718l-496 -728h-236zM599 264l290 460l-152 450l-286 -446z" />
    <glyph glyph-name="i.loclTRK" horiz-adv-x="600" 
d="M27 0l158 1034h388l-158 -1034h-388zM223 1155l44 291h358l-44 -291h-358z" />
    <glyph glyph-name="g.ss01" horiz-adv-x="1146" 
d="M412 -336q-116 0 -194.5 38.5t-124.5 96t-64 115t-12 94.5h326q-3 -15 24 -40.5t80 -25.5q65 0 112.5 29t76 75.5t34.5 99.5l5 34q-49 -72 -125 -95t-167 -23q-90 0 -169 63t-121 174.5t-22 256.5q12 84 48.5 171t94.5 161t136 119t173 45q54 0 102 -20t82.5 -52
t49.5 -68l16 120h355l-113 -794q-24 -173 -109 -302t-213 -200.5t-281 -71.5zM538 332q47 0 81.5 30t56.5 80.5t30 113.5v0q9 58 -0.5 111t-35.5 87t-67 34q-47 0 -82 -34t-57.5 -87t-30.5 -111t1.5 -109t36 -83t67.5 -32z" />
    <glyph glyph-name="l.ss01" horiz-adv-x="671" 
d="M68 0l208 1486h390l-208 -1486h-390z" />
    </font>
</defs>
</svg>
